<?xml version="1.0" standalone="no"?>
<!DOCTYPE svg PUBLIC "-//W3C//DTD SVG 1.1//EN" "http://www.w3.org/Graphics/SVG/1.1/DTD/svg11.dtd" >
<svg xmlns="http://www.w3.org/2000/svg" xmlns:xlink="http://www.w3.org/1999/xlink" version="1.1">
<metadata>
Created by FontForge 20170731 at Fri Sep  7 16:43:17 2018
 By Aleksey,,,
Copyright 2018 Bai Jamjuree (https://github.com/cadsondemak/Bai-Jamjuree)
</metadata>
<defs>
<font id="BaiJamjuree-Medium" horiz-adv-x="0" >
  <font-face 
    font-family="Bai Jamjuree Medium"
    font-weight="500"
    font-stretch="normal"
    units-per-em="1000"
    panose-1="0 0 6 0 0 0 0 0 0 0"
    ascent="800"
    descent="-200"
    x-height="499"
    cap-height="700"
    bbox="-656 -512 1351 1212"
    underline-thickness="50"
    underline-position="-150"
    unicode-range="U+000D-FB02"
  />
<missing-glyph horiz-adv-x="509" 
d="M50 712h409v-712h-409v712zM392 66v580h-274v-580h274z" />
    <glyph glyph-name="fi" unicode="fi" horiz-adv-x="575" 
d="M505 0h-93v419h-200v-419h-93v419h-86v81h86v36q0 82 45 125t130 43h136v-80h-136q-42 0 -62 -21.5t-20 -67.5v-35h293v-500z" />
    <glyph glyph-name="fl" unicode="fl" horiz-adv-x="623" 
d="M609 81v-81h-44q-79 0 -114 33.5t-35 108.5v277h-204v-419h-93v419h-86v81h86v36q0 82 45 125t130 43h66v-80h-66q-42 0 -62 -21.5t-20 -67.5v-35h204v203h93v-558q0 -34 14 -49t45 -15h41z" />
    <glyph glyph-name="uni0E240E45" unicode="&#xe24;&#xe45;" horiz-adv-x="945" 
d="M824.5 512q46.5 -46 46.5 -121v-591h-94v591q0 38 -20.5 61.5t-54.5 23.5h-75q-35 0 -58.5 -25.5t-27.5 -67.5v-583h-93v590q0 39 -23.5 62.5t-63.5 23.5h-109q-36 0 -67.5 -26.5t-47.5 -70.5q33 -16 51.5 -47.5t18.5 -69.5v-69q11 3 22 3q46 0 74 -28t28 -74
q0 -47 -30 -75.5t-79 -28.5t-78.5 28.5t-29.5 75.5v168q0 35 -20 57.5t-58 29.5q8 57 38.5 105t77 76t99.5 28h121q40 0 73 -16t54 -45q21 29 55 45t74 16h74q76 0 122.5 -46zM188 128q-13 -13 -13 -34t13 -34t34 -13q22 0 34.5 13t12.5 34t-12.5 34t-34.5 13q-21 0 -34 -13
z" />
    <glyph glyph-name="uni0E260E45" unicode="&#xe26;&#xe45;" horiz-adv-x="960" 
d="M839.5 512q46.5 -46 46.5 -121v-591h-93v591q0 38 -21 61.5t-55 23.5h-75q-35 0 -58.5 -25.5t-26.5 -67.5v-583h-94v590q0 38 -23.5 62t-62.5 24h-96q-36 0 -66 -26.5t-47 -70.5q38 -17 60 -47.5t22 -65.5v-172q0 -46 -30 -75t-78 -29t-77.5 28.5t-29.5 75.5
q0 46 27.5 73.5t73.5 27.5q8 0 20 -2v73q0 30 -23.5 53t-64.5 30q8 57 38 105t75.5 76t98.5 28h107q40 0 73 -16t54 -45q21 29 55 45t74 16h74q76 0 122.5 -46zM176 59.5q13 12.5 13 34.5q0 21 -13 33.5t-34 12.5q-22 0 -34.5 -12.5t-12.5 -33.5q0 -22 12.5 -34.5
t34.5 -12.5q21 0 34 12.5z" />
    <glyph glyph-name=".notdef" horiz-adv-x="509" 
d="M50 712h409v-712h-409v712zM392 66v580h-274v-580h274z" />
    <glyph glyph-name=".null" 
 />
    <glyph glyph-name="nonmarkingreturn" unicode="&#xd;" horiz-adv-x="269" 
 />
    <glyph glyph-name="NULL" 
 />
    <glyph glyph-name="NULL" 
 />
    <glyph glyph-name="space" unicode=" " horiz-adv-x="269" 
 />
    <glyph glyph-name="exclam" unicode="!" horiz-adv-x="279" 
d="M92 700h94v-499h-94v499zM93.5 7.5q-17.5 17.5 -17.5 45.5t17.5 46t45.5 18q29 0 46.5 -17.5t17.5 -46.5q0 -28 -18 -45.5t-46 -17.5t-45.5 17.5z" />
    <glyph glyph-name="quotedbl" unicode="&#x22;" horiz-adv-x="362" 
d="M50 700h93v-224h-93v224zM219 700h93v-224h-93v224z" />
    <glyph glyph-name="numbersign" unicode="#" horiz-adv-x="697" 
d="M170 174h-120v80h120v189h-120v80h120v177h91v-177h175v177h91v-177h120v-80h-120v-189h120v-80h-120v-174h-91v174h-175v-174h-91v174zM436 253v191h-175v-191h175z" />
    <glyph glyph-name="dollar" unicode="$" horiz-adv-x="637" 
d="M547.5 326.5q44.5 -40.5 44.5 -101.5v-65q0 -76 -58.5 -122t-155.5 -46h-9v-99h-93v99h-13q-97 0 -155 58t-58 156h93q0 -59 33.5 -94t88.5 -35h111q55 0 88 23.5t33 62.5v54q0 31 -23.5 52t-66.5 28l-182 30q-80 13 -123.5 55t-43.5 105v55q0 75 57.5 120.5t151.5 45.5
h9v99h93v-99h11q59 0 104.5 -24.5t70.5 -69t25 -102.5h-94q0 50 -29 80.5t-77 30.5h-113q-51 0 -82.5 -22.5t-31.5 -61.5v-45q0 -32 22.5 -53t64.5 -29l180 -31q83 -14 127.5 -54.5z" />
    <glyph glyph-name="percent" unicode="%" horiz-adv-x="990" 
d="M641 722h95l-383 -747h-95zM90 302q-40 42 -40 111v142q0 69 40 111t107 42h56q66 0 106 -42t40 -111v-142q0 -69 -40 -111t-106 -42h-56q-67 0 -107 42zM252 334q29 0 46.5 22.5t17.5 59.5v136q0 37 -17.5 59.5t-46.5 22.5h-54q-29 0 -46.5 -22.5t-17.5 -59.5v-136
q0 -37 17.5 -59.5t46.5 -22.5h54zM631 34q-40 42 -40 111v142q0 69 40 111t107 42h56q66 0 106 -42t40 -111v-142q0 -69 -40 -111t-106 -42h-56q-67 0 -107 42zM793 66q29 0 46.5 22.5t17.5 59.5v136q0 37 -17.5 59.5t-46.5 22.5h-54q-29 0 -46.5 -22.5t-17.5 -59.5v-136
q0 -37 17.5 -59.5t46.5 -22.5h54z" />
    <glyph glyph-name="ampersand" unicode="&#x26;" horiz-adv-x="663" 
d="M541 0l-58 68q-37 -37 -84.5 -56.5t-100.5 -19.5h-48q-92 0 -146 45.5t-54 122.5v39q0 48 20 81.5t51.5 57.5t86.5 55l-20 26q-50 64 -50 119v21q0 69 46 109t122 40h40q69 0 112 -40t43 -105v-20q0 -34 -13.5 -59t-44.5 -49t-90 -57l-19 -11l140 -164q23 52 29 117h83
q-6 -106 -53 -186l114 -134h-106zM225 539q0 -34 33 -79l29 -37l19 12q45 27 67 43.5t31 31t9 33.5v20q0 31 -19 49.5t-50 18.5h-38q-37 0 -59 -19.5t-22 -53.5v-19zM429 132l-169 199q-63 -34 -90 -61t-27 -70v-39q0 -40 29.5 -64t77.5 -24h49q74 0 130 59z" />
    <glyph glyph-name="quotesingle" unicode="'" horiz-adv-x="193" 
d="M50 700h93v-224h-93v224z" />
    <glyph glyph-name="parenleft" unicode="(" horiz-adv-x="318" 
d="M84 9.5q-34 107.5 -34 230.5v20q0 127 34 234t105 206h99q-74 -105 -109.5 -211.5t-35.5 -228.5v-20q0 -116 35 -223t110 -219h-99q-71 104 -105 211.5z" />
    <glyph glyph-name="parenright" unicode=")" horiz-adv-x="318" 
d="M140 16q35 107 35 224v20q0 123 -35.5 230t-109.5 210h99q71 -99 105 -206t34 -234v-20q0 -123 -34 -230.5t-105 -211.5h-99q75 111 110 218z" />
    <glyph glyph-name="asterisk" unicode="*" horiz-adv-x="445" 
d="M185 556l-103 -66l-32 63l113 61l-113 59l32 63l103 -65v110h76v-110l102 65l32 -63l-113 -59l113 -61l-32 -63l-102 66v-110h-76v110z" />
    <glyph glyph-name="plus" unicode="+" horiz-adv-x="571" 
d="M239 284h-189v80h189v189h93v-189h189v-80h-189v-189h-93v189z" />
    <glyph glyph-name="comma" unicode="," horiz-adv-x="228" 
d="M6 -80l20 16q57 42 57 110v54h93v-54q0 -118 -89 -179l-24 -17z" />
    <glyph glyph-name="hyphen" unicode="-" horiz-adv-x="386" 
d="M50 297h286v-82h-286v82z" />
    <glyph glyph-name="period" unicode="." horiz-adv-x="227" 
d="M67.5 7.5q-17.5 17.5 -17.5 45.5t17.5 46t45.5 18q29 0 46.5 -17.5t17.5 -46.5q0 -28 -18 -45.5t-46 -17.5t-45.5 17.5z" />
    <glyph glyph-name="slash" unicode="/" horiz-adv-x="530" 
d="M406 722h94l-376 -747h-94z" />
    <glyph glyph-name="zero" unicode="0" horiz-adv-x="655" 
d="M163 21q-49 29 -76 81.5t-27 120.5v254q0 68 27 120.5t76 81.5t113 29h106q63 0 111.5 -29t75 -81.5t26.5 -120.5v-254q0 -68 -26.5 -120.5t-74.5 -81.5t-112 -29h-106q-64 0 -113 29zM380 77q54 0 87 40t33 106v254q0 66 -33 106t-87 40h-102q-55 0 -89 -40t-34 -106
v-254q0 -66 34 -106t89 -40h102z" />
    <glyph glyph-name="one" unicode="1" horiz-adv-x="366" 
d="M191 597l-161 -81v89l179 95h77v-700h-95v597z" />
    <glyph glyph-name="two" unicode="2" horiz-adv-x="565" 
d="M46 77q0 57 20.5 99t67.5 74l248 175q23 16 35.5 37.5t12.5 44.5v32q0 38 -26 61t-70 23h-92q-48 0 -76.5 -33.5t-28.5 -91.5h-95q0 97 53.5 153.5t144.5 56.5h94q86 0 138.5 -46.5t52.5 -122.5v-32q0 -91 -84 -148l-241 -166q-32 -22 -45.5 -46t-13.5 -63h392v-84h-487
v77z" />
    <glyph glyph-name="three" unicode="3" horiz-adv-x="599" 
d="M530.5 301.5q24.5 -36.5 24.5 -81.5v-40q0 -56 -26 -98.5t-74 -66t-111 -23.5h-97q-94 0 -150.5 57.5t-56.5 154.5h93q0 -58 31 -92.5t83 -34.5h97q52 0 84 28t32 75v40q0 47 -31.5 72t-87.5 25h-113v82h113q50 0 78 25t28 70v40q0 41 -27.5 65t-73.5 24h-97
q-49 0 -78.5 -34.5t-29.5 -92.5h-96q0 97 55.5 154.5t148.5 57.5h97q89 0 142.5 -47.5t53.5 -126.5v-40q0 -42 -21 -77.5t-58 -56.5q43 -22 67.5 -58.5z" />
    <glyph glyph-name="four" unicode="4" horiz-adv-x="596" 
d="M386 141h-299q-67 0 -67 51v23l369 485h93v-475h88v-84h-88v-141h-96v141zM389 223v346h-1l-261 -346h262z" />
    <glyph glyph-name="five" unicode="5" horiz-adv-x="607" 
d="M104 46q-54 54 -54 145h93q0 -52 29 -83t77 -31h96q53 0 86 31t33 82v59q0 47 -33.5 76t-88.5 29h-267v346h458v-85h-363v-177h172q98 0 157.5 -51.5t59.5 -137.5v-59q0 -59 -26.5 -104t-75 -69.5t-112.5 -24.5h-96q-91 0 -145 54z" />
    <glyph glyph-name="six" unicode="6" horiz-adv-x="615" 
d="M166.5 21q-50.5 29 -78.5 82.5t-28 122.5v249q0 71 27.5 123.5t77.5 81t116 28.5h86q86 0 139 -53t53 -140h-93q0 49 -27.5 78.5t-71.5 29.5h-86q-58 0 -92 -39.5t-34 -108.5v-109q26 38 68.5 59.5t86.5 21.5h65q93 0 148.5 -55.5t55.5 -145.5v-39q0 -64 -27.5 -112.5
t-78 -75.5t-116.5 -27h-73q-67 0 -117.5 29zM357 75q57 0 92 36t35 96v40q0 53 -30 85t-80 32h-66q-56 0 -96.5 -37t-51.5 -92v-36q0 -56 34.5 -90t91.5 -34h71z" />
    <glyph glyph-name="seven" unicode="7" horiz-adv-x="501" 
d="M151 29q0 50 9.5 100t27.5 88l188 398h-362v85h473v-57l-201 -433q-19 -41 -29.5 -89t-10.5 -92v-29h-95v29z" />
    <glyph glyph-name="eight" unicode="8" horiz-adv-x="629" 
d="M145.5 15q-50.5 23 -78 64.5t-27.5 95.5v36q0 46 27.5 84.5t77.5 63.5v1q-39 23 -60.5 58.5t-21.5 75.5v42q0 77 57.5 124.5t151.5 47.5h86q62 0 109 -21.5t73 -60.5t26 -90v-42q0 -41 -21 -75.5t-61 -58.5v-1q50 -24 77.5 -62.5t27.5 -85.5v-36q0 -54 -27.5 -95.5
t-77.5 -64.5t-116 -23h-106q-66 0 -116.5 23zM358 399q50 0 81.5 26t31.5 69v41q0 40 -31 64.5t-82 24.5h-86q-51 0 -82.5 -24.5t-31.5 -64.5v-41q0 -43 31.5 -69t82.5 -26h86zM368 76q56 0 91 27.5t35 73.5v33q0 48 -37.5 77.5t-98.5 29.5h-86q-61 0 -99 -29.5t-38 -77.5
v-33q0 -46 35 -73.5t92 -27.5h106z" />
    <glyph glyph-name="nine" unicode="9" horiz-adv-x="619" 
d="M115.5 43.5q-54.5 51.5 -54.5 136.5h94q0 -47 29 -75t78 -28h86q53 0 84.5 36t31.5 98v108q-28 -32 -67 -50t-81 -18h-67q-62 0 -109 26t-72.5 72.5t-25.5 107.5v40q0 62 28.5 110t80.5 74.5t120 26.5h70q65 0 114.5 -26t76.5 -73.5t27 -109.5v-288q0 -101 -57 -160
t-154 -59h-86q-92 0 -146.5 51.5zM318 334q52 0 93 31t53 80v62q0 53 -34 85.5t-89 32.5h-70q-60 0 -97 -35t-37 -93v-40q0 -56 30.5 -89.5t80.5 -33.5h70z" />
    <glyph glyph-name="colon" unicode=":" horiz-adv-x="227" 
d="M67.5 374q-17.5 18 -17.5 46t17.5 45.5t45.5 17.5t46 -17.5t18 -45.5t-17.5 -46t-46.5 -18q-28 0 -45.5 18zM67.5 37q-17.5 18 -17.5 46t17.5 45.5t45.5 17.5t46 -17.5t18 -45.5t-17.5 -46t-46.5 -18q-28 0 -45.5 18z" />
    <glyph glyph-name="semicolon" unicode=";" horiz-adv-x="238" 
d="M78.5 374q-17.5 18 -17.5 46t17.5 45.5t45.5 17.5t46 -17.5t18 -45.5t-17.5 -46t-46.5 -18q-28 0 -45.5 18zM6 -80l20 16q57 42 57 110v54h93v-54q0 -118 -89 -179l-24 -17z" />
    <glyph glyph-name="less" unicode="&#x3c;" horiz-adv-x="571" 
d="M30 270v66l491 266v-97l-381 -202l381 -203v-97z" />
    <glyph glyph-name="equal" unicode="=" horiz-adv-x="528" 
d="M50 440h428v-80h-428v80zM50 258h428v-80h-428v80z" />
    <glyph glyph-name="greater" unicode="&#x3e;" horiz-adv-x="571" 
d="M50 100l381 203l-381 202v97l491 -266v-66l-491 -267v97z" />
    <glyph glyph-name="question" unicode="?" horiz-adv-x="573" 
d="M235 221q0 42 15.5 72.5t38 51t58.5 46.5q41 29 61 51.5t20 54.5v36q0 41 -28 65.5t-74 24.5h-86q-50 0 -81 -31t-31 -82h-94q0 58 25.5 103t72.5 69.5t108 24.5h86q89 0 143 -47.5t54 -126.5v-36q0 -38 -14 -66t-34.5 -46.5t-53.5 -41.5q-31 -22 -48.5 -38t-30 -39
t-12.5 -53v-38h-95v46zM237.5 7.5q-17.5 17.5 -17.5 45.5t17.5 46t45.5 18q29 0 46.5 -17.5t17.5 -46.5q0 -28 -18 -45.5t-46 -17.5t-45.5 17.5z" />
    <glyph glyph-name="at" unicode="@" horiz-adv-x="881" 
d="M179.5 -1q-62.5 32 -96 91.5t-33.5 138.5v199q0 90 38 157.5t108 104t164 36.5h198q83 0 144.5 -31t95 -87.5t33.5 -131.5v-160q0 -82 -35.5 -127t-100.5 -45h-32q-29 0 -54.5 17t-39.5 46h-1q-20 -33 -53.5 -53t-68.5 -20h-51q-69 0 -111 43.5t-42 116.5v86
q0 78 44.5 124.5t119.5 46.5h47q26 0 50.5 -12.5t40.5 -33.5v40h78v-269q0 -25 11.5 -40.5t33.5 -15.5h26q25 0 38.5 23.5t13.5 67.5v165q0 78 -51 124.5t-136 46.5h-198q-102 0 -162 -59.5t-60 -159.5v-199q0 -83 51 -132.5t137 -49.5h176q45 0 90 12.5t76 33.5l43 -65
q-32 -28 -90 -44.5t-122 -16.5h-173q-84 0 -146.5 32zM447 209q37 0 61 27t28 72v89q-3 36 -24 57.5t-53 21.5h-47q-38 0 -61 -26.5t-23 -70.5v-83q0 -40 19 -63.5t50 -23.5h50z" />
    <glyph glyph-name="A" unicode="A" horiz-adv-x="658" 
d="M475 184h-292l-68 -184h-99l271 700h43q43 0 61 -47l251 -653h-98zM211 264h236l-117 316h-1z" />
    <glyph glyph-name="B" unicode="B" horiz-adv-x="671" 
d="M95 20.5q-21 20.5 -21 54.5v625h313q91 0 146.5 -43.5t55.5 -115.5v-52q0 -36 -16.5 -68t-46.5 -52v-1q48 -14 77.5 -51.5t29.5 -86.5v-50q0 -82 -54.5 -131t-147.5 -49h-281q-34 0 -55 20.5zM401 393q42 0 67.5 26.5t25.5 70.5v46q0 36 -30 58t-78 22h-217v-223h232z
M421 84q54 0 85.5 27t31.5 72v47q0 37 -27 60t-71 23h-271v-229h252z" />
    <glyph glyph-name="C" unicode="C" horiz-adv-x="669" 
d="M167 24q-54 32 -83.5 90.5t-29.5 135.5v200q0 77 30 135.5t84.5 90.5t126.5 32h106q68 0 120.5 -29.5t81 -82.5t28.5 -122h-93q0 67 -37.5 108t-99.5 41h-106q-65 0 -105.5 -48t-40.5 -127v-196q0 -79 39 -127t103 -48h108q64 0 102.5 45.5t38.5 119.5h93q0 -74 -29 -131
t-82 -88t-123 -31h-108q-70 0 -124 32z" />
    <glyph glyph-name="D" unicode="D" horiz-adv-x="683" 
d="M94.5 20q-20.5 20 -20.5 55v625h305q76 0 133.5 -29t89 -82.5t31.5 -122.5v-212q0 -125 -63.5 -189.5t-186.5 -64.5h-233q-35 0 -55.5 20zM380 85q78 0 118 43t40 128v208q0 68 -44.5 109.5t-117.5 41.5h-207v-530h211z" />
    <glyph glyph-name="E" unicode="E" horiz-adv-x="609" 
d="M94.5 20q-20.5 20 -20.5 55v625h491v-83h-396v-218h366v-82h-366v-234h396v-83h-415q-35 0 -55.5 20z" />
    <glyph glyph-name="F" unicode="F" horiz-adv-x="585" 
d="M74 700h481v-84h-386v-233h349v-84h-349v-299h-95v700z" />
    <glyph glyph-name="G" unicode="G" horiz-adv-x="693" 
d="M167.5 24q-54.5 32 -84 90.5t-29.5 135.5v200q0 77 30.5 135.5t85.5 90.5t127 32h108q69 0 122 -28.5t82 -81t29 -120.5h-93q0 65 -38.5 105t-101.5 40h-108q-66 0 -107 -48t-41 -127v-196q0 -79 39.5 -127t104.5 -48h112q64 0 104.5 45t40.5 116v48h-194v83h287v-131
q0 -72 -30 -128t-84 -87t-124 -31h-112q-71 0 -125.5 32z" />
    <glyph glyph-name="H" unicode="H" horiz-adv-x="705" 
d="M74 700h95v-306h366v306h96v-700h-96v310h-366v-310h-95v700z" />
    <glyph glyph-name="I" unicode="I" horiz-adv-x="263" 
d="M84 700h95v-700h-95v700z" />
    <glyph glyph-name="J" unicode="J" horiz-adv-x="587" 
d="M125 21.5q-46 29.5 -71.5 83t-25.5 123.5h95q0 -68 29.5 -109.5t78.5 -41.5h84q51 0 81 43t30 118v462h95v-464q0 -113 -54.5 -178.5t-149.5 -65.5h-86q-60 0 -106 29.5z" />
    <glyph glyph-name="K" unicode="K" horiz-adv-x="645" 
d="M507 0l-257 322l-81 -87v-235h-95v700h95v-345l320 345h118l-292 -310l310 -390h-118z" />
    <glyph glyph-name="L" unicode="L" horiz-adv-x="569" 
d="M94.5 20q-20.5 20 -20.5 54v626h95v-616h380v-84h-399q-35 0 -55.5 20z" />
    <glyph glyph-name="M" unicode="M" horiz-adv-x="804" 
d="M74 700h88l243 -449l237 449h88v-700h-93v522l-184 -344q-12 -22 -22.5 -31t-24.5 -9h-27l-211 384v-522h-94v700z" />
    <glyph glyph-name="N" unicode="N" horiz-adv-x="699" 
d="M74 700h88l370 -547v547h93v-700h-87l-371 545v-545h-93v700z" />
    <glyph glyph-name="O" unicode="O" horiz-adv-x="705" 
d="M170.5 24q-55.5 32 -86 90t-30.5 135v202q0 77 30.5 135t86.5 90t129 32h106q73 0 128.5 -32t86 -90t30.5 -135v-202q0 -77 -30.5 -135t-86.5 -90t-128 -32h-107q-73 0 -128.5 32zM404 77q68 0 110 47.5t42 126.5v198q0 79 -42 126.5t-110 47.5h-103q-68 0 -110 -47.5
t-42 -126.5v-198q0 -79 41.5 -126.5t109.5 -47.5h104z" />
    <glyph glyph-name="P" unicode="P" horiz-adv-x="633" 
d="M74 700h349q83 0 133.5 -46.5t50.5 -123.5v-100q0 -81 -53.5 -130.5t-141.5 -49.5h-243v-250h-95v700zM410 334q46 0 74 27.5t28 72.5v95q0 39 -25 63t-66 24h-252v-282h241z" />
    <glyph glyph-name="Q" unicode="Q" horiz-adv-x="709" 
d="M624 -38l-78 77q-64 -47 -144 -47h-105q-73 0 -128 32t-85 90t-30 135v202q0 77 31 135t87 90t128 32h106q73 0 128.5 -32t86 -90t30.5 -135v-198q0 -84 -46 -151l78 -77zM482 102l-99 97l60 63l95 -94q18 38 18 85v196q0 79 -41.5 126.5t-109.5 47.5h-103
q-68 0 -110.5 -48t-42.5 -126v-198q0 -79 41 -126.5t108 -47.5h102q45 0 82 25z" />
    <glyph glyph-name="R" unicode="R" horiz-adv-x="659" 
d="M74 700h351q81 0 130.5 -45.5t49.5 -119.5v-72q0 -52 -32.5 -92t-88.5 -58v-1q59 -35 88 -128l55 -184h-98l-54 180q-14 47 -44.5 74t-69.5 27h-192v-281h-95v700zM399 365q50 0 80.5 27t30.5 71v73q0 36 -24 58t-63 22h-254v-251h230z" />
    <glyph glyph-name="S" unicode="S" horiz-adv-x="637" 
d="M108 50q-58 58 -58 156h93q0 -59 33.5 -94t88.5 -35h111q55 0 88 23.5t33 62.5v54q0 31 -23.5 52t-66.5 28l-182 30q-80 13 -123.5 55t-43.5 105v55q0 75 57.5 120.5t151.5 45.5h113q59 0 104.5 -24.5t70.5 -69t25 -102.5h-94q0 50 -29 80.5t-77 30.5h-113
q-51 0 -82.5 -22.5t-31.5 -61.5v-45q0 -32 22.5 -53t64.5 -29l180 -31q83 -14 127.5 -54.5t44.5 -101.5v-65q0 -76 -58.5 -122t-155.5 -46h-115q-97 0 -155 58z" />
    <glyph glyph-name="T" unicode="T" horiz-adv-x="587" 
d="M246 617h-222v83h539v-83h-222v-617h-95v617z" />
    <glyph glyph-name="U" unicode="U" horiz-adv-x="701" 
d="M177.5 21.5q-51.5 29.5 -79.5 83.5t-28 124v471h95v-471q0 -68 36.5 -110t95.5 -42h107q59 0 95.5 42t36.5 110v471h95v-471q0 -70 -28 -124t-79.5 -83.5t-119.5 -29.5h-107q-68 0 -119.5 29.5z" />
    <glyph glyph-name="V" unicode="V" horiz-adv-x="645" 
d="M256 52l-240 648h99l206 -582h2l207 582h99l-263 -700h-47q-44 0 -63 52z" />
    <glyph glyph-name="W" unicode="W" horiz-adv-x="855" 
d="M173.5 16q-18.5 16 -24.5 53l-121 631h95l102 -568h1l166 531h37q20 0 33.5 -11.5t21.5 -37.5l145 -482h1l102 568h95l-121 -631q-7 -35 -24.5 -52t-48.5 -17h-40l-163 536h-1l-167 -536h-40q-30 0 -48.5 16z" />
    <glyph glyph-name="X" unicode="X" horiz-adv-x="621" 
d="M257 357l-237 343h108l183 -265l183 265h107l-237 -343l247 -357h-108l-192 279l-193 -279h-108z" />
    <glyph glyph-name="Y" unicode="Y" horiz-adv-x="632" 
d="M268 270l-258 430h103l203 -343l203 343h103l-258 -430v-270h-96v270z" />
    <glyph glyph-name="Z" unicode="Z" horiz-adv-x="587" 
d="M34 45l388 574h-370v81h501v-45l-388 -574h378v-81h-509v45z" />
    <glyph glyph-name="bracketleft" unicode="[" horiz-adv-x="324" 
d="M121 -161.5q-47 45.5 -47 126.5v598q0 81 47 126.5t130 45.5h41v-82h-41q-39 0 -61.5 -24t-22.5 -66v-598q0 -42 22.5 -65.5t61.5 -23.5h41v-83h-41q-83 0 -130 45.5z" />
    <glyph glyph-name="backslash" unicode="\" horiz-adv-x="526" 
d="M30 722h94l372 -747h-94z" />
    <glyph glyph-name="bracketright" unicode="]" horiz-adv-x="324" 
d="M32 -124h41q40 0 62 23.5t22 65.5v598q0 42 -22 66t-62 24h-41v82h41q83 0 130 -45.5t47 -126.5v-598q0 -81 -47 -126.5t-130 -45.5h-41v83z" />
    <glyph glyph-name="asciicircum" unicode="^" horiz-adv-x="569" 
d="M239 700h92l188 -344h-98l-136 256l-137 -256h-98z" />
    <glyph glyph-name="underscore" unicode="_" horiz-adv-x="551" 
d="M0 -9h551v-82h-551v82z" />
    <glyph glyph-name="grave" unicode="`" horiz-adv-x="281" 
d="M44 737h105l88 -161h-87z" />
    <glyph glyph-name="a" unicode="a" horiz-adv-x="565" 
d="M99 30.5q-45 38.5 -45 102.5v33q0 63 47 101.5t123 38.5h63q30 0 64 -9t58 -25v73q0 37 -23 59.5t-60 22.5h-82q-38 0 -61 -18t-23 -47h-92q0 65 48.5 105t127.5 40h82q79 0 127 -44.5t48 -117.5v-345h-87v67q-23 -34 -60 -54.5t-75 -20.5h-60q-75 0 -120 38.5zM284 69
q44 0 78 25.5t47 68.5v30q-19 17 -52 27t-68 10h-64q-35 0 -57 -18t-22 -48v-30q0 -30 21.5 -47.5t57.5 -17.5h59z" />
    <glyph glyph-name="b" unicode="b" horiz-adv-x="587" 
d="M214 12.5q-35 20.5 -55 51.5v-64h-89v700h93v-253q22 27 55 43.5t66 16.5h71q53 0 94.5 -24t64.5 -67t23 -100v-124q0 -59 -23.5 -104.5t-65.5 -70.5t-97 -25h-69q-33 0 -68 20.5zM345 74q44 0 71 33.5t27 88.5v117q0 50 -26.5 81t-68.5 31h-65q-48 0 -82 -35t-38 -91
v-110q4 -48 38 -81.5t77 -33.5h67z" />
    <glyph glyph-name="c" unicode="c" horiz-adv-x="544" 
d="M103 43.5q-53 51.5 -53 135.5v134q0 88 52.5 141t138.5 53h81q82 0 132 -46t50 -122h-92q0 39 -24.5 62.5t-65.5 23.5h-80q-44 0 -71.5 -31.5t-27.5 -83.5v-128q0 -49 28 -78.5t72 -29.5h80q42 0 67.5 29.5t25.5 78.5h92q0 -85 -51 -137.5t-134 -52.5h-81
q-86 0 -139 51.5z" />
    <glyph glyph-name="d" unicode="d" horiz-adv-x="587" 
d="M100.5 45q-50.5 53 -50.5 140v118q0 60 24 106.5t67.5 72t100.5 25.5h68q32 0 63 -15t50 -40v248h94v-700h-89v71q-22 -35 -58 -57t-72 -22h-65q-82 0 -132.5 53zM302 74q47 0 82 38.5t39 91.5v113q-7 49 -36.5 78.5t-70.5 29.5h-67q-47 0 -76.5 -34.5t-29.5 -91.5v-111
q0 -51 27.5 -82.5t69.5 -31.5h62z" />
    <glyph glyph-name="e" unicode="e" horiz-adv-x="561" 
d="M103.5 42.5q-53.5 50.5 -53.5 132.5v138q0 88 53.5 141t141.5 53h82q85 0 137 -52t52 -138v-94h-373v-48q0 -46 28 -74t74 -28h77q45 0 73 23.5t28 62.5h91q0 -75 -53 -121t-140 -46h-76q-88 0 -141.5 50.5zM423 297v20q0 50 -26.5 80t-69.5 30h-82q-46 0 -74 -31.5
t-28 -83.5v-15h280z" />
    <glyph glyph-name="f" unicode="f" horiz-adv-x="366" 
d="M119 418h-86v81h86v37q0 82 45 125t130 43h49v-80h-49q-42 0 -62 -21.5t-20 -67.5v-36h120v-81h-120v-418h-93v418z" />
    <glyph glyph-name="g" unicode="g" horiz-adv-x="587" 
d="M125.5 -164q-46.5 39 -51.5 102h93q3 -27 24 -44t52 -17h85q45 0 70.5 31.5t25.5 86.5v67q-22 -27 -55 -44t-63 -17h-72q-54 0 -96 24t-65 68t-23 101v112q0 59 24.5 105t68.5 71t101 25h66q32 0 66 -17.5t53 -44.5v54h88v-504q0 -92 -50.5 -145t-138.5 -53h-85
q-71 0 -117.5 39zM309 82q46 0 78.5 37t36.5 95v105q-4 47 -34 76.5t-72 29.5h-69q-47 0 -76.5 -33.5t-29.5 -88.5v-106q0 -51 27 -83t68 -32h71z" />
    <glyph glyph-name="h" unicode="h" horiz-adv-x="583" 
d="M70 700h93v-264q23 32 58 51.5t69 19.5h68q72 0 116.5 -48t44.5 -126v-333h-93v333q0 41 -21 66.5t-55 25.5h-64q-43 0 -78 -32.5t-45 -84.5v-308h-93v700z" />
    <glyph glyph-name="i" unicode="i" horiz-adv-x="269" 
d="M88 582.5q-18 17.5 -18 45.5t18 45.5t47 17.5t46.5 -17.5t17.5 -45.5t-17.5 -45.5t-46.5 -17.5t-47 17.5zM88 499h93v-499h-93v499z" />
    <glyph glyph-name="j" unicode="j" horiz-adv-x="277" 
d="M96 582.5q-18 17.5 -18 45.5t18 45.5t47 17.5t46.5 -17.5t17.5 -45.5t-17.5 -45.5t-46.5 -17.5t-47 17.5zM-36 -118h44q47 0 67.5 26.5t20.5 85.5v505h93v-500q0 -104 -42.5 -151t-138.5 -47h-44v81z" />
    <glyph glyph-name="k" unicode="k" horiz-adv-x="526" 
d="M410 0l-182 224l-65 -64v-160h-93v700h93v-430l231 229h111l-216 -214l229 -285h-108z" />
    <glyph glyph-name="l" unicode="l" horiz-adv-x="277" 
d="M105 33.5q-35 33.5 -35 108.5v558h93v-555q0 -34 14 -49t46 -15h40v-81h-44q-79 0 -114 33.5z" />
    <glyph glyph-name="m" unicode="m" horiz-adv-x="840" 
d="M735 462.5q41 -44.5 41 -121.5v-341h-93v342q0 38 -18 60.5t-47 22.5h-52q-38 0 -63.5 -26.5t-32.5 -72.5v-326h-94v338q0 41 -16.5 64t-44.5 23h-51q-38 0 -66 -32.5t-35 -85.5v-307h-93v499h89v-67q20 35 49.5 55t60.5 20h58q40 0 69.5 -20t46.5 -57q22 38 54 57.5
t69 19.5h59q69 0 110 -44.5z" />
    <glyph glyph-name="n" unicode="n" horiz-adv-x="581" 
d="M70 499h89v-69q22 34 58.5 55.5t72.5 21.5h66q72 0 116.5 -48t44.5 -126v-333h-93v333q0 41 -21 66.5t-55 25.5h-62q-43 0 -78 -33t-45 -86v-306h-93v499z" />
    <glyph glyph-name="o" unicode="o" horiz-adv-x="578" 
d="M103.5 45q-53.5 53 -53.5 139v130q0 87 54 140t143 53h84q89 0 143 -53t54 -140v-130q0 -86 -54.5 -139t-143.5 -53h-85q-88 0 -141.5 53zM329 74q48 0 77 31t29 83v123q0 52 -28.5 83t-75.5 31h-84q-47 0 -75.5 -31t-28.5 -83v-123q0 -52 28 -83t75 -31h83z" />
    <glyph glyph-name="p" unicode="p" horiz-adv-x="587" 
d="M70 499h89v-63q21 32 54.5 51.5t67.5 19.5h69q84 0 135.5 -52t51.5 -137v-119q0 -61 -23.5 -108t-66.5 -73t-99 -26h-70q-30 0 -62.5 16t-52.5 42v-249h-93v698zM340 74q47 0 75 35t28 93v113q0 49 -27.5 79.5t-72.5 30.5h-67q-37 0 -68.5 -29t-44.5 -76v-133
q6 -50 37.5 -81.5t75.5 -31.5h64z" />
    <glyph glyph-name="q" unicode="q" horiz-adv-x="587" 
d="M423 53q-20 -28 -53 -44.5t-64 -16.5h-72q-83 0 -133.5 53t-50.5 140v120q0 60 24 106t67.5 71t100.5 25h70q32 0 64.5 -17t51.5 -45v54h89v-701h-94v255zM308 74q47 0 79 36.5t36 93.5v115q-4 47 -34 76.5t-72 29.5h-71q-46 0 -74.5 -33.5t-28.5 -89.5v-114
q0 -52 26 -83t69 -31h70z" />
    <glyph glyph-name="r" unicode="r" horiz-adv-x="364" 
d="M70 499h89v-73q20 33 58.5 54t80.5 21h52v-83h-52q-61 0 -98 -37.5t-37 -98.5v-282h-93v499z" />
    <glyph glyph-name="s" unicode="s" horiz-adv-x="530" 
d="M94 36.5q-49 44.5 -49 117.5h91q0 -37 24 -60t64 -23h88q38 0 61 14.5t23 38.5v29q0 16 -13.5 28.5t-34.5 16.5l-173 30q-55 10 -88 41.5t-33 73.5v33q0 59 47 95t126 36h84q75 0 120.5 -41t45.5 -109h-91q-1 32 -21.5 51.5t-53.5 19.5h-83q-37 0 -58.5 -15t-21.5 -40
v-25q0 -16 14 -28t36 -17l175 -31q52 -9 84.5 -40t32.5 -72v-39q0 -58 -49 -93.5t-129 -35.5h-88q-81 0 -130 44.5z" />
    <glyph glyph-name="t" unicode="t" horiz-adv-x="391" 
d="M154.5 36q-36.5 36 -36.5 116v266h-88v81h89v151h92v-151h130v-81h-130v-264q0 -39 15.5 -56t50.5 -17h64v-81h-68q-82 0 -118.5 36z" />
    <glyph glyph-name="u" unicode="u" horiz-adv-x="579" 
d="M108.5 41q-44.5 49 -44.5 129v329h93v-331q0 -42 21 -68t55 -26h60q42 0 77 34t46 86v305h93v-499h-88v72q-24 -35 -60 -57.5t-71 -22.5h-64q-73 0 -117.5 49z" />
    <glyph glyph-name="v" unicode="v" horiz-adv-x="502" 
d="M209.5 13.5q-16.5 13.5 -27.5 42.5l-172 443h98l142 -394h2l142 394h98l-196 -499h-46q-24 0 -40.5 13.5z" />
    <glyph glyph-name="w" unicode="w" horiz-adv-x="732" 
d="M706 499l-105 -434q-8 -34 -25 -49.5t-44 -15.5h-43l-121 357l-124 -357h-43q-27 0 -44 15.5t-25 49.5l-106 434h98l82 -384l127 371h35q18 0 29 -8.5t17 -26.5l112 -337l82 385h98z" />
    <glyph glyph-name="x" unicode="x" horiz-adv-x="504" 
d="M198 254l-181 245h106l129 -175l129 175h106l-181 -245l188 -254h-105l-137 185l-137 -185h-105z" />
    <glyph glyph-name="y" unicode="y" horiz-adv-x="581" 
d="M124.5 -164q-46.5 39 -51.5 102h93q3 -27 24 -44t52 -17h79q45 0 70.5 31.5t25.5 86.5v83q-23 -35 -57 -56t-68 -21h-65q-73 0 -118 49t-45 129v320h93v-322q0 -42 21.5 -68t55.5 -26h61q42 0 76.5 34t45.5 86v296h94v-504q0 -92 -51 -145t-139 -53h-79q-71 0 -117.5 39z
" />
    <glyph glyph-name="z" unicode="z" horiz-adv-x="481" 
d="M30 44l287 376h-275v79h409v-44l-287 -376h282v-79h-416v44z" />
    <glyph glyph-name="braceleft" unicode="{" horiz-adv-x="379" 
d="M178 -186.5q-45 44.5 -45 123.5v184q0 39 -22 64.5t-61 31.5v70q39 6 61 31.5t22 64.5v184q0 79 45 123.5t125 44.5h46v-82h-39q-40 0 -62 -24t-22 -66v-180q0 -42 -20 -77t-56 -54q36 -19 56 -54t20 -77v-180q0 -42 22 -66t62 -24h39v-82h-46q-80 0 -125 44.5z" />
    <glyph glyph-name="bar" unicode="|" horiz-adv-x="253" 
d="M80 847h93v-994h-93v994z" />
    <glyph glyph-name="braceright" unicode="}" horiz-adv-x="379" 
d="M30 -149h40q39 0 61 24t22 66v180q0 42 20 77t56 54q-36 19 -56 54t-20 77v180q0 42 -22 66t-61 24h-40v82h47q80 0 124.5 -44.5t44.5 -123.5v-184q0 -39 22 -64.5t61 -31.5v-70q-39 -6 -61 -31.5t-22 -64.5v-184q0 -79 -44.5 -123.5t-124.5 -44.5h-47v82z" />
    <glyph glyph-name="asciitilde" unicode="~" horiz-adv-x="610" 
d="M327.5 242q-27.5 19 -57.5 53q-19 22 -32 32.5t-28 10.5h-17q-24 0 -39 -27.5t-17 -73.5h-87q1 84 40 133.5t103 49.5h17q41 0 67 -18t55 -52q21 -23 34.5 -34t30.5 -11h18q25 0 40 28t17 75h88q-1 -85 -40.5 -135t-104.5 -50h-18q-42 0 -69.5 19z" />
    <glyph glyph-name="uni00A0" unicode="&#xa0;" horiz-adv-x="269" 
 />
    <glyph glyph-name="exclamdown" unicode="&#xa1;" horiz-adv-x="279" 
d="M185 489.5q18 -17.5 18 -45.5t-17.5 -46t-46.5 -18q-28 0 -45.5 18t-17.5 46t17.5 45.5t45.5 17.5t46 -17.5zM186 296v-499h-94v499h94z" />
    <glyph glyph-name="cent" unicode="&#xa2;" horiz-adv-x="544" 
d="M457.5 45q-50.5 -52 -132.5 -53v-102h-93v102q-82 3 -132 54t-50 133v134q0 85 50 138t132 56v100h93v-100q80 -1 129.5 -47t49.5 -121h-92q0 39 -24.5 62.5t-65.5 23.5h-80q-44 0 -71.5 -31.5t-27.5 -83.5v-128q0 -49 28 -78.5t72 -29.5h80q42 0 67.5 29.5t25.5 78.5h92
q0 -85 -50.5 -137z" />
    <glyph glyph-name="sterling" unicode="&#xa3;" horiz-adv-x="658" 
d="M235 84h379v-84h-564v84h90v191h-83v83h83v136q0 63 24.5 111.5t70 75.5t104.5 27h86q85 0 137 -54.5t54 -143.5h-94q-2 51 -28.5 82.5t-68.5 31.5h-86q-47 0 -75.5 -36t-28.5 -94v-136h216v-83h-216v-191z" />
    <glyph glyph-name="currency" unicode="&#xa4;" horiz-adv-x="685" 
d="M50 101l67 66q-25 32 -38.5 76t-13.5 89q0 47 13.5 90.5t38.5 75.5l-67 67l57 60l71 -70q33 21 75.5 33t86.5 12q45 0 88.5 -12.5t77.5 -34.5l71 72l57 -60l-68 -68q24 -31 37.5 -74.5t13.5 -90.5q0 -46 -13.5 -89t-37.5 -75l69 -67l-58 -58l-70 69q-34 -22 -77.5 -34
t-89.5 -12q-43 0 -86 12t-77 34l-69 -69zM475 197.5q48 48.5 48 134.5q0 88 -48 136.5t-135 48.5q-86 0 -134 -48.5t-48 -136.5q0 -86 48 -134.5t134 -48.5q87 0 135 48.5z" />
    <glyph glyph-name="yen" unicode="&#xa5;" horiz-adv-x="632" 
d="M405 338h144v-76h-185v-74h185v-75h-185v-113h-96v113h-178v75h178v74h-178v76h137l-217 362h103l203 -343l203 343h103z" />
    <glyph glyph-name="brokenbar" unicode="&#xa6;" horiz-adv-x="253" 
d="M80 847h93v-412h-93v412zM80 265h93v-412h-93v412z" />
    <glyph glyph-name="section" unicode="&#xa7;" horiz-adv-x="567" 
d="M495 259q-22 -26 -60 -40q30 -14 46 -37.5t16 -52.5v-35q0 -58 -47.5 -92.5t-127.5 -34.5h-82q-75 0 -120 41t-45 109h91q1 -32 20.5 -51.5t53.5 -19.5h84q37 0 58.5 14.5t21.5 38.5v26q0 17 -16 31t-41 21l-181 46q-55 14 -85.5 45.5t-30.5 74.5v28q0 35 20 60t57 39
q-26 14 -40.5 36t-14.5 47v34q0 60 46.5 95.5t125.5 35.5h82q76 0 122 -41t46 -109h-91q-1 32 -22 51.5t-55 19.5h-84q-37 0 -57 -15.5t-20 -40.5v-21q0 -37 60 -54l177 -47q54 -14 84.5 -45t30.5 -71v-26q0 -34 -22 -60zM403 276q21 15 21 38v25q0 15 -13 28t-35 20
l-173 47q-28 -5 -44 -21.5t-16 -38.5v-25q0 -18 13 -32t36 -20l157 -41q33 5 54 20z" />
    <glyph glyph-name="dieresis" unicode="&#xa8;" horiz-adv-x="417" 
d="M60 592.5q-16 15.5 -16 40.5t16 40.5t41 15.5t40.5 -15.5t15.5 -40.5t-15.5 -40.5t-40.5 -15.5t-41 15.5zM275.5 592.5q-15.5 15.5 -15.5 40.5t15.5 40.5t40.5 15.5t41 -15.5t16 -40.5t-16 -40.5t-41 -15.5t-40.5 15.5z" />
    <glyph glyph-name="copyright" unicode="&#xa9;" horiz-adv-x="745" 
d="M204 60q-73 41 -113.5 116t-40.5 173t40.5 173t113.5 116t169 41t169 -41t113 -116t40 -173t-40 -173t-113 -116t-169 -41t-169 41zM506.5 116.5q57.5 33.5 89 93.5t31.5 139t-31.5 139t-89 93.5t-133.5 33.5t-133.5 -33.5t-89.5 -93.5t-32 -139t32 -139t89.5 -93.5
t133.5 -33.5t133.5 33.5zM252 197q-35 38 -35 100v107q0 62 35.5 100t93.5 38h57q55 0 89 -35t34 -92h-74q0 28 -14 45t-37 17h-52q-25 0 -40.5 -20.5t-15.5 -53.5v-105q0 -34 14.5 -54t39.5 -20h53q24 0 38.5 19t14.5 51h74q0 -61 -34.5 -98t-90.5 -37h-57q-58 0 -93 38z
" />
    <glyph glyph-name="ordfeminine" unicode="&#xaa;" horiz-adv-x="428" 
d="M85 370.5q-32 27.5 -32 71.5v24q0 44 33 71t87 27h44q17 0 37 -5.5t36 -15.5v48q0 22 -13.5 35t-34.5 13h-52q-22 0 -35 -9.5t-13 -25.5h-79q0 46 34 74t90 28h58q55 0 89 -31.5t34 -83.5v-242h-75v43q-15 -23 -37.5 -36t-44.5 -13h-42q-52 0 -84 27.5zM215 407
q26 0 46.5 15.5t28.5 40.5v19q-10 7 -30.5 13t-41.5 6h-39q-21 0 -33.5 -10t-12.5 -26v-21q0 -16 12.5 -26.5t32.5 -10.5h37z" />
    <glyph glyph-name="guillemotleft" unicode="&#xab;" horiz-adv-x="597" 
d="M30 268l289 262v-106l-172 -156l172 -158v-104zM259 268l288 262v-106l-172 -156l172 -158v-104z" />
    <glyph glyph-name="logicalnot" unicode="&#xac;" horiz-adv-x="662" 
d="M518 355h-468v82h562v-289h-94v207z" />
    <glyph glyph-name="uni00AD" unicode="&#xad;" horiz-adv-x="386" 
d="M50 297h286v-82h-286v82z" />
    <glyph glyph-name="registered" unicode="&#xae;" horiz-adv-x="745" 
d="M204 60q-73 41 -113.5 116t-40.5 173t40.5 173t113.5 116t169 41t169 -41t113 -116t40 -173t-40 -173t-113 -116t-169 -41t-169 41zM506.5 116.5q57.5 33.5 89 93.5t31.5 139t-31.5 139t-89 93.5t-133.5 33.5t-133.5 -33.5t-89.5 -93.5t-32 -139t32 -139t89.5 -93.5
t133.5 -33.5t133.5 33.5zM236 537h177q48 0 77.5 -24.5t29.5 -64.5v-38q0 -27 -17.5 -48t-47.5 -31v-1q18 -10 28.5 -25t18.5 -44l30 -97h-76l-29 95q-7 24 -20 34.5t-34 10.5h-63v-140h-74v373zM391 366q26 0 40.5 12t14.5 32v31q0 15 -11.5 24t-30.5 9h-94v-108h81z" />
    <glyph glyph-name="macron" unicode="&#xaf;" horiz-adv-x="365" 
d="M44 658h277v-70h-277v70z" />
    <glyph glyph-name="degree" unicode="&#xb0;" horiz-adv-x="376" 
d="M88 472.5q-38 37.5 -38 98.5q0 62 38 99.5t100 37.5t100 -37.5t38 -99.5q0 -61 -38 -98.5t-100 -37.5t-100 37.5zM241 518q20 20 20 53t-20 53.5t-53 20.5t-53 -20.5t-20 -53.5t20 -53t53 -20t53 20z" />
    <glyph glyph-name="plusminus" unicode="&#xb1;" horiz-adv-x="571" 
d="M239 325h-189v81h189v187h93v-187h189v-81h-189v-184h-93v184zM50 81h471v-81h-471v81z" />
    <glyph glyph-name="uni00B2" unicode="&#xb2;" horiz-adv-x="372" 
d="M44 339q0 36 12 62.5t39 45.5l125 89q15 11 21.5 22t6.5 26v19q0 16 -10.5 25.5t-27.5 9.5h-45q-21 0 -33.5 -15t-12.5 -41h-77q0 56 31.5 89.5t84.5 33.5h56q51 0 81.5 -27.5t30.5 -72.5v-21q0 -57 -47 -89l-122 -84q-19 -13 -27 -26.5t-8 -29.5h208v-66h-286v50z" />
    <glyph glyph-name="uni00B3" unicode="&#xb3;" horiz-adv-x="387" 
d="M329 467q14 -22 14 -49v-20q0 -52 -34 -83t-90 -31h-57q-55 0 -88.5 34t-33.5 89h76q0 -25 13.5 -40.5t36.5 -15.5h50q22 0 35.5 13t13.5 34v20q0 22 -14 35.5t-38 13.5h-62v64h64q19 0 30.5 13t11.5 35v21q0 17 -11 27.5t-29 10.5h-51q-21 0 -34 -15.5t-13 -40.5h-76
q0 55 33 89t87 34h57q52 0 83.5 -28.5t31.5 -75.5v-22q0 -26 -11.5 -46.5t-34.5 -32.5q26 -11 40 -33z" />
    <glyph glyph-name="acute" unicode="&#xb4;" horiz-adv-x="281" 
d="M132 737h105l-106 -161h-87z" />
    <glyph glyph-name="paragraph" unicode="&#xb6;" horiz-adv-x="587" 
d="M507 700v-700h-90v326h-72v-326h-91v326h-30q-73 0 -118.5 44.5t-45.5 115.5v55q0 71 45.5 115t118.5 44h283z" />
    <glyph glyph-name="periodcentered" unicode="&#xb7;" horiz-adv-x="227" 
d="M67.5 210.5q-17.5 17.5 -17.5 45.5t17.5 46t45.5 18q29 0 46.5 -17.5t17.5 -46.5q0 -28 -18 -45.5t-46 -17.5t-45.5 17.5z" />
    <glyph glyph-name="cedilla" unicode="&#xb8;" horiz-adv-x="271" 
d="M44 -173h64q21 0 34 8.5t13 22.5v12q0 13 -11.5 21t-29.5 8h-54v47l32 74h72l-32 -71h8q39 0 63 -21.5t24 -57.5v-14q0 -40 -31.5 -64t-82.5 -24h-69v59z" />
    <glyph glyph-name="uni00B9" unicode="&#xb9;" horiz-adv-x="254" 
d="M119 621l-95 -50v73l105 56h69v-411h-79v332z" />
    <glyph glyph-name="ordmasculine" unicode="&#xba;" horiz-adv-x="441" 
d="M89.5 380q-37.5 37 -37.5 98v92q0 61 38 98.5t100 37.5h61q62 0 100 -37.5t38 -98.5v-92q0 -61 -38.5 -98t-100.5 -37h-61q-62 0 -99.5 37zM248 412q27 0 43.5 18.5t16.5 49.5v89q0 31 -16 49.5t-43 18.5h-57q-27 0 -43 -18.5t-16 -49.5v-89q0 -31 16 -49.5t42 -18.5h57z
" />
    <glyph glyph-name="guillemotright" unicode="&#xbb;" horiz-adv-x="597" 
d="M50 110l172 158l-172 156v106l289 -262l-289 -262v104zM279 110l172 158l-172 156v106l288 -262l-288 -262v104z" />
    <glyph glyph-name="onequarter" unicode="&#xbc;" horiz-adv-x="796" 
d="M145 621l-95 -50v73l105 56h69v-411h-79v332zM528 722h89l-382 -747h-89zM623 78h-163q-38 0 -38 31v35l200 267h79v-265h46v-68h-45v-78h-79v78zM627 142v176h-2l-131 -176h133z" />
    <glyph glyph-name="onehalf" unicode="&#xbd;" horiz-adv-x="837" 
d="M145 621l-95 -50v73l105 56h69v-411h-79v332zM501 50q0 36 12 62.5t39 45.5l125 89q15 11 21.5 22t6.5 26v19q0 16 -10.5 25.5t-27.5 9.5h-45q-21 0 -33.5 -15t-12.5 -41h-77q0 56 31.5 89.5t84.5 33.5h56q51 0 81.5 -27.5t30.5 -72.5v-21q0 -57 -47 -89l-122 -84
q-19 -13 -27 -26.5t-8 -29.5h208v-66h-286v50zM527 722h89l-382 -747h-89z" />
    <glyph glyph-name="threequarters" unicode="&#xbe;" horiz-adv-x="865" 
d="M339 467q14 -22 14 -49v-20q0 -52 -34 -83t-90 -31h-57q-55 0 -88.5 34t-33.5 89h76q0 -25 13.5 -40.5t36.5 -15.5h50q22 0 35.5 13t13.5 34v20q0 22 -14 35.5t-38 13.5h-62v64h64q19 0 30.5 13t11.5 35v21q0 17 -11 27.5t-29 10.5h-51q-21 0 -34 -15.5t-13 -40.5h-76
q0 55 33 89t87 34h57q52 0 83.5 -28.5t31.5 -75.5v-22q0 -26 -11.5 -46.5t-34.5 -32.5q26 -11 40 -33zM691 78h-163q-38 0 -38 31v35l200 267h79v-265h46v-68h-45v-78h-79v78zM695 142v176h-2l-131 -176h133zM609 722h89l-382 -747h-89z" />
    <glyph glyph-name="questiondown" unicode="&#xbf;" horiz-adv-x="573" 
d="M335.5 489.5q17.5 -17.5 17.5 -45.5t-17.5 -46t-45.5 -18t-46 18t-18 46t18 45.5t46 17.5t45.5 -17.5zM338 276q0 -42 -15.5 -72.5t-38 -51t-58.5 -46.5q-41 -29 -61 -51.5t-20 -54.5v-36q0 -41 28 -65.5t74 -24.5h86q50 0 81 31t31 82h94q0 -58 -25.5 -103t-72.5 -69.5
t-108 -24.5h-86q-89 0 -143 47.5t-54 126.5v36q0 38 14 66t34.5 46.5t53.5 41.5q31 22 48.5 38t30 39t12.5 53v38h95v-46z" />
    <glyph glyph-name="Agrave" unicode="&#xc0;" horiz-adv-x="658" 
d="M475 184h-292l-68 -184h-99l271 700h43q43 0 61 -47l251 -653h-98zM211 264h236l-117 316h-1zM181 938h105l88 -161h-87z" />
    <glyph glyph-name="Aacute" unicode="&#xc1;" horiz-adv-x="658" 
d="M475 184h-292l-68 -184h-99l271 700h43q43 0 61 -47l251 -653h-98zM211 264h236l-117 316h-1zM375 938h105l-106 -161h-87z" />
    <glyph glyph-name="Acircumflex" unicode="&#xc2;" horiz-adv-x="658" 
d="M475 184h-292l-68 -184h-99l271 700h43q43 0 61 -47l251 -653h-98zM211 264h236l-117 316h-1zM296 947h67l133 -170h-85l-81 107l-81 -107h-85z" />
    <glyph glyph-name="Atilde" unicode="&#xc3;" horiz-adv-x="658" 
d="M475 184h-292l-68 -184h-99l271 700h43q43 0 61 -47l251 -653h-98zM211 264h236l-117 316h-1zM352 779q-16 10 -36 29q-15 14 -23.5 20t-18.5 6h-9q-15 0 -24.5 -14t-10.5 -38h-70q1 53 29 85t74 32h8q25 0 43 -11t38 -31q2 -2 10.5 -9t14.5 -10.5t12 -3.5h8
q14 0 23 14.5t10 37.5h71q-2 -53 -29.5 -85t-71.5 -32h-9q-23 0 -39 10z" />
    <glyph glyph-name="Adieresis" unicode="&#xc4;" horiz-adv-x="658" 
d="M475 184h-292l-68 -184h-99l271 700h43q43 0 61 -47l251 -653h-98zM211 264h236l-117 316h-1zM181 793.5q-16 15.5 -16 40.5t16 40.5t41 15.5t40.5 -15.5t15.5 -40.5t-15.5 -40.5t-40.5 -15.5t-41 15.5zM396.5 793.5q-15.5 15.5 -15.5 40.5t15.5 40.5t40.5 15.5t41 -15.5
t16 -40.5t-16 -40.5t-41 -15.5t-40.5 15.5z" />
    <glyph glyph-name="Aring" unicode="&#xc5;" horiz-adv-x="658" 
d="M475 184h-292l-68 -184h-99l271 700h43q43 0 61 -47l251 -653h-98zM211 264h236l-117 316h-1zM249 775q-31 30 -31 78q0 49 31 79t81 30t81 -30t31 -79q0 -48 -31 -78t-81 -30t-81 30zM367.5 816q14.5 14 14.5 37q0 24 -14.5 38t-37.5 14t-37.5 -14t-14.5 -38
q0 -23 14.5 -37t37.5 -14t37.5 14z" />
    <glyph glyph-name="AE" unicode="&#xc6;" horiz-adv-x="938" 
d="M509 617v-218h345v-82h-345v-234h385v-83h-403q-34 0 -54.5 20.5t-20.5 54.5v110h-215l-101 -185h-98l384 700h508v-83h-385zM420 265v327l-177 -327h177z" />
    <glyph glyph-name="Ccedilla" unicode="&#xc7;" horiz-adv-x="669" 
d="M377 -8l-19 -43h8q39 0 63 -21.5t24 -57.5v-14q0 -40 -31.5 -64t-82.5 -24h-69v59h64q21 0 34 8.5t13 22.5v12q0 13 -11.5 21t-29.5 8h-54v47l20 46h-15q-70 0 -124 32t-83.5 90.5t-29.5 135.5v200q0 77 30 135.5t84.5 90.5t126.5 32h106q68 0 120.5 -29.5t81 -82.5
t28.5 -122h-93q0 67 -37.5 108t-99.5 41h-106q-65 0 -105.5 -48t-40.5 -127v-196q0 -79 39 -127t103 -48h108q64 0 102.5 45.5t38.5 119.5h93q0 -74 -29 -131t-82 -88t-123 -31h-22z" />
    <glyph glyph-name="Egrave" unicode="&#xc8;" horiz-adv-x="609" 
d="M94.5 20q-20.5 20 -20.5 55v625h491v-83h-396v-218h366v-82h-366v-234h396v-83h-415q-35 0 -55.5 20zM174 938h105l88 -161h-87z" />
    <glyph glyph-name="Eacute" unicode="&#xc9;" horiz-adv-x="609" 
d="M94.5 20q-20.5 20 -20.5 55v625h491v-83h-396v-218h366v-82h-366v-234h396v-83h-415q-35 0 -55.5 20zM368 938h105l-106 -161h-87z" />
    <glyph glyph-name="Ecircumflex" unicode="&#xca;" horiz-adv-x="609" 
d="M94.5 20q-20.5 20 -20.5 55v625h491v-83h-396v-218h366v-82h-366v-234h396v-83h-415q-35 0 -55.5 20zM289 947h67l133 -170h-85l-81 107l-81 -107h-85z" />
    <glyph glyph-name="Edieresis" unicode="&#xcb;" horiz-adv-x="609" 
d="M94.5 20q-20.5 20 -20.5 55v625h491v-83h-396v-218h366v-82h-366v-234h396v-83h-415q-35 0 -55.5 20zM174 793.5q-16 15.5 -16 40.5t16 40.5t41 15.5t40.5 -15.5t15.5 -40.5t-15.5 -40.5t-40.5 -15.5t-41 15.5zM389.5 793.5q-15.5 15.5 -15.5 40.5t15.5 40.5t40.5 15.5
t41 -15.5t16 -40.5t-16 -40.5t-41 -15.5t-40.5 15.5z" />
    <glyph glyph-name="Igrave" unicode="&#xcc;" horiz-adv-x="263" 
d="M84 700h95v-700h-95v700zM-17 938h105l88 -161h-87z" />
    <glyph glyph-name="Iacute" unicode="&#xcd;" horiz-adv-x="263" 
d="M84 700h95v-700h-95v700zM177 938h105l-106 -161h-87z" />
    <glyph glyph-name="Icircumflex" unicode="&#xce;" horiz-adv-x="263" 
d="M84 700h95v-700h-95v700zM98 947h67l133 -170h-85l-81 107l-81 -107h-85z" />
    <glyph glyph-name="Idieresis" unicode="&#xcf;" horiz-adv-x="263" 
d="M84 700h95v-700h-95v700zM-17 793.5q-16 15.5 -16 40.5t16 40.5t41 15.5t40.5 -15.5t15.5 -40.5t-15.5 -40.5t-40.5 -15.5t-41 15.5zM198.5 793.5q-15.5 15.5 -15.5 40.5t15.5 40.5t40.5 15.5t41 -15.5t16 -40.5t-16 -40.5t-41 -15.5t-40.5 15.5z" />
    <glyph glyph-name="Eth" unicode="&#xd0;" horiz-adv-x="734" 
d="M563.5 671q57.5 -29 89 -82.5t31.5 -122.5v-212q0 -125 -63.5 -189.5t-186.5 -64.5h-233q-35 0 -55.5 20t-20.5 55v230h-100v84h100v311h305q76 0 133.5 -29zM589 464q0 68 -44.5 109.5t-117.5 41.5h-207v-226h206v-84h-206v-220h211q78 0 118 43t40 128v208z" />
    <glyph glyph-name="Ntilde" unicode="&#xd1;" horiz-adv-x="699" 
d="M74 700h88l370 -547v547h93v-700h-87l-371 545v-545h-93v700zM372 779q-16 10 -36 29q-15 14 -23.5 20t-18.5 6h-9q-15 0 -24.5 -14t-10.5 -38h-70q1 53 29 85t74 32h8q25 0 43 -11t38 -31q2 -2 10.5 -9t14.5 -10.5t12 -3.5h8q14 0 23 14.5t10 37.5h71q-2 -53 -29.5 -85
t-71.5 -32h-9q-23 0 -39 10z" />
    <glyph glyph-name="Ograve" unicode="&#xd2;" horiz-adv-x="705" 
d="M170.5 24q-55.5 32 -86 90t-30.5 135v202q0 77 30.5 135t86.5 90t129 32h106q73 0 128.5 -32t86 -90t30.5 -135v-202q0 -77 -30.5 -135t-86.5 -90t-128 -32h-107q-73 0 -128.5 32zM404 77q68 0 110 47.5t42 126.5v198q0 79 -42 126.5t-110 47.5h-103q-68 0 -110 -47.5
t-42 -126.5v-198q0 -79 41.5 -126.5t109.5 -47.5h104zM204 938h105l88 -161h-87z" />
    <glyph glyph-name="Oacute" unicode="&#xd3;" horiz-adv-x="705" 
d="M170.5 24q-55.5 32 -86 90t-30.5 135v202q0 77 30.5 135t86.5 90t129 32h106q73 0 128.5 -32t86 -90t30.5 -135v-202q0 -77 -30.5 -135t-86.5 -90t-128 -32h-107q-73 0 -128.5 32zM404 77q68 0 110 47.5t42 126.5v198q0 79 -42 126.5t-110 47.5h-103q-68 0 -110 -47.5
t-42 -126.5v-198q0 -79 41.5 -126.5t109.5 -47.5h104zM398 938h105l-106 -161h-87z" />
    <glyph glyph-name="Ocircumflex" unicode="&#xd4;" horiz-adv-x="705" 
d="M170.5 24q-55.5 32 -86 90t-30.5 135v202q0 77 30.5 135t86.5 90t129 32h106q73 0 128.5 -32t86 -90t30.5 -135v-202q0 -77 -30.5 -135t-86.5 -90t-128 -32h-107q-73 0 -128.5 32zM404 77q68 0 110 47.5t42 126.5v198q0 79 -42 126.5t-110 47.5h-103q-68 0 -110 -47.5
t-42 -126.5v-198q0 -79 41.5 -126.5t109.5 -47.5h104zM319 947h67l133 -170h-85l-81 107l-81 -107h-85z" />
    <glyph glyph-name="Otilde" unicode="&#xd5;" horiz-adv-x="705" 
d="M170.5 24q-55.5 32 -86 90t-30.5 135v202q0 77 30.5 135t86.5 90t129 32h106q73 0 128.5 -32t86 -90t30.5 -135v-202q0 -77 -30.5 -135t-86.5 -90t-128 -32h-107q-73 0 -128.5 32zM404 77q68 0 110 47.5t42 126.5v198q0 79 -42 126.5t-110 47.5h-103q-68 0 -110 -47.5
t-42 -126.5v-198q0 -79 41.5 -126.5t109.5 -47.5h104zM375 779q-16 10 -36 29q-15 14 -23.5 20t-18.5 6h-9q-15 0 -24.5 -14t-10.5 -38h-70q1 53 29 85t74 32h8q25 0 43 -11t38 -31q2 -2 10.5 -9t14.5 -10.5t12 -3.5h8q14 0 23 14.5t10 37.5h71q-2 -53 -29.5 -85t-71.5 -32
h-9q-23 0 -39 10z" />
    <glyph glyph-name="Odieresis" unicode="&#xd6;" horiz-adv-x="705" 
d="M170.5 24q-55.5 32 -86 90t-30.5 135v202q0 77 30.5 135t86.5 90t129 32h106q73 0 128.5 -32t86 -90t30.5 -135v-202q0 -77 -30.5 -135t-86.5 -90t-128 -32h-107q-73 0 -128.5 32zM404 77q68 0 110 47.5t42 126.5v198q0 79 -42 126.5t-110 47.5h-103q-68 0 -110 -47.5
t-42 -126.5v-198q0 -79 41.5 -126.5t109.5 -47.5h104zM204 793.5q-16 15.5 -16 40.5t16 40.5t41 15.5t40.5 -15.5t15.5 -40.5t-15.5 -40.5t-40.5 -15.5t-41 15.5zM419.5 793.5q-15.5 15.5 -15.5 40.5t15.5 40.5t40.5 15.5t41 -15.5t16 -40.5t-16 -40.5t-41 -15.5t-40.5 15.5
z" />
    <glyph glyph-name="multiply" unicode="&#xd7;" horiz-adv-x="525" 
d="M51 160l154 155l-155 157l57 57l156 -158l155 158l57 -57l-156 -158l156 -154l-57 -57l-155 156l-156 -156z" />
    <glyph glyph-name="Oslash" unicode="&#xd8;" horiz-adv-x="705" 
d="M586 635q31 -34 48 -81t17 -103v-202q0 -77 -30.5 -135t-86.5 -90t-128 -32h-107q-70 0 -123 29l-46 -70h-82l74 111q-33 34 -50.5 81.5t-17.5 105.5v202q0 77 30.5 135t86.5 90t129 32h106q71 0 127 -31l43 65h81zM177 144l306 458q-35 21 -79 21h-103q-68 0 -110 -47.5
t-42 -126.5v-198q0 -63 28 -107zM531 552l-305 -456q32 -19 74 -19h104q68 0 110 47.5t42 126.5v198q0 59 -25 103z" />
    <glyph glyph-name="Ugrave" unicode="&#xd9;" horiz-adv-x="701" 
d="M177.5 21.5q-51.5 29.5 -79.5 83.5t-28 124v471h95v-471q0 -68 36.5 -110t95.5 -42h107q59 0 95.5 42t36.5 110v471h95v-471q0 -70 -28 -124t-79.5 -83.5t-119.5 -29.5h-107q-68 0 -119.5 29.5zM202 938h105l88 -161h-87z" />
    <glyph glyph-name="Uacute" unicode="&#xda;" horiz-adv-x="701" 
d="M177.5 21.5q-51.5 29.5 -79.5 83.5t-28 124v471h95v-471q0 -68 36.5 -110t95.5 -42h107q59 0 95.5 42t36.5 110v471h95v-471q0 -70 -28 -124t-79.5 -83.5t-119.5 -29.5h-107q-68 0 -119.5 29.5zM396 938h105l-106 -161h-87z" />
    <glyph glyph-name="Ucircumflex" unicode="&#xdb;" horiz-adv-x="701" 
d="M177.5 21.5q-51.5 29.5 -79.5 83.5t-28 124v471h95v-471q0 -68 36.5 -110t95.5 -42h107q59 0 95.5 42t36.5 110v471h95v-471q0 -70 -28 -124t-79.5 -83.5t-119.5 -29.5h-107q-68 0 -119.5 29.5zM317 947h67l133 -170h-85l-81 107l-81 -107h-85z" />
    <glyph glyph-name="Udieresis" unicode="&#xdc;" horiz-adv-x="701" 
d="M177.5 21.5q-51.5 29.5 -79.5 83.5t-28 124v471h95v-471q0 -68 36.5 -110t95.5 -42h107q59 0 95.5 42t36.5 110v471h95v-471q0 -70 -28 -124t-79.5 -83.5t-119.5 -29.5h-107q-68 0 -119.5 29.5zM202 793.5q-16 15.5 -16 40.5t16 40.5t41 15.5t40.5 -15.5t15.5 -40.5
t-15.5 -40.5t-40.5 -15.5t-41 15.5zM417.5 793.5q-15.5 15.5 -15.5 40.5t15.5 40.5t40.5 15.5t41 -15.5t16 -40.5t-16 -40.5t-41 -15.5t-40.5 15.5z" />
    <glyph glyph-name="Yacute" unicode="&#xdd;" horiz-adv-x="632" 
d="M268 270l-258 430h103l203 -343l203 343h103l-258 -430v-270h-96v270zM361 938h105l-106 -161h-87z" />
    <glyph glyph-name="Thorn" unicode="&#xde;" horiz-adv-x="647" 
d="M556.5 533.5q50.5 -46.5 50.5 -122.5v-99q0 -82 -55 -132t-146 -50h-237v-130h-95v700h95v-120h254q83 0 133.5 -46.5zM512 411q0 38 -25 61.5t-66 23.5h-252v-282h235q49 0 78.5 28t29.5 73v96z" />
    <glyph glyph-name="germandbls" unicode="&#xdf;" horiz-adv-x="684" 
d="M315 34q-45 42 -45 114h88q0 -35 21 -55t56 -20h49q35 0 56.5 18.5t21.5 47.5v26q0 27 -19.5 46.5t-60.5 47.5q-47 31 -72 58t-25 66v20q0 47 31.5 77t87.5 36q0 50 -30 78.5t-83 28.5h-77q-57 0 -92 -34t-35 -90v-499h-93v389h-86v82h86v28q0 61 27.5 107.5t77.5 72
t115 25.5h77q92 0 148 -52t56 -138v-62h-33q-85 0 -85 -51v-17q0 -18 15.5 -32.5t51.5 -39.5q35 -24 56.5 -42t37.5 -44.5t16 -60.5v-26q0 -67 -46 -107t-124 -40h-49q-75 0 -120 42z" />
    <glyph glyph-name="agrave" unicode="&#xe0;" horiz-adv-x="565" 
d="M99 30.5q-45 38.5 -45 102.5v33q0 63 47 101.5t123 38.5h63q30 0 64 -9t58 -25v73q0 37 -23 59.5t-60 22.5h-82q-38 0 -61 -18t-23 -47h-92q0 65 48.5 105t127.5 40h82q79 0 127 -44.5t48 -117.5v-345h-87v67q-23 -34 -60 -54.5t-75 -20.5h-60q-75 0 -120 38.5zM284 69
q44 0 78 25.5t47 68.5v30q-19 17 -52 27t-68 10h-64q-35 0 -57 -18t-22 -48v-30q0 -30 21.5 -47.5t57.5 -17.5h59zM139 737h105l88 -161h-87z" />
    <glyph glyph-name="aacute" unicode="&#xe1;" horiz-adv-x="565" 
d="M99 30.5q-45 38.5 -45 102.5v33q0 63 47 101.5t123 38.5h63q30 0 64 -9t58 -25v73q0 37 -23 59.5t-60 22.5h-82q-38 0 -61 -18t-23 -47h-92q0 65 48.5 105t127.5 40h82q79 0 127 -44.5t48 -117.5v-345h-87v67q-23 -34 -60 -54.5t-75 -20.5h-60q-75 0 -120 38.5zM284 69
q44 0 78 25.5t47 68.5v30q-19 17 -52 27t-68 10h-64q-35 0 -57 -18t-22 -48v-30q0 -30 21.5 -47.5t57.5 -17.5h59zM333 737h105l-106 -161h-87z" />
    <glyph glyph-name="acircumflex" unicode="&#xe2;" horiz-adv-x="565" 
d="M99 30.5q-45 38.5 -45 102.5v33q0 63 47 101.5t123 38.5h63q30 0 64 -9t58 -25v73q0 37 -23 59.5t-60 22.5h-82q-38 0 -61 -18t-23 -47h-92q0 65 48.5 105t127.5 40h82q79 0 127 -44.5t48 -117.5v-345h-87v67q-23 -34 -60 -54.5t-75 -20.5h-60q-75 0 -120 38.5zM284 69
q44 0 78 25.5t47 68.5v30q-19 17 -52 27t-68 10h-64q-35 0 -57 -18t-22 -48v-30q0 -30 21.5 -47.5t57.5 -17.5h59zM254 746h67l133 -170h-85l-81 107l-81 -107h-85z" />
    <glyph glyph-name="atilde" unicode="&#xe3;" horiz-adv-x="565" 
d="M99 30.5q-45 38.5 -45 102.5v33q0 63 47 101.5t123 38.5h63q30 0 64 -9t58 -25v73q0 37 -23 59.5t-60 22.5h-82q-38 0 -61 -18t-23 -47h-92q0 65 48.5 105t127.5 40h82q79 0 127 -44.5t48 -117.5v-345h-87v67q-23 -34 -60 -54.5t-75 -20.5h-60q-75 0 -120 38.5zM284 69
q44 0 78 25.5t47 68.5v30q-19 17 -52 27t-68 10h-64q-35 0 -57 -18t-22 -48v-30q0 -30 21.5 -47.5t57.5 -17.5h59zM310 578q-16 10 -36 29q-15 14 -23.5 20t-18.5 6h-9q-15 0 -24.5 -14t-10.5 -38h-70q1 53 29 85t74 32h8q25 0 43 -11t38 -31q2 -2 10.5 -9t14.5 -10.5
t12 -3.5h8q14 0 23 14.5t10 37.5h71q-2 -53 -29.5 -85t-71.5 -32h-9q-23 0 -39 10z" />
    <glyph glyph-name="adieresis" unicode="&#xe4;" horiz-adv-x="565" 
d="M99 30.5q-45 38.5 -45 102.5v33q0 63 47 101.5t123 38.5h63q30 0 64 -9t58 -25v73q0 37 -23 59.5t-60 22.5h-82q-38 0 -61 -18t-23 -47h-92q0 65 48.5 105t127.5 40h82q79 0 127 -44.5t48 -117.5v-345h-87v67q-23 -34 -60 -54.5t-75 -20.5h-60q-75 0 -120 38.5zM284 69
q44 0 78 25.5t47 68.5v30q-19 17 -52 27t-68 10h-64q-35 0 -57 -18t-22 -48v-30q0 -30 21.5 -47.5t57.5 -17.5h59zM139 592.5q-16 15.5 -16 40.5t16 40.5t41 15.5t40.5 -15.5t15.5 -40.5t-15.5 -40.5t-40.5 -15.5t-41 15.5zM354.5 592.5q-15.5 15.5 -15.5 40.5t15.5 40.5
t40.5 15.5t41 -15.5t16 -40.5t-16 -40.5t-41 -15.5t-40.5 15.5z" />
    <glyph glyph-name="aring" unicode="&#xe5;" horiz-adv-x="565" 
d="M99 30.5q-45 38.5 -45 102.5v33q0 63 47 101.5t123 38.5h63q30 0 64 -9t58 -25v73q0 37 -23 59.5t-60 22.5h-82q-38 0 -61 -18t-23 -47h-92q0 65 48.5 105t127.5 40h82q79 0 127 -44.5t48 -117.5v-345h-87v67q-23 -34 -60 -54.5t-75 -20.5h-60q-75 0 -120 38.5zM284 69
q44 0 78 25.5t47 68.5v30q-19 17 -52 27t-68 10h-64q-35 0 -57 -18t-22 -48v-30q0 -30 21.5 -47.5t57.5 -17.5h59zM207 574q-31 30 -31 78q0 49 31 79t81 30t81 -30t31 -79q0 -48 -31 -78t-81 -30t-81 30zM325.5 615q14.5 14 14.5 37q0 24 -14.5 38t-37.5 14t-37.5 -14
t-14.5 -38q0 -23 14.5 -37t37.5 -14t37.5 14z" />
    <glyph glyph-name="ae" unicode="&#xe6;" horiz-adv-x="915" 
d="M100.5 30.5q-46.5 38.5 -46.5 101.5v34q0 64 46.5 102t124.5 38h63q30 0 64 -9t59 -25v73q0 37 -23 59t-61 22h-82q-38 0 -61.5 -17.5t-23.5 -46.5h-92q0 65 48.5 105t128.5 40h82q43 0 79.5 -18t56.5 -49h1q21 31 60 49t82 18h76q85 0 137 -52.5t52 -138.5v-93h-367v-46
q0 -47 28 -75.5t75 -28.5h71q45 0 72 23.5t27 62.5h92q0 -75 -53 -121t-139 -46h-70q-51 0 -92 20.5t-63 59.5h-1q-33 -43 -74.5 -61.5t-84.5 -18.5h-71q-74 0 -120.5 38.5zM778 297v19q0 50 -26 80t-70 30h-76q-46 0 -74 -31.5t-28 -82.5v-15h274zM285 69q44 0 78.5 25.5
t47.5 68.5v30q-19 17 -52 27t-69 10h-63q-38 0 -59.5 -17.5t-21.5 -48.5v-30q0 -29 22 -47t58 -18h59z" />
    <glyph glyph-name="ccedilla" unicode="&#xe7;" horiz-adv-x="544" 
d="M311 -8l-20 -43h8q40 0 63.5 -21.5t23.5 -57.5v-14q0 -40 -31 -64t-83 -24h-69v59h64q21 0 34 8.5t13 22.5v12q0 13 -11 21t-30 8h-53v47l19 46q-85 1 -137 52.5t-52 134.5v134q0 88 52.5 141t138.5 53h81q82 0 132 -46t50 -122h-92q0 39 -24.5 62.5t-65.5 23.5h-80
q-44 0 -71.5 -31.5t-27.5 -83.5v-128q0 -49 28 -78.5t72 -29.5h80q42 0 67.5 29.5t25.5 78.5h92q0 -85 -51 -137.5t-134 -52.5h-12z" />
    <glyph glyph-name="egrave" unicode="&#xe8;" horiz-adv-x="561" 
d="M103.5 42.5q-53.5 50.5 -53.5 132.5v138q0 88 53.5 141t141.5 53h82q85 0 137 -52t52 -138v-94h-373v-48q0 -46 28 -74t74 -28h77q45 0 73 23.5t28 62.5h91q0 -75 -53 -121t-140 -46h-76q-88 0 -141.5 50.5zM423 297v20q0 50 -26.5 80t-69.5 30h-82q-46 0 -74 -31.5
t-28 -83.5v-15h280zM135 737h105l88 -161h-87z" />
    <glyph glyph-name="eacute" unicode="&#xe9;" horiz-adv-x="561" 
d="M103.5 42.5q-53.5 50.5 -53.5 132.5v138q0 88 53.5 141t141.5 53h82q85 0 137 -52t52 -138v-94h-373v-48q0 -46 28 -74t74 -28h77q45 0 73 23.5t28 62.5h91q0 -75 -53 -121t-140 -46h-76q-88 0 -141.5 50.5zM423 297v20q0 50 -26.5 80t-69.5 30h-82q-46 0 -74 -31.5
t-28 -83.5v-15h280zM329 737h105l-106 -161h-87z" />
    <glyph glyph-name="ecircumflex" unicode="&#xea;" horiz-adv-x="561" 
d="M103.5 42.5q-53.5 50.5 -53.5 132.5v138q0 88 53.5 141t141.5 53h82q85 0 137 -52t52 -138v-94h-373v-48q0 -46 28 -74t74 -28h77q45 0 73 23.5t28 62.5h91q0 -75 -53 -121t-140 -46h-76q-88 0 -141.5 50.5zM423 297v20q0 50 -26.5 80t-69.5 30h-82q-46 0 -74 -31.5
t-28 -83.5v-15h280zM250 746h67l133 -170h-85l-81 107l-81 -107h-85z" />
    <glyph glyph-name="edieresis" unicode="&#xeb;" horiz-adv-x="561" 
d="M103.5 42.5q-53.5 50.5 -53.5 132.5v138q0 88 53.5 141t141.5 53h82q85 0 137 -52t52 -138v-94h-373v-48q0 -46 28 -74t74 -28h77q45 0 73 23.5t28 62.5h91q0 -75 -53 -121t-140 -46h-76q-88 0 -141.5 50.5zM423 297v20q0 50 -26.5 80t-69.5 30h-82q-46 0 -74 -31.5
t-28 -83.5v-15h280zM135 592.5q-16 15.5 -16 40.5t16 40.5t41 15.5t40.5 -15.5t15.5 -40.5t-15.5 -40.5t-40.5 -15.5t-41 15.5zM350.5 592.5q-15.5 15.5 -15.5 40.5t15.5 40.5t40.5 15.5t41 -15.5t16 -40.5t-16 -40.5t-41 -15.5t-40.5 15.5z" />
    <glyph glyph-name="igrave" unicode="&#xec;" horiz-adv-x="245" 
d="M76 499h93v-499h-93v499zM-21 756h105l88 -161h-87z" />
    <glyph glyph-name="iacute" unicode="&#xed;" horiz-adv-x="245" 
d="M76 499h93v-499h-93v499zM164 756h105l-106 -161h-87z" />
    <glyph glyph-name="icircumflex" unicode="&#xee;" horiz-adv-x="245" 
d="M76 499h93v-499h-93v499zM89 746h67l133 -170h-85l-81 107l-81 -107h-85z" />
    <glyph glyph-name="idieresis" unicode="&#xef;" horiz-adv-x="245" 
d="M76 499h93v-499h-93v499zM-26 592.5q-16 15.5 -16 40.5t16 40.5t41 15.5t40.5 -15.5t15.5 -40.5t-15.5 -40.5t-40.5 -15.5t-41 15.5zM189.5 592.5q-15.5 15.5 -15.5 40.5t15.5 40.5t40.5 15.5t41 -15.5t16 -40.5t-16 -40.5t-41 -15.5t-40.5 15.5z" />
    <glyph glyph-name="eth" unicode="&#xf0;" horiz-adv-x="596" 
d="M552 361v-139q0 -68 -27.5 -120.5t-78 -81t-116.5 -28.5h-72q-64 0 -112.5 26t-75 72.5t-26.5 107.5v101q0 64 26.5 113t74 76t110.5 27h69q39 0 75 -18.5t57 -49.5h1q-10 141 -96 200l-51 -65h-93l75 96q-46 11 -97 11h-33v81h33q84 0 150 -23l41 52h93l-67 -86
q140 -95 140 -352zM459 281q0 65 -38 108.5t-98 43.5h-66q-54 0 -87 -37.5t-33 -99.5v-96q0 -57 33.5 -91.5t89.5 -34.5h68q59 0 95 40t36 106v61z" />
    <glyph glyph-name="ntilde" unicode="&#xf1;" horiz-adv-x="581" 
d="M70 499h89v-69q22 34 58.5 55.5t72.5 21.5h66q72 0 116.5 -48t44.5 -126v-333h-93v333q0 41 -21 66.5t-55 25.5h-62q-43 0 -78 -33t-45 -86v-306h-93v499zM320 578q-16 10 -36 29q-15 14 -23.5 20t-18.5 6h-9q-15 0 -24.5 -14t-10.5 -38h-70q1 53 29 85t74 32h8
q25 0 43 -11t38 -31q2 -2 10.5 -9t14.5 -10.5t12 -3.5h8q14 0 23 14.5t10 37.5h71q-2 -53 -29.5 -85t-71.5 -32h-9q-23 0 -39 10z" />
    <glyph glyph-name="ograve" unicode="&#xf2;" horiz-adv-x="578" 
d="M103.5 45q-53.5 53 -53.5 139v130q0 87 54 140t143 53h84q89 0 143 -53t54 -140v-130q0 -86 -54.5 -139t-143.5 -53h-85q-88 0 -141.5 53zM329 74q48 0 77 31t29 83v123q0 52 -28.5 83t-75.5 31h-84q-47 0 -75.5 -31t-28.5 -83v-123q0 -52 28 -83t75 -31h83zM140 737h105
l88 -161h-87z" />
    <glyph glyph-name="oacute" unicode="&#xf3;" horiz-adv-x="578" 
d="M103.5 45q-53.5 53 -53.5 139v130q0 87 54 140t143 53h84q89 0 143 -53t54 -140v-130q0 -86 -54.5 -139t-143.5 -53h-85q-88 0 -141.5 53zM329 74q48 0 77 31t29 83v123q0 52 -28.5 83t-75.5 31h-84q-47 0 -75.5 -31t-28.5 -83v-123q0 -52 28 -83t75 -31h83zM334 737h105
l-106 -161h-87z" />
    <glyph glyph-name="ocircumflex" unicode="&#xf4;" horiz-adv-x="578" 
d="M103.5 45q-53.5 53 -53.5 139v130q0 87 54 140t143 53h84q89 0 143 -53t54 -140v-130q0 -86 -54.5 -139t-143.5 -53h-85q-88 0 -141.5 53zM329 74q48 0 77 31t29 83v123q0 52 -28.5 83t-75.5 31h-84q-47 0 -75.5 -31t-28.5 -83v-123q0 -52 28 -83t75 -31h83zM255 746h67
l133 -170h-85l-81 107l-81 -107h-85z" />
    <glyph glyph-name="otilde" unicode="&#xf5;" horiz-adv-x="578" 
d="M103.5 45q-53.5 53 -53.5 139v130q0 87 54 140t143 53h84q89 0 143 -53t54 -140v-130q0 -86 -54.5 -139t-143.5 -53h-85q-88 0 -141.5 53zM329 74q48 0 77 31t29 83v123q0 52 -28.5 83t-75.5 31h-84q-47 0 -75.5 -31t-28.5 -83v-123q0 -52 28 -83t75 -31h83zM311 578
q-16 10 -36 29q-15 14 -23.5 20t-18.5 6h-9q-15 0 -24.5 -14t-10.5 -38h-70q1 53 29 85t74 32h8q25 0 43 -11t38 -31q2 -2 10.5 -9t14.5 -10.5t12 -3.5h8q14 0 23 14.5t10 37.5h71q-2 -53 -29.5 -85t-71.5 -32h-9q-23 0 -39 10z" />
    <glyph glyph-name="odieresis" unicode="&#xf6;" horiz-adv-x="578" 
d="M103.5 45q-53.5 53 -53.5 139v130q0 87 54 140t143 53h84q89 0 143 -53t54 -140v-130q0 -86 -54.5 -139t-143.5 -53h-85q-88 0 -141.5 53zM329 74q48 0 77 31t29 83v123q0 52 -28.5 83t-75.5 31h-84q-47 0 -75.5 -31t-28.5 -83v-123q0 -52 28 -83t75 -31h83zM140 592.5
q-16 15.5 -16 40.5t16 40.5t41 15.5t40.5 -15.5t15.5 -40.5t-15.5 -40.5t-40.5 -15.5t-41 15.5zM355.5 592.5q-15.5 15.5 -15.5 40.5t15.5 40.5t40.5 15.5t41 -15.5t16 -40.5t-16 -40.5t-41 -15.5t-40.5 15.5z" />
    <glyph glyph-name="divide" unicode="&#xf7;" horiz-adv-x="562" 
d="M236.5 438.5q-16.5 16.5 -16.5 43.5t16.5 43.5t43.5 16.5t43.5 -16.5t16.5 -43.5t-16.5 -43.5t-43.5 -16.5t-43.5 16.5zM50 364h462v-81h-462v81zM236.5 121.5q-16.5 16.5 -16.5 43.5t16.5 43.5t43.5 16.5t43.5 -16.5t16.5 -43.5t-16.5 -43.5t-43.5 -16.5t-43.5 16.5z
" />
    <glyph glyph-name="oslash" unicode="&#xf8;" horiz-adv-x="578" 
d="M514 393q14 -36 14 -79v-130q0 -86 -54.5 -139t-143.5 -53h-85q-48 0 -84 15l-32 -45h-82l57 82q-54 54 -54 140v130q0 87 54 140t143 53h84q49 0 85 -16l33 47h82l-58 -83q27 -26 41 -62zM159 122l207 298q-17 5 -35 5h-84q-47 0 -75.5 -31t-28.5 -83v-123q0 -37 16 -66
zM435 311q0 37 -16 66l-208 -298q18 -5 35 -5h83q48 0 77 31t29 83v123z" />
    <glyph glyph-name="ugrave" unicode="&#xf9;" horiz-adv-x="579" 
d="M108.5 41q-44.5 49 -44.5 129v329h93v-331q0 -42 21 -68t55 -26h60q42 0 77 34t46 86v305h93v-499h-88v72q-24 -35 -60 -57.5t-71 -22.5h-64q-73 0 -117.5 49zM141 737h105l88 -161h-87z" />
    <glyph glyph-name="uacute" unicode="&#xfa;" horiz-adv-x="579" 
d="M108.5 41q-44.5 49 -44.5 129v329h93v-331q0 -42 21 -68t55 -26h60q42 0 77 34t46 86v305h93v-499h-88v72q-24 -35 -60 -57.5t-71 -22.5h-64q-73 0 -117.5 49zM335 737h105l-106 -161h-87z" />
    <glyph glyph-name="ucircumflex" unicode="&#xfb;" horiz-adv-x="579" 
d="M108.5 41q-44.5 49 -44.5 129v329h93v-331q0 -42 21 -68t55 -26h60q42 0 77 34t46 86v305h93v-499h-88v72q-24 -35 -60 -57.5t-71 -22.5h-64q-73 0 -117.5 49zM256 746h67l133 -170h-85l-81 107l-81 -107h-85z" />
    <glyph glyph-name="udieresis" unicode="&#xfc;" horiz-adv-x="579" 
d="M108.5 41q-44.5 49 -44.5 129v329h93v-331q0 -42 21 -68t55 -26h60q42 0 77 34t46 86v305h93v-499h-88v72q-24 -35 -60 -57.5t-71 -22.5h-64q-73 0 -117.5 49zM141 592.5q-16 15.5 -16 40.5t16 40.5t41 15.5t40.5 -15.5t15.5 -40.5t-15.5 -40.5t-40.5 -15.5t-41 15.5z
M356.5 592.5q-15.5 15.5 -15.5 40.5t15.5 40.5t40.5 15.5t41 -15.5t16 -40.5t-16 -40.5t-41 -15.5t-40.5 15.5z" />
    <glyph glyph-name="yacute" unicode="&#xfd;" horiz-adv-x="581" 
d="M124.5 -164q-46.5 39 -51.5 102h93q3 -27 24 -44t52 -17h79q45 0 70.5 31.5t25.5 86.5v83q-23 -35 -57 -56t-68 -21h-65q-73 0 -118 49t-45 129v320h93v-322q0 -42 21.5 -68t55.5 -26h61q42 0 76.5 34t45.5 86v296h94v-504q0 -92 -51 -145t-139 -53h-79q-71 0 -117.5 39z
M335 737h105l-106 -161h-87z" />
    <glyph glyph-name="thorn" unicode="&#xfe;" horiz-adv-x="587" 
d="M70 700h93v-259q21 30 53.5 48t64.5 18h69q84 0 135.5 -52t51.5 -137v-120q0 -62 -23.5 -109t-66.5 -72.5t-99 -25.5h-70q-30 0 -62.5 16t-52.5 42v-251h-93v902zM340 72q47 0 75 35.5t28 93.5v114q0 49 -27.5 79.5t-72.5 30.5h-67q-37 0 -68.5 -29t-44.5 -76v-134
q6 -50 37.5 -82t75.5 -32h64z" />
    <glyph glyph-name="ydieresis" unicode="&#xff;" horiz-adv-x="581" 
d="M124.5 -164q-46.5 39 -51.5 102h93q3 -27 24 -44t52 -17h79q45 0 70.5 31.5t25.5 86.5v83q-23 -35 -57 -56t-68 -21h-65q-73 0 -118 49t-45 129v320h93v-322q0 -42 21.5 -68t55.5 -26h61q42 0 76.5 34t45.5 86v296h94v-504q0 -92 -51 -145t-139 -53h-79q-71 0 -117.5 39z
M141 592.5q-16 15.5 -16 40.5t16 40.5t41 15.5t40.5 -15.5t15.5 -40.5t-15.5 -40.5t-40.5 -15.5t-41 15.5zM356.5 592.5q-15.5 15.5 -15.5 40.5t15.5 40.5t40.5 15.5t41 -15.5t16 -40.5t-16 -40.5t-41 -15.5t-40.5 15.5z" />
    <glyph glyph-name="Amacron" unicode="&#x100;" horiz-adv-x="658" 
d="M475 184h-292l-68 -184h-99l271 700h43q43 0 61 -47l251 -653h-98zM211 264h236l-117 316h-1zM192 859h277v-70h-277v70z" />
    <glyph glyph-name="amacron" unicode="&#x101;" horiz-adv-x="565" 
d="M99 30.5q-45 38.5 -45 102.5v33q0 63 47 101.5t123 38.5h63q30 0 64 -9t58 -25v73q0 37 -23 59.5t-60 22.5h-82q-38 0 -61 -18t-23 -47h-92q0 65 48.5 105t127.5 40h82q79 0 127 -44.5t48 -117.5v-345h-87v67q-23 -34 -60 -54.5t-75 -20.5h-60q-75 0 -120 38.5zM284 69
q44 0 78 25.5t47 68.5v30q-19 17 -52 27t-68 10h-64q-35 0 -57 -18t-22 -48v-30q0 -30 21.5 -47.5t57.5 -17.5h59zM150 658h277v-70h-277v70z" />
    <glyph glyph-name="Abreve" unicode="&#x102;" horiz-adv-x="658" 
d="M475 184h-292l-68 -184h-99l271 700h43q43 0 61 -47l251 -653h-98zM211 264h236l-117 316h-1zM215 807q-41 38 -41 100v12h74v-12q0 -34 21 -54.5t55 -20.5h12q34 0 55 20.5t21 54.5v12h74v-12q0 -62 -41 -100t-109 -38h-12q-68 0 -109 38z" />
    <glyph glyph-name="abreve" unicode="&#x103;" horiz-adv-x="565" 
d="M99 30.5q-45 38.5 -45 102.5v33q0 63 47 101.5t123 38.5h63q30 0 64 -9t58 -25v73q0 37 -23 59.5t-60 22.5h-82q-38 0 -61 -18t-23 -47h-92q0 65 48.5 105t127.5 40h82q79 0 127 -44.5t48 -117.5v-345h-87v67q-23 -34 -60 -54.5t-75 -20.5h-60q-75 0 -120 38.5zM284 69
q44 0 78 25.5t47 68.5v30q-19 17 -52 27t-68 10h-64q-35 0 -57 -18t-22 -48v-30q0 -30 21.5 -47.5t57.5 -17.5h59zM173 606q-41 38 -41 100v12h74v-12q0 -34 21 -54.5t55 -20.5h12q34 0 55 20.5t21 54.5v12h74v-12q0 -62 -41 -100t-109 -38h-12q-68 0 -109 38z" />
    <glyph glyph-name="Aogonek" unicode="&#x104;" horiz-adv-x="658" 
d="M475 184h-292l-68 -184h-99l271 700h43q43 0 61 -47l251 -653h-98zM211 264h236l-117 316h-1zM527.5 -189q-30.5 27 -30.5 71v11q0 32 17.5 61.5t46.5 45.5h82q-31 -17 -49.5 -43t-18.5 -55v-11q0 -19 12.5 -30.5t34.5 -11.5h11q15 0 31 5.5t28 14.5v-65
q-12 -9 -31.5 -14.5t-38.5 -5.5h-12q-52 0 -82.5 27z" />
    <glyph glyph-name="aogonek" unicode="&#x105;" horiz-adv-x="565" 
d="M523 -145.5q16 5.5 28 14.5v-65q-12 -9 -31.5 -14.5t-38.5 -5.5h-12q-52 0 -83 27t-31 71v11q0 31 17.5 60.5t46.5 46.5h-5v67q-23 -34 -60 -54.5t-75 -20.5h-60q-75 0 -120 38.5t-45 102.5v33q0 63 47 101.5t123 38.5h63q30 0 64 -9t58 -25v73q0 37 -23 59.5t-60 22.5
h-82q-38 0 -61 -18t-23 -47h-92q0 65 48.5 105t127.5 40h82q79 0 127 -44.5t48 -117.5v-345q-31 -17 -49.5 -43t-18.5 -55v-11q0 -18 13 -30t34 -12h12q15 0 31 5.5zM409 193q-19 17 -52 27t-68 10h-64q-35 0 -57 -18t-22 -48v-30q0 -30 21.5 -47.5t57.5 -17.5h59
q44 0 78 25.5t47 68.5v30z" />
    <glyph glyph-name="Cacute" unicode="&#x106;" horiz-adv-x="669" 
d="M167 24q-54 32 -83.5 90.5t-29.5 135.5v200q0 77 30 135.5t84.5 90.5t126.5 32h106q68 0 120.5 -29.5t81 -82.5t28.5 -122h-93q0 67 -37.5 108t-99.5 41h-106q-65 0 -105.5 -48t-40.5 -127v-196q0 -79 39 -127t103 -48h108q64 0 102.5 45.5t38.5 119.5h93q0 -74 -29 -131
t-82 -88t-123 -31h-108q-70 0 -124 32zM391 938h105l-106 -161h-87z" />
    <glyph glyph-name="cacute" unicode="&#x107;" horiz-adv-x="544" 
d="M103 43.5q-53 51.5 -53 135.5v134q0 88 52.5 141t138.5 53h81q82 0 132 -46t50 -122h-92q0 39 -24.5 62.5t-65.5 23.5h-80q-44 0 -71.5 -31.5t-27.5 -83.5v-128q0 -49 28 -78.5t72 -29.5h80q42 0 67.5 29.5t25.5 78.5h92q0 -85 -51 -137.5t-134 -52.5h-81
q-86 0 -139 51.5zM325 737h105l-106 -161h-87z" />
    <glyph glyph-name="Ccircumflex" unicode="&#x108;" horiz-adv-x="669" 
d="M167 24q-54 32 -83.5 90.5t-29.5 135.5v200q0 77 30 135.5t84.5 90.5t126.5 32h106q68 0 120.5 -29.5t81 -82.5t28.5 -122h-93q0 67 -37.5 108t-99.5 41h-106q-65 0 -105.5 -48t-40.5 -127v-196q0 -79 39 -127t103 -48h108q64 0 102.5 45.5t38.5 119.5h93q0 -74 -29 -131
t-82 -88t-123 -31h-108q-70 0 -124 32zM312 947h67l133 -170h-85l-81 107l-81 -107h-85z" />
    <glyph glyph-name="ccircumflex" unicode="&#x109;" horiz-adv-x="544" 
d="M103 43.5q-53 51.5 -53 135.5v134q0 88 52.5 141t138.5 53h81q82 0 132 -46t50 -122h-92q0 39 -24.5 62.5t-65.5 23.5h-80q-44 0 -71.5 -31.5t-27.5 -83.5v-128q0 -49 28 -78.5t72 -29.5h80q42 0 67.5 29.5t25.5 78.5h92q0 -85 -51 -137.5t-134 -52.5h-81
q-86 0 -139 51.5zM246 746h67l133 -170h-85l-81 107l-81 -107h-85z" />
    <glyph glyph-name="Cdotaccent" unicode="&#x10a;" horiz-adv-x="669" 
d="M167 24q-54 32 -83.5 90.5t-29.5 135.5v200q0 77 30 135.5t84.5 90.5t126.5 32h106q68 0 120.5 -29.5t81 -82.5t28.5 -122h-93q0 67 -37.5 108t-99.5 41h-106q-65 0 -105.5 -48t-40.5 -127v-196q0 -79 39 -127t103 -48h108q64 0 102.5 45.5t38.5 119.5h93q0 -74 -29 -131
t-82 -88t-123 -31h-108q-70 0 -124 32zM299.5 792q-17.5 18 -17.5 46t17.5 45.5t46.5 17.5t46.5 -17.5t17.5 -45.5t-17.5 -46t-46.5 -18t-46.5 18z" />
    <glyph glyph-name="cdotaccent" unicode="&#x10b;" horiz-adv-x="544" 
d="M103 43.5q-53 51.5 -53 135.5v134q0 88 52.5 141t138.5 53h81q82 0 132 -46t50 -122h-92q0 39 -24.5 62.5t-65.5 23.5h-80q-44 0 -71.5 -31.5t-27.5 -83.5v-128q0 -49 28 -78.5t72 -29.5h80q42 0 67.5 29.5t25.5 78.5h92q0 -85 -51 -137.5t-134 -52.5h-81
q-86 0 -139 51.5zM233.5 591q-17.5 18 -17.5 46t17.5 45.5t46.5 17.5t46.5 -17.5t17.5 -45.5t-17.5 -46t-46.5 -18t-46.5 18z" />
    <glyph glyph-name="Ccaron" unicode="&#x10c;" horiz-adv-x="669" 
d="M167 24q-54 32 -83.5 90.5t-29.5 135.5v200q0 77 30 135.5t84.5 90.5t126.5 32h106q68 0 120.5 -29.5t81 -82.5t28.5 -122h-93q0 67 -37.5 108t-99.5 41h-106q-65 0 -105.5 -48t-40.5 -127v-196q0 -79 39 -127t103 -48h108q64 0 102.5 45.5t38.5 119.5h93q0 -74 -29 -131
t-82 -88t-123 -31h-108q-70 0 -124 32zM180 947h85l81 -107l81 107h85l-133 -170h-67z" />
    <glyph glyph-name="ccaron" unicode="&#x10d;" horiz-adv-x="544" 
d="M103 43.5q-53 51.5 -53 135.5v134q0 88 52.5 141t138.5 53h81q82 0 132 -46t50 -122h-92q0 39 -24.5 62.5t-65.5 23.5h-80q-44 0 -71.5 -31.5t-27.5 -83.5v-128q0 -49 28 -78.5t72 -29.5h80q42 0 67.5 29.5t25.5 78.5h92q0 -85 -51 -137.5t-134 -52.5h-81
q-86 0 -139 51.5zM114 746h85l81 -107l81 107h85l-133 -170h-67z" />
    <glyph glyph-name="Dcaron" unicode="&#x10e;" horiz-adv-x="683" 
d="M94.5 20q-20.5 20 -20.5 55v625h305q76 0 133.5 -29t89 -82.5t31.5 -122.5v-212q0 -125 -63.5 -189.5t-186.5 -64.5h-233q-35 0 -55.5 20zM380 85q78 0 118 43t40 128v208q0 68 -44.5 109.5t-117.5 41.5h-207v-530h211zM181 947h85l81 -107l81 107h85l-133 -170h-67z" />
    <glyph glyph-name="dcaron" unicode="&#x10f;" horiz-adv-x="760" 
d="M100.5 45q-50.5 53 -50.5 140v118q0 60 24 106.5t67.5 72t100.5 25.5h68q32 0 63 -15t50 -40v248h94v-700h-89v71q-22 -35 -58 -57t-72 -22h-65q-82 0 -132.5 53zM302 74q47 0 82 38.5t39 91.5v113q-7 49 -36.5 78.5t-70.5 29.5h-67q-47 0 -76.5 -34.5t-29.5 -91.5v-111
q0 -51 27.5 -82.5t69.5 -31.5h62zM579 538l20 16q29 22 43 48.5t14 60.5v37h94v-37q0 -60 -22 -103.5t-68 -74.5l-24 -17z" />
    <glyph glyph-name="Dcroat" unicode="&#x110;" horiz-adv-x="734" 
d="M563.5 671q57.5 -29 89 -82.5t31.5 -122.5v-212q0 -125 -63.5 -189.5t-186.5 -64.5h-233q-35 0 -55.5 20t-20.5 55v230h-100v84h100v311h305q76 0 133.5 -29zM589 464q0 68 -44.5 109.5t-117.5 41.5h-207v-226h206v-84h-206v-220h211q78 0 118 43t40 128v208z" />
    <glyph glyph-name="dcroat" unicode="&#x111;" horiz-adv-x="604" 
d="M592 562h-75v-562h-89v71q-22 -35 -58 -57t-72 -22h-65q-82 0 -132.5 53t-50.5 140v118q0 60 24 106.5t67.5 72t100.5 25.5h68q32 0 63 -15t50 -40v110h-154v71h154v67h94v-67h75v-71zM423 317q-7 49 -36.5 78.5t-70.5 29.5h-67q-47 0 -76.5 -34.5t-29.5 -91.5v-111
q0 -51 27.5 -82.5t69.5 -31.5h62q47 0 82 38.5t39 91.5v113z" />
    <glyph glyph-name="Emacron" unicode="&#x112;" horiz-adv-x="609" 
d="M94.5 20q-20.5 20 -20.5 55v625h491v-83h-396v-218h366v-82h-366v-234h396v-83h-415q-35 0 -55.5 20zM185 859h277v-70h-277v70z" />
    <glyph glyph-name="emacron" unicode="&#x113;" horiz-adv-x="561" 
d="M103.5 42.5q-53.5 50.5 -53.5 132.5v138q0 88 53.5 141t141.5 53h82q85 0 137 -52t52 -138v-94h-373v-48q0 -46 28 -74t74 -28h77q45 0 73 23.5t28 62.5h91q0 -75 -53 -121t-140 -46h-76q-88 0 -141.5 50.5zM423 297v20q0 50 -26.5 80t-69.5 30h-82q-46 0 -74 -31.5
t-28 -83.5v-15h280zM146 658h277v-70h-277v70z" />
    <glyph glyph-name="Ebreve" unicode="&#x114;" horiz-adv-x="609" 
d="M94.5 20q-20.5 20 -20.5 55v625h491v-83h-396v-218h366v-82h-366v-234h396v-83h-415q-35 0 -55.5 20zM208 807q-41 38 -41 100v12h74v-12q0 -34 21 -54.5t55 -20.5h12q34 0 55 20.5t21 54.5v12h74v-12q0 -62 -41 -100t-109 -38h-12q-68 0 -109 38z" />
    <glyph glyph-name="ebreve" unicode="&#x115;" horiz-adv-x="561" 
d="M103.5 42.5q-53.5 50.5 -53.5 132.5v138q0 88 53.5 141t141.5 53h82q85 0 137 -52t52 -138v-94h-373v-48q0 -46 28 -74t74 -28h77q45 0 73 23.5t28 62.5h91q0 -75 -53 -121t-140 -46h-76q-88 0 -141.5 50.5zM423 297v20q0 50 -26.5 80t-69.5 30h-82q-46 0 -74 -31.5
t-28 -83.5v-15h280zM169 606q-41 38 -41 100v12h74v-12q0 -34 21 -54.5t55 -20.5h12q34 0 55 20.5t21 54.5v12h74v-12q0 -62 -41 -100t-109 -38h-12q-68 0 -109 38z" />
    <glyph glyph-name="Edotaccent" unicode="&#x116;" horiz-adv-x="609" 
d="M94.5 20q-20.5 20 -20.5 55v625h491v-83h-396v-218h366v-82h-366v-234h396v-83h-415q-35 0 -55.5 20zM276.5 792q-17.5 18 -17.5 46t17.5 45.5t46.5 17.5t46.5 -17.5t17.5 -45.5t-17.5 -46t-46.5 -18t-46.5 18z" />
    <glyph glyph-name="edotaccent" unicode="&#x117;" horiz-adv-x="561" 
d="M103.5 42.5q-53.5 50.5 -53.5 132.5v138q0 88 53.5 141t141.5 53h82q85 0 137 -52t52 -138v-94h-373v-48q0 -46 28 -74t74 -28h77q45 0 73 23.5t28 62.5h91q0 -75 -53 -121t-140 -46h-76q-88 0 -141.5 50.5zM423 297v20q0 50 -26.5 80t-69.5 30h-82q-46 0 -74 -31.5
t-28 -83.5v-15h280zM237.5 591q-17.5 18 -17.5 46t17.5 45.5t46.5 17.5t46.5 -17.5t17.5 -45.5t-17.5 -46t-46.5 -18t-46.5 18z" />
    <glyph glyph-name="Eogonek" unicode="&#x118;" horiz-adv-x="609" 
d="M94.5 20q-20.5 20 -20.5 55v625h491v-83h-396v-218h366v-82h-366v-234h396v-83h-415q-35 0 -55.5 20zM450.5 -189q-30.5 27 -30.5 71v11q0 32 17.5 61.5t46.5 45.5h82q-31 -17 -49.5 -43t-18.5 -55v-11q0 -19 12.5 -30.5t34.5 -11.5h11q15 0 31 5.5t28 14.5v-65
q-12 -9 -31.5 -14.5t-38.5 -5.5h-12q-52 0 -82.5 27z" />
    <glyph glyph-name="eogonek" unicode="&#x119;" horiz-adv-x="561" 
d="M143 223v-48q0 -46 28 -74t74 -28h77q45 0 73 23.5t28 62.5h91q0 -59 -34 -101t-93 -58h3q-31 -17 -49.5 -43t-18.5 -55v-11q0 -18 13 -30t34 -12h12q15 0 31 5.5t28 14.5v-65q-12 -9 -31.5 -14.5t-38.5 -5.5h-12q-52 0 -83 27t-31 71v11q0 28 14.5 55t37.5 44h-51
q-88 0 -141.5 50.5t-53.5 132.5v138q0 88 53.5 141t141.5 53h82q85 0 137 -52t52 -138v-94h-373zM143 297h280v20q0 50 -26.5 80t-69.5 30h-82q-46 0 -74 -31.5t-28 -83.5v-15z" />
    <glyph glyph-name="Ecaron" unicode="&#x11a;" horiz-adv-x="609" 
d="M94.5 20q-20.5 20 -20.5 55v625h491v-83h-396v-218h366v-82h-366v-234h396v-83h-415q-35 0 -55.5 20zM157 947h85l81 -107l81 107h85l-133 -170h-67z" />
    <glyph glyph-name="ecaron" unicode="&#x11b;" horiz-adv-x="561" 
d="M103.5 42.5q-53.5 50.5 -53.5 132.5v138q0 88 53.5 141t141.5 53h82q85 0 137 -52t52 -138v-94h-373v-48q0 -46 28 -74t74 -28h77q45 0 73 23.5t28 62.5h91q0 -75 -53 -121t-140 -46h-76q-88 0 -141.5 50.5zM423 297v20q0 50 -26.5 80t-69.5 30h-82q-46 0 -74 -31.5
t-28 -83.5v-15h280zM118 746h85l81 -107l81 107h85l-133 -170h-67z" />
    <glyph glyph-name="Gcircumflex" unicode="&#x11c;" horiz-adv-x="693" 
d="M167.5 24q-54.5 32 -84 90.5t-29.5 135.5v200q0 77 30.5 135.5t85.5 90.5t127 32h108q69 0 122 -28.5t82 -81t29 -120.5h-93q0 65 -38.5 105t-101.5 40h-108q-66 0 -107 -48t-41 -127v-196q0 -79 39.5 -127t104.5 -48h112q64 0 104.5 45t40.5 116v48h-194v83h287v-131
q0 -72 -30 -128t-84 -87t-124 -31h-112q-71 0 -125.5 32zM316 947h67l133 -170h-85l-81 107l-81 -107h-85z" />
    <glyph glyph-name="gcircumflex" unicode="&#x11d;" horiz-adv-x="587" 
d="M125.5 -164q-46.5 39 -51.5 102h93q3 -27 24 -44t52 -17h85q45 0 70.5 31.5t25.5 86.5v67q-22 -27 -55 -44t-63 -17h-72q-54 0 -96 24t-65 68t-23 101v112q0 59 24.5 105t68.5 71t101 25h66q32 0 66 -17.5t53 -44.5v54h88v-504q0 -92 -50.5 -145t-138.5 -53h-85
q-71 0 -117.5 39zM309 82q46 0 78.5 37t36.5 95v105q-4 47 -34 76.5t-72 29.5h-69q-47 0 -76.5 -33.5t-29.5 -88.5v-106q0 -51 27 -83t68 -32h71zM250 746h67l133 -170h-85l-81 107l-81 -107h-85z" />
    <glyph glyph-name="Gbreve" unicode="&#x11e;" horiz-adv-x="693" 
d="M167.5 24q-54.5 32 -84 90.5t-29.5 135.5v200q0 77 30.5 135.5t85.5 90.5t127 32h108q69 0 122 -28.5t82 -81t29 -120.5h-93q0 65 -38.5 105t-101.5 40h-108q-66 0 -107 -48t-41 -127v-196q0 -79 39.5 -127t104.5 -48h112q64 0 104.5 45t40.5 116v48h-194v83h287v-131
q0 -72 -30 -128t-84 -87t-124 -31h-112q-71 0 -125.5 32zM235 807q-41 38 -41 100v12h74v-12q0 -34 21 -54.5t55 -20.5h12q34 0 55 20.5t21 54.5v12h74v-12q0 -62 -41 -100t-109 -38h-12q-68 0 -109 38z" />
    <glyph glyph-name="gbreve" unicode="&#x11f;" horiz-adv-x="587" 
d="M125.5 -164q-46.5 39 -51.5 102h93q3 -27 24 -44t52 -17h85q45 0 70.5 31.5t25.5 86.5v67q-22 -27 -55 -44t-63 -17h-72q-54 0 -96 24t-65 68t-23 101v112q0 59 24.5 105t68.5 71t101 25h66q32 0 66 -17.5t53 -44.5v54h88v-504q0 -92 -50.5 -145t-138.5 -53h-85
q-71 0 -117.5 39zM309 82q46 0 78.5 37t36.5 95v105q-4 47 -34 76.5t-72 29.5h-69q-47 0 -76.5 -33.5t-29.5 -88.5v-106q0 -51 27 -83t68 -32h71zM169 606q-41 38 -41 100v12h74v-12q0 -34 21 -54.5t55 -20.5h12q34 0 55 20.5t21 54.5v12h74v-12q0 -62 -41 -100t-109 -38
h-12q-68 0 -109 38z" />
    <glyph glyph-name="Gdotaccent" unicode="&#x120;" horiz-adv-x="693" 
d="M167.5 24q-54.5 32 -84 90.5t-29.5 135.5v200q0 77 30.5 135.5t85.5 90.5t127 32h108q69 0 122 -28.5t82 -81t29 -120.5h-93q0 65 -38.5 105t-101.5 40h-108q-66 0 -107 -48t-41 -127v-196q0 -79 39.5 -127t104.5 -48h112q64 0 104.5 45t40.5 116v48h-194v83h287v-131
q0 -72 -30 -128t-84 -87t-124 -31h-112q-71 0 -125.5 32zM303.5 792q-17.5 18 -17.5 46t17.5 45.5t46.5 17.5t46.5 -17.5t17.5 -45.5t-17.5 -46t-46.5 -18t-46.5 18z" />
    <glyph glyph-name="gdotaccent" unicode="&#x121;" horiz-adv-x="587" 
d="M125.5 -164q-46.5 39 -51.5 102h93q3 -27 24 -44t52 -17h85q45 0 70.5 31.5t25.5 86.5v67q-22 -27 -55 -44t-63 -17h-72q-54 0 -96 24t-65 68t-23 101v112q0 59 24.5 105t68.5 71t101 25h66q32 0 66 -17.5t53 -44.5v54h88v-504q0 -92 -50.5 -145t-138.5 -53h-85
q-71 0 -117.5 39zM309 82q46 0 78.5 37t36.5 95v105q-4 47 -34 76.5t-72 29.5h-69q-47 0 -76.5 -33.5t-29.5 -88.5v-106q0 -51 27 -83t68 -32h71zM237.5 591q-17.5 18 -17.5 46t17.5 45.5t46.5 17.5t46.5 -17.5t17.5 -45.5t-17.5 -46t-46.5 -18t-46.5 18z" />
    <glyph glyph-name="uni0122" unicode="&#x122;" horiz-adv-x="693" 
d="M167.5 24q-54.5 32 -84 90.5t-29.5 135.5v200q0 77 30.5 135.5t85.5 90.5t127 32h108q69 0 122 -28.5t82 -81t29 -120.5h-93q0 65 -38.5 105t-101.5 40h-108q-66 0 -107 -48t-41 -127v-196q0 -79 39.5 -127t104.5 -48h112q64 0 104.5 45t40.5 116v48h-194v83h287v-131
q0 -72 -30 -128t-84 -87t-124 -31h-112q-71 0 -125.5 32zM226 -229l20 15q57 42 57 110v33h94v-33q0 -60 -22 -103.5t-68 -75.5l-24 -17z" />
    <glyph glyph-name="uni0123" unicode="&#x123;" horiz-adv-x="587" 
d="M125.5 -164q-46.5 39 -51.5 102h93q3 -27 24 -44t52 -17h85q45 0 70.5 31.5t25.5 86.5v67q-22 -27 -55 -44t-63 -17h-72q-54 0 -96 24t-65 68t-23 101v112q0 59 24.5 105t68.5 71t101 25h66q32 0 66 -17.5t53 -44.5v54h88v-504q0 -92 -50.5 -145t-138.5 -53h-85
q-71 0 -117.5 39zM309 82q46 0 78.5 37t36.5 95v105q-4 47 -34 76.5t-72 29.5h-69q-47 0 -76.5 -33.5t-29.5 -88.5v-106q0 -51 27 -83t68 -32h71zM234 602q0 60 21.5 103.5t67.5 74.5l24 17l57 -70l-20 -16q-29 -22 -43 -48.5t-14 -60.5v-37h-93v37z" />
    <glyph glyph-name="Hcircumflex" unicode="&#x124;" horiz-adv-x="705" 
d="M74 700h95v-306h366v306h96v-700h-96v310h-366v-310h-95v700zM316 947h67l133 -170h-85l-81 107l-81 -107h-85z" />
    <glyph glyph-name="hcircumflex" unicode="&#x125;" horiz-adv-x="583" 
d="M70 700h93v-264q23 32 58 51.5t69 19.5h68q72 0 116.5 -48t44.5 -126v-333h-93v333q0 41 -21 66.5t-55 25.5h-64q-43 0 -78 -32.5t-45 -84.5v-308h-93v700zM260 947h67l133 -170h-85l-81 107l-81 -107h-85z" />
    <glyph glyph-name="Hbar" unicode="&#x126;" horiz-adv-x="757" 
d="M737 509h-80v-509h-96v310h-366v-310h-95v509h-80v70h80v121h95v-121h366v121h96v-121h80v-70zM561 509h-366v-115h366v115z" />
    <glyph glyph-name="hbar" unicode="&#x127;" horiz-adv-x="618" 
d="M509.5 459q44.5 -48 44.5 -126v-333h-93v333q0 41 -21 66.5t-55 25.5h-64q-43 0 -78 -32.5t-45 -84.5v-308h-93v563h-85v69h85v68h93v-68h132v-69h-132v-127q23 32 58 51.5t69 19.5h68q72 0 116.5 -48z" />
    <glyph glyph-name="Itilde" unicode="&#x128;" horiz-adv-x="263" 
d="M84 700h95v-700h-95v700zM154 779q-16 10 -36 29q-15 14 -23.5 20t-18.5 6h-9q-15 0 -24.5 -14t-10.5 -38h-70q1 53 29 85t74 32h8q25 0 43 -11t38 -31q2 -2 10.5 -9t14.5 -10.5t12 -3.5h8q14 0 23 14.5t10 37.5h71q-2 -53 -29.5 -85t-71.5 -32h-9q-23 0 -39 10z" />
    <glyph glyph-name="itilde" unicode="&#x129;" horiz-adv-x="245" 
d="M76 499h93v-499h-93v499zM145 578q-16 10 -36 29q-15 14 -23.5 20t-18.5 6h-9q-15 0 -24.5 -14t-10.5 -38h-70q1 53 29 85t74 32h8q25 0 43 -11t38 -31q2 -2 10.5 -9t14.5 -10.5t12 -3.5h8q14 0 23 14.5t10 37.5h71q-2 -53 -29.5 -85t-71.5 -32h-9q-23 0 -39 10z" />
    <glyph glyph-name="Imacron" unicode="&#x12a;" horiz-adv-x="263" 
d="M84 700h95v-700h-95v700zM-6 859h277v-70h-277v70z" />
    <glyph glyph-name="imacron" unicode="&#x12b;" horiz-adv-x="245" 
d="M76 499h93v-499h-93v499zM-15 658h277v-70h-277v70z" />
    <glyph glyph-name="Ibreve" unicode="&#x12c;" horiz-adv-x="263" 
d="M84 700h95v-700h-95v700zM17 807q-41 38 -41 100v12h74v-12q0 -34 21 -54.5t55 -20.5h12q34 0 55 20.5t21 54.5v12h74v-12q0 -62 -41 -100t-109 -38h-12q-68 0 -109 38z" />
    <glyph glyph-name="ibreve" unicode="&#x12d;" horiz-adv-x="245" 
d="M76 499h93v-499h-93v499zM8 606q-41 38 -41 100v12h74v-12q0 -34 21 -54.5t55 -20.5h12q34 0 55 20.5t21 54.5v12h74v-12q0 -62 -41 -100t-109 -38h-12q-68 0 -109 38z" />
    <glyph glyph-name="Iogonek" unicode="&#x12e;" horiz-adv-x="263" 
d="M84 700h95v-700h-95v700zM64.5 -189q-30.5 27 -30.5 71v11q0 32 17.5 61.5t46.5 45.5h82q-31 -17 -49.5 -43t-18.5 -55v-11q0 -19 12.5 -30.5t34.5 -11.5h11q15 0 31 5.5t28 14.5v-65q-12 -9 -31.5 -14.5t-38.5 -5.5h-12q-52 0 -82.5 27z" />
    <glyph glyph-name="iogonek" unicode="&#x12f;" horiz-adv-x="269" 
d="M88 582.5q-18 17.5 -18 45.5t18 45.5t47 17.5t46.5 -17.5t17.5 -45.5t-17.5 -45.5t-46.5 -17.5t-47 17.5zM88 499h93v-499h-93v499zM66.5 -189q-30.5 27 -30.5 71v11q0 32 17.5 61.5t46.5 45.5h82q-31 -17 -49.5 -43t-18.5 -55v-11q0 -19 12.5 -30.5t34.5 -11.5h11
q15 0 31 5.5t28 14.5v-65q-12 -9 -31.5 -14.5t-38.5 -5.5h-12q-52 0 -82.5 27z" />
    <glyph glyph-name="Idotaccent" unicode="&#x130;" horiz-adv-x="263" 
d="M84 700h95v-700h-95v700zM85.5 792q-17.5 18 -17.5 46t17.5 45.5t46.5 17.5t46.5 -17.5t17.5 -45.5t-17.5 -46t-46.5 -18t-46.5 18z" />
    <glyph glyph-name="dotlessi" unicode="&#x131;" horiz-adv-x="245" 
d="M76 499h93v-499h-93v499z" />
    <glyph glyph-name="IJ" unicode="&#x132;" horiz-adv-x="830" 
d="M84 700h95v-700h-95v700zM368 21.5q-46 29.5 -71.5 83t-25.5 123.5h95q0 -68 29.5 -109.5t78.5 -41.5h84q51 0 81 43t30 118v462h95v-464q0 -113 -54.5 -178.5t-149.5 -65.5h-86q-60 0 -106 29.5z" />
    <glyph glyph-name="ij" unicode="&#x133;" horiz-adv-x="531" 
d="M88 582.5q-18 17.5 -18 45.5t18 45.5t47 17.5t46.5 -17.5t17.5 -45.5t-17.5 -45.5t-46.5 -17.5t-47 17.5zM88 499h93v-499h-93v499zM349 582.5q-18 17.5 -18 45.5t18 45.5t47 17.5t46.5 -17.5t17.5 -45.5t-17.5 -45.5t-46.5 -17.5t-47 17.5zM217 -118h44q47 0 67.5 26.5
t20.5 85.5v505h93v-500q0 -104 -42.5 -151t-138.5 -47h-44v81z" />
    <glyph glyph-name="Jcircumflex" unicode="&#x134;" horiz-adv-x="587" 
d="M125 21.5q-46 29.5 -71.5 83t-25.5 123.5h95q0 -68 29.5 -109.5t78.5 -41.5h84q51 0 81 43t30 118v462h95v-464q0 -113 -54.5 -178.5t-149.5 -65.5h-86q-60 0 -106 29.5zM439 947h67l133 -170h-85l-81 107l-81 -107h-85z" />
    <glyph glyph-name="jcircumflex" unicode="&#x135;" horiz-adv-x="265" 
d="M-36 -118h46q46 0 66 26t20 86v506h93v-501q0 -106 -41.5 -152t-137.5 -46h-46v81zM109 746h67l133 -170h-85l-81 107l-81 -107h-85z" />
    <glyph glyph-name="uni0136" unicode="&#x136;" horiz-adv-x="645" 
d="M507 0l-257 322l-81 -87v-235h-95v700h95v-345l320 345h118l-292 -310l310 -390h-118zM204 -229l20 15q57 42 57 110v33h94v-33q0 -60 -22 -103.5t-68 -75.5l-24 -17z" />
    <glyph glyph-name="uni0137" unicode="&#x137;" horiz-adv-x="526" 
d="M410 0l-182 224l-65 -64v-160h-93v700h93v-430l231 229h111l-216 -214l229 -285h-108zM156 -229l20 15q57 42 57 110v33h94v-33q0 -60 -22 -103.5t-68 -75.5l-24 -17z" />
    <glyph glyph-name="kgreenlandic" unicode="&#x138;" horiz-adv-x="541" 
d="M423 0l-187 218l-73 -72v-146h-93v499h93v-243l244 243h111l-221 -220l237 -279h-111z" />
    <glyph glyph-name="Lacute" unicode="&#x139;" horiz-adv-x="569" 
d="M94.5 20q-20.5 20 -20.5 54v626h95v-616h380v-84h-399q-35 0 -55.5 20zM167 938h105l-106 -161h-87z" />
    <glyph glyph-name="lacute" unicode="&#x13a;" horiz-adv-x="277" 
d="M105 33.5q-35 33.5 -35 108.5v558h93v-555q0 -34 14 -49t46 -15h40v-81h-44q-79 0 -114 33.5zM162 938h105l-106 -161h-87z" />
    <glyph glyph-name="uni013B" unicode="&#x13b;" horiz-adv-x="569" 
d="M94.5 20q-20.5 20 -20.5 54v626h95v-616h380v-84h-399q-35 0 -55.5 20zM192 -229l20 15q57 42 57 110v33h94v-33q0 -60 -22 -103.5t-68 -75.5l-24 -17z" />
    <glyph glyph-name="uni013C" unicode="&#x13c;" horiz-adv-x="277" 
d="M105 33.5q-35 33.5 -35 108.5v558h93v-555q0 -34 14 -49t46 -15h40v-81h-44q-79 0 -114 33.5zM42 -229l20 15q57 42 57 110v33h94v-33q0 -60 -22 -103.5t-68 -75.5l-24 -17z" />
    <glyph glyph-name="Lcaron" unicode="&#x13d;" horiz-adv-x="575" 
d="M94.5 20q-20.5 20 -20.5 54v626h95v-616h380v-84h-399q-35 0 -55.5 20zM384 538l20 16q29 22 43 48.5t14 60.5v37h94v-37q0 -60 -22 -103.5t-68 -74.5l-24 -17z" />
    <glyph glyph-name="lcaron" unicode="&#x13e;" horiz-adv-x="426" 
d="M105 33.5q-35 33.5 -35 108.5v558h93v-555q0 -34 14 -49t46 -15h40v-81h-44q-79 0 -114 33.5zM245 538l20 16q29 22 43 48.5t14 60.5v37h94v-37q0 -60 -22 -103.5t-68 -74.5l-24 -17z" />
    <glyph glyph-name="Ldot" unicode="&#x13f;" horiz-adv-x="569" 
d="M94.5 20q-20.5 20 -20.5 54v626h95v-616h380v-84h-399q-35 0 -55.5 20zM359.5 243.5q-17.5 17.5 -17.5 45.5t17.5 46t45.5 18q29 0 46.5 -17.5t17.5 -46.5q0 -28 -18 -45.5t-46 -17.5t-45.5 17.5z" />
    <glyph glyph-name="ldot" unicode="&#x140;" horiz-adv-x="398" 
d="M105 33.5q-35 33.5 -35 108.5v558h93v-555q0 -34 14 -49t46 -15h40v-81h-44q-79 0 -114 33.5zM283.5 220.5q-17.5 17.5 -17.5 45.5t17.5 46t45.5 18q29 0 46.5 -17.5t17.5 -46.5q0 -28 -18 -45.5t-46 -17.5t-45.5 17.5z" />
    <glyph glyph-name="Lslash" unicode="&#x141;" horiz-adv-x="596" 
d="M576 84v-84h-400q-35 0 -55 19.5t-20 54.5v174l-81 -47v91l81 47v361h95v-305l132 77v-91l-132 -77v-220h380z" />
    <glyph glyph-name="lslash" unicode="&#x142;" horiz-adv-x="311" 
d="M297 81v-81h-44q-79 0 -114 33.5t-35 108.5v121l-88 -51v90l88 51v347h93v-292l90 52v-90l-90 -52v-173q0 -34 14 -49t46 -15h40z" />
    <glyph glyph-name="Nacute" unicode="&#x143;" horiz-adv-x="699" 
d="M74 700h88l370 -547v547h93v-700h-87l-371 545v-545h-93v700zM395 938h105l-106 -161h-87z" />
    <glyph glyph-name="nacute" unicode="&#x144;" horiz-adv-x="581" 
d="M70 499h89v-69q22 34 58.5 55.5t72.5 21.5h66q72 0 116.5 -48t44.5 -126v-333h-93v333q0 41 -21 66.5t-55 25.5h-62q-43 0 -78 -33t-45 -86v-306h-93v499zM343 737h105l-106 -161h-87z" />
    <glyph glyph-name="uni0145" unicode="&#x145;" horiz-adv-x="699" 
d="M74 700h88l370 -547v547h93v-700h-87l-371 545v-545h-93v700zM227 -229l20 15q57 42 57 110v33h94v-33q0 -60 -22 -103.5t-68 -75.5l-24 -17z" />
    <glyph glyph-name="uni0146" unicode="&#x146;" horiz-adv-x="581" 
d="M70 499h89v-69q22 34 58.5 55.5t72.5 21.5h66q72 0 116.5 -48t44.5 -126v-333h-93v333q0 41 -21 66.5t-55 25.5h-62q-43 0 -78 -33t-45 -86v-306h-93v499zM168 -229l20 15q57 42 57 110v33h94v-33q0 -60 -22 -103.5t-68 -75.5l-24 -17z" />
    <glyph glyph-name="Ncaron" unicode="&#x147;" horiz-adv-x="699" 
d="M74 700h88l370 -547v547h93v-700h-87l-371 545v-545h-93v700zM184 947h85l81 -107l81 107h85l-133 -170h-67z" />
    <glyph glyph-name="ncaron" unicode="&#x148;" horiz-adv-x="581" 
d="M70 499h89v-69q22 34 58.5 55.5t72.5 21.5h66q72 0 116.5 -48t44.5 -126v-333h-93v333q0 41 -21 66.5t-55 25.5h-62q-43 0 -78 -33t-45 -86v-306h-93v499zM132 746h85l81 -107l81 107h85l-133 -170h-67z" />
    <glyph glyph-name="napostrophe" unicode="&#x149;" horiz-adv-x="723" 
d="M211 499h89v-69q22 34 58.5 55.5t72.5 21.5h66q72 0 116.5 -48t44.5 -126v-333h-93v333q0 41 -21 66.5t-55 25.5h-62q-43 0 -78 -33t-45 -86v-306h-93v499zM10 538l20 16q29 22 43 48.5t14 60.5v37h94v-37q0 -60 -22 -103.5t-68 -74.5l-24 -17z" />
    <glyph glyph-name="Eng" unicode="&#x14a;" horiz-adv-x="700" 
d="M401 -121h46q46 0 66 25.5t20 84.5v13l-365 541v-543h-94v700h87l371 -555v555h94v-707q0 -104 -41.5 -149.5t-137.5 -45.5h-46v81z" />
    <glyph glyph-name="eng" unicode="&#x14b;" horiz-adv-x="581" 
d="M292 -118h46q46 0 66 26t20 86v339q0 41 -21 66.5t-55 25.5h-62q-43 0 -78 -33t-45 -86v-306h-93v499h89v-69q22 34 58.5 55.5t72.5 21.5h66q72 0 116.5 -48t44.5 -126v-337q0 -103 -42.5 -149t-136.5 -46h-46v81z" />
    <glyph glyph-name="Omacron" unicode="&#x14c;" horiz-adv-x="705" 
d="M170.5 24q-55.5 32 -86 90t-30.5 135v202q0 77 30.5 135t86.5 90t129 32h106q73 0 128.5 -32t86 -90t30.5 -135v-202q0 -77 -30.5 -135t-86.5 -90t-128 -32h-107q-73 0 -128.5 32zM404 77q68 0 110 47.5t42 126.5v198q0 79 -42 126.5t-110 47.5h-103q-68 0 -110 -47.5
t-42 -126.5v-198q0 -79 41.5 -126.5t109.5 -47.5h104zM215 859h277v-70h-277v70z" />
    <glyph glyph-name="omacron" unicode="&#x14d;" horiz-adv-x="578" 
d="M103.5 45q-53.5 53 -53.5 139v130q0 87 54 140t143 53h84q89 0 143 -53t54 -140v-130q0 -86 -54.5 -139t-143.5 -53h-85q-88 0 -141.5 53zM329 74q48 0 77 31t29 83v123q0 52 -28.5 83t-75.5 31h-84q-47 0 -75.5 -31t-28.5 -83v-123q0 -52 28 -83t75 -31h83zM151 658h277
v-70h-277v70z" />
    <glyph glyph-name="Obreve" unicode="&#x14e;" horiz-adv-x="705" 
d="M170.5 24q-55.5 32 -86 90t-30.5 135v202q0 77 30.5 135t86.5 90t129 32h106q73 0 128.5 -32t86 -90t30.5 -135v-202q0 -77 -30.5 -135t-86.5 -90t-128 -32h-107q-73 0 -128.5 32zM404 77q68 0 110 47.5t42 126.5v198q0 79 -42 126.5t-110 47.5h-103q-68 0 -110 -47.5
t-42 -126.5v-198q0 -79 41.5 -126.5t109.5 -47.5h104zM238 807q-41 38 -41 100v12h74v-12q0 -34 21 -54.5t55 -20.5h12q34 0 55 20.5t21 54.5v12h74v-12q0 -62 -41 -100t-109 -38h-12q-68 0 -109 38z" />
    <glyph glyph-name="obreve" unicode="&#x14f;" horiz-adv-x="578" 
d="M103.5 45q-53.5 53 -53.5 139v130q0 87 54 140t143 53h84q89 0 143 -53t54 -140v-130q0 -86 -54.5 -139t-143.5 -53h-85q-88 0 -141.5 53zM329 74q48 0 77 31t29 83v123q0 52 -28.5 83t-75.5 31h-84q-47 0 -75.5 -31t-28.5 -83v-123q0 -52 28 -83t75 -31h83zM174 606
q-41 38 -41 100v12h74v-12q0 -34 21 -54.5t55 -20.5h12q34 0 55 20.5t21 54.5v12h74v-12q0 -62 -41 -100t-109 -38h-12q-68 0 -109 38z" />
    <glyph glyph-name="Ohungarumlaut" unicode="&#x150;" horiz-adv-x="705" 
d="M170.5 24q-55.5 32 -86 90t-30.5 135v202q0 77 30.5 135t86.5 90t129 32h106q73 0 128.5 -32t86 -90t30.5 -135v-202q0 -77 -30.5 -135t-86.5 -90t-128 -32h-107q-73 0 -128.5 32zM404 77q68 0 110 47.5t42 126.5v198q0 79 -42 126.5t-110 47.5h-103q-68 0 -110 -47.5
t-42 -126.5v-198q0 -79 41.5 -126.5t109.5 -47.5h104zM312 938h100l-102 -161h-83zM463 938h100l-103 -161h-82z" />
    <glyph glyph-name="ohungarumlaut" unicode="&#x151;" horiz-adv-x="578" 
d="M103.5 45q-53.5 53 -53.5 139v130q0 87 54 140t143 53h84q89 0 143 -53t54 -140v-130q0 -86 -54.5 -139t-143.5 -53h-85q-88 0 -141.5 53zM329 74q48 0 77 31t29 83v123q0 52 -28.5 83t-75.5 31h-84q-47 0 -75.5 -31t-28.5 -83v-123q0 -52 28 -83t75 -31h83zM248 737h100
l-102 -161h-83zM399 737h100l-103 -161h-82z" />
    <glyph glyph-name="OE" unicode="&#x152;" horiz-adv-x="1083" 
d="M170.5 24q-55.5 32 -86 90.5t-30.5 135.5v199q0 77 31 135.5t87 91t129 32.5h107q49 0 92 -19.5t71 -53.5v65h468v-83h-384v-218h348v-82h-348v-234h384v-83h-392q-30 0 -50 16t-24 42l-1 19q-27 -39 -73.5 -62t-96.5 -23h-103q-73 0 -128.5 32zM402 77q71 0 114.5 49
t43.5 129v192q0 79 -42 127.5t-111 48.5h-105q-68 0 -110.5 -48.5t-42.5 -127.5v-195q0 -79 41.5 -127t109.5 -48h102z" />
    <glyph glyph-name="oe" unicode="&#x153;" horiz-adv-x="940" 
d="M525 223v-45q0 -47 28 -76t75 -29h74q46 0 73 23.5t27 62.5h91q0 -75 -52.5 -121t-138.5 -46h-74q-100 0 -152 70q-52 -70 -149 -70h-82q-88 0 -141.5 53t-53.5 139v131q0 86 53.5 139t141.5 53h85q97 0 148 -71q51 71 150 71h79q85 0 136.5 -52.5t51.5 -138.5v-93h-370z
M525 297h277v19q0 50 -26 80t-69 30h-79q-46 0 -74.5 -31.5t-28.5 -82.5v-15zM432 311q0 51 -28.5 82.5t-74.5 31.5h-83q-46 0 -74.5 -31.5t-28.5 -82.5v-123q0 -51 28.5 -82.5t74.5 -31.5h80q47 0 76.5 31t29.5 83v123z" />
    <glyph glyph-name="Racute" unicode="&#x154;" horiz-adv-x="659" 
d="M74 700h351q81 0 130.5 -45.5t49.5 -119.5v-72q0 -52 -32.5 -92t-88.5 -58v-1q59 -35 88 -128l55 -184h-98l-54 180q-14 47 -44.5 74t-69.5 27h-192v-281h-95v700zM399 365q50 0 80.5 27t30.5 71v73q0 36 -24 58t-63 22h-254v-251h230zM371 938h105l-106 -161h-87z" />
    <glyph glyph-name="racute" unicode="&#x155;" horiz-adv-x="364" 
d="M70 499h89v-73q20 33 58.5 54t80.5 21h52v-83h-52q-61 0 -98 -37.5t-37 -98.5v-282h-93v499zM250 737h105l-106 -161h-87z" />
    <glyph glyph-name="uni0156" unicode="&#x156;" horiz-adv-x="659" 
d="M74 700h351q81 0 130.5 -45.5t49.5 -119.5v-72q0 -52 -32.5 -92t-88.5 -58v-1q59 -35 88 -128l55 -184h-98l-54 180q-14 47 -44.5 74t-69.5 27h-192v-281h-95v700zM399 365q50 0 80.5 27t30.5 71v73q0 36 -24 58t-63 22h-254v-251h230zM218 -229l20 15q57 42 57 110v33
h94v-33q0 -60 -22 -103.5t-68 -75.5l-24 -17z" />
    <glyph glyph-name="uni0157" unicode="&#x157;" horiz-adv-x="364" 
d="M70 499h89v-73q20 33 58.5 54t80.5 21h52v-83h-52q-61 0 -98 -37.5t-37 -98.5v-282h-93v499zM-7 -229l20 15q57 42 57 110v33h94v-33q0 -60 -22 -103.5t-68 -75.5l-24 -17z" />
    <glyph glyph-name="Rcaron" unicode="&#x158;" horiz-adv-x="659" 
d="M74 700h351q81 0 130.5 -45.5t49.5 -119.5v-72q0 -52 -32.5 -92t-88.5 -58v-1q59 -35 88 -128l55 -184h-98l-54 180q-14 47 -44.5 74t-69.5 27h-192v-281h-95v700zM399 365q50 0 80.5 27t30.5 71v73q0 36 -24 58t-63 22h-254v-251h230zM160 947h85l81 -107l81 107h85
l-133 -170h-67z" />
    <glyph glyph-name="rcaron" unicode="&#x159;" horiz-adv-x="364" 
d="M70 499h89v-73q20 33 58.5 54t80.5 21h52v-83h-52q-61 0 -98 -37.5t-37 -98.5v-282h-93v499zM39 746h85l81 -107l81 107h85l-133 -170h-67z" />
    <glyph glyph-name="Sacute" unicode="&#x15a;" horiz-adv-x="637" 
d="M108 50q-58 58 -58 156h93q0 -59 33.5 -94t88.5 -35h111q55 0 88 23.5t33 62.5v54q0 31 -23.5 52t-66.5 28l-182 30q-80 13 -123.5 55t-43.5 105v55q0 75 57.5 120.5t151.5 45.5h113q59 0 104.5 -24.5t70.5 -69t25 -102.5h-94q0 50 -29 80.5t-77 30.5h-113
q-51 0 -82.5 -22.5t-31.5 -61.5v-45q0 -32 22.5 -53t64.5 -29l180 -31q83 -14 127.5 -54.5t44.5 -101.5v-65q0 -76 -58.5 -122t-155.5 -46h-115q-97 0 -155 58zM366 938h105l-106 -161h-87z" />
    <glyph glyph-name="sacute" unicode="&#x15b;" horiz-adv-x="530" 
d="M94 36.5q-49 44.5 -49 117.5h91q0 -37 24 -60t64 -23h88q38 0 61 14.5t23 38.5v29q0 16 -13.5 28.5t-34.5 16.5l-173 30q-55 10 -88 41.5t-33 73.5v33q0 59 47 95t126 36h84q75 0 120.5 -41t45.5 -109h-91q-1 32 -21.5 51.5t-53.5 19.5h-83q-37 0 -58.5 -15t-21.5 -40
v-25q0 -16 14 -28t36 -17l175 -31q52 -9 84.5 -40t32.5 -72v-39q0 -58 -49 -93.5t-129 -35.5h-88q-81 0 -130 44.5zM311 737h105l-106 -161h-87z" />
    <glyph glyph-name="Scircumflex" unicode="&#x15c;" horiz-adv-x="637" 
d="M108 50q-58 58 -58 156h93q0 -59 33.5 -94t88.5 -35h111q55 0 88 23.5t33 62.5v54q0 31 -23.5 52t-66.5 28l-182 30q-80 13 -123.5 55t-43.5 105v55q0 75 57.5 120.5t151.5 45.5h113q59 0 104.5 -24.5t70.5 -69t25 -102.5h-94q0 50 -29 80.5t-77 30.5h-113
q-51 0 -82.5 -22.5t-31.5 -61.5v-45q0 -32 22.5 -53t64.5 -29l180 -31q83 -14 127.5 -54.5t44.5 -101.5v-65q0 -76 -58.5 -122t-155.5 -46h-115q-97 0 -155 58zM287 947h67l133 -170h-85l-81 107l-81 -107h-85z" />
    <glyph glyph-name="scircumflex" unicode="&#x15d;" horiz-adv-x="530" 
d="M94 36.5q-49 44.5 -49 117.5h91q0 -37 24 -60t64 -23h88q38 0 61 14.5t23 38.5v29q0 16 -13.5 28.5t-34.5 16.5l-173 30q-55 10 -88 41.5t-33 73.5v33q0 59 47 95t126 36h84q75 0 120.5 -41t45.5 -109h-91q-1 32 -21.5 51.5t-53.5 19.5h-83q-37 0 -58.5 -15t-21.5 -40
v-25q0 -16 14 -28t36 -17l175 -31q52 -9 84.5 -40t32.5 -72v-39q0 -58 -49 -93.5t-129 -35.5h-88q-81 0 -130 44.5zM232 746h67l133 -170h-85l-81 107l-81 -107h-85z" />
    <glyph glyph-name="Scedilla" unicode="&#x15e;" horiz-adv-x="637" 
d="M547.5 326.5q44.5 -40.5 44.5 -101.5v-65q0 -76 -58.5 -122t-155.5 -46h-18l-20 -43h8q40 0 63.5 -21.5t23.5 -57.5v-14q0 -40 -31 -64t-83 -24h-69v59h64q21 0 34 8.5t13 22.5v12q0 13 -11 21t-30 8h-53v47l19 46h-25q-97 0 -155 58t-58 156h93q0 -59 33.5 -94t88.5 -35
h111q55 0 88 23.5t33 62.5v54q0 31 -23.5 52t-66.5 28l-182 30q-80 13 -123.5 55t-43.5 105v55q0 75 57.5 120.5t151.5 45.5h113q59 0 104.5 -24.5t70.5 -69t25 -102.5h-94q0 50 -29 80.5t-77 30.5h-113q-51 0 -82.5 -22.5t-31.5 -61.5v-45q0 -32 22.5 -53t64.5 -29l180 -31
q83 -14 127.5 -54.5z" />
    <glyph glyph-name="scedilla" unicode="&#x15f;" horiz-adv-x="530" 
d="M457.5 232q32.5 -31 32.5 -72v-39q0 -58 -49 -93.5t-129 -35.5h-7l-20 -43h8q40 0 63.5 -21.5t23.5 -57.5v-14q0 -40 -31 -64t-83 -24h-69v59h64q21 0 34 8.5t13 22.5v12q0 13 -11 21t-30 8h-53v47l19 46h-9q-81 0 -130 44.5t-49 117.5h91q0 -37 24 -60t64 -23h88
q38 0 61 14.5t23 38.5v29q0 16 -13.5 28.5t-34.5 16.5l-173 30q-55 10 -88 41.5t-33 73.5v33q0 59 47 95t126 36h84q75 0 120.5 -41t45.5 -109h-91q-1 32 -21.5 51.5t-53.5 19.5h-83q-37 0 -58.5 -15t-21.5 -40v-25q0 -16 14 -28t36 -17l175 -31q52 -9 84.5 -40z" />
    <glyph glyph-name="Scaron" unicode="&#x160;" horiz-adv-x="637" 
d="M108 50q-58 58 -58 156h93q0 -59 33.5 -94t88.5 -35h111q55 0 88 23.5t33 62.5v54q0 31 -23.5 52t-66.5 28l-182 30q-80 13 -123.5 55t-43.5 105v55q0 75 57.5 120.5t151.5 45.5h113q59 0 104.5 -24.5t70.5 -69t25 -102.5h-94q0 50 -29 80.5t-77 30.5h-113
q-51 0 -82.5 -22.5t-31.5 -61.5v-45q0 -32 22.5 -53t64.5 -29l180 -31q83 -14 127.5 -54.5t44.5 -101.5v-65q0 -76 -58.5 -122t-155.5 -46h-115q-97 0 -155 58zM155 947h85l81 -107l81 107h85l-133 -170h-67z" />
    <glyph glyph-name="scaron" unicode="&#x161;" horiz-adv-x="530" 
d="M94 36.5q-49 44.5 -49 117.5h91q0 -37 24 -60t64 -23h88q38 0 61 14.5t23 38.5v29q0 16 -13.5 28.5t-34.5 16.5l-173 30q-55 10 -88 41.5t-33 73.5v33q0 59 47 95t126 36h84q75 0 120.5 -41t45.5 -109h-91q-1 32 -21.5 51.5t-53.5 19.5h-83q-37 0 -58.5 -15t-21.5 -40
v-25q0 -16 14 -28t36 -17l175 -31q52 -9 84.5 -40t32.5 -72v-39q0 -58 -49 -93.5t-129 -35.5h-88q-81 0 -130 44.5zM100 746h85l81 -107l81 107h85l-133 -170h-67z" />
    <glyph glyph-name="uni0162" unicode="&#x162;" horiz-adv-x="587" 
d="M324 0l-24 -51h8q40 0 63.5 -21.5t23.5 -57.5v-14q0 -40 -31 -64t-83 -24h-69v59h64q21 0 34 8.5t13 22.5v12q0 13 -11 21t-30 8h-53v47l23 54h-6v617h-222v83h539v-83h-222v-617h-17z" />
    <glyph glyph-name="uni0163" unicode="&#x163;" horiz-adv-x="391" 
d="M211 418v-264q0 -39 15.5 -56t50.5 -17h64v-81h-68h-4l-24 -51h8q40 0 63.5 -21.5t23.5 -57.5v-14q0 -40 -31 -64t-83 -24h-69v59h64q21 0 34 8.5t13 22.5v12q0 13 -11 21t-30 8h-53v47l27 63q-43 14 -63 48.5t-20 94.5v266h-88v81h89v151h92v-151h130v-81h-130z" />
    <glyph glyph-name="Tcaron" unicode="&#x164;" horiz-adv-x="587" 
d="M246 617h-222v83h539v-83h-222v-617h-95v617zM126 947h85l81 -107l81 107h85l-133 -170h-67z" />
    <glyph glyph-name="tcaron" unicode="&#x165;" horiz-adv-x="563" 
d="M154.5 36q-36.5 36 -36.5 116v266h-88v81h89v151h92v-151h130v-81h-130v-264q0 -39 15.5 -56t50.5 -17h64v-81h-68q-82 0 -118.5 36zM382 538l20 16q29 22 43 48.5t14 60.5v37h94v-37q0 -60 -22 -103.5t-68 -74.5l-24 -17z" />
    <glyph glyph-name="Tbar" unicode="&#x166;" horiz-adv-x="587" 
d="M341 617v-255h153v-76h-153v-286h-95v286h-158v76h158v255h-222v83h539v-83h-222z" />
    <glyph glyph-name="tbar" unicode="&#x167;" horiz-adv-x="380" 
d="M214 418v-118h127v-72h-127v-74q0 -39 15 -56t50 -17h65v-81h-68q-82 0 -118.5 36t-36.5 116v76h-91v72h91v118h-88v81h89v151h92v-151h130v-81h-130z" />
    <glyph glyph-name="Utilde" unicode="&#x168;" horiz-adv-x="701" 
d="M177.5 21.5q-51.5 29.5 -79.5 83.5t-28 124v471h95v-471q0 -68 36.5 -110t95.5 -42h107q59 0 95.5 42t36.5 110v471h95v-471q0 -70 -28 -124t-79.5 -83.5t-119.5 -29.5h-107q-68 0 -119.5 29.5zM373 779q-16 10 -36 29q-15 14 -23.5 20t-18.5 6h-9q-15 0 -24.5 -14
t-10.5 -38h-70q1 53 29 85t74 32h8q25 0 43 -11t38 -31q2 -2 10.5 -9t14.5 -10.5t12 -3.5h8q14 0 23 14.5t10 37.5h71q-2 -53 -29.5 -85t-71.5 -32h-9q-23 0 -39 10z" />
    <glyph glyph-name="utilde" unicode="&#x169;" horiz-adv-x="579" 
d="M108.5 41q-44.5 49 -44.5 129v329h93v-331q0 -42 21 -68t55 -26h60q42 0 77 34t46 86v305h93v-499h-88v72q-24 -35 -60 -57.5t-71 -22.5h-64q-73 0 -117.5 49zM312 578q-16 10 -36 29q-15 14 -23.5 20t-18.5 6h-9q-15 0 -24.5 -14t-10.5 -38h-70q1 53 29 85t74 32h8
q25 0 43 -11t38 -31q2 -2 10.5 -9t14.5 -10.5t12 -3.5h8q14 0 23 14.5t10 37.5h71q-2 -53 -29.5 -85t-71.5 -32h-9q-23 0 -39 10z" />
    <glyph glyph-name="Umacron" unicode="&#x16a;" horiz-adv-x="701" 
d="M177.5 21.5q-51.5 29.5 -79.5 83.5t-28 124v471h95v-471q0 -68 36.5 -110t95.5 -42h107q59 0 95.5 42t36.5 110v471h95v-471q0 -70 -28 -124t-79.5 -83.5t-119.5 -29.5h-107q-68 0 -119.5 29.5zM213 859h277v-70h-277v70z" />
    <glyph glyph-name="umacron" unicode="&#x16b;" horiz-adv-x="579" 
d="M108.5 41q-44.5 49 -44.5 129v329h93v-331q0 -42 21 -68t55 -26h60q42 0 77 34t46 86v305h93v-499h-88v72q-24 -35 -60 -57.5t-71 -22.5h-64q-73 0 -117.5 49zM152 658h277v-70h-277v70z" />
    <glyph glyph-name="Ubreve" unicode="&#x16c;" horiz-adv-x="701" 
d="M177.5 21.5q-51.5 29.5 -79.5 83.5t-28 124v471h95v-471q0 -68 36.5 -110t95.5 -42h107q59 0 95.5 42t36.5 110v471h95v-471q0 -70 -28 -124t-79.5 -83.5t-119.5 -29.5h-107q-68 0 -119.5 29.5zM236 807q-41 38 -41 100v12h74v-12q0 -34 21 -54.5t55 -20.5h12
q34 0 55 20.5t21 54.5v12h74v-12q0 -62 -41 -100t-109 -38h-12q-68 0 -109 38z" />
    <glyph glyph-name="ubreve" unicode="&#x16d;" horiz-adv-x="579" 
d="M108.5 41q-44.5 49 -44.5 129v329h93v-331q0 -42 21 -68t55 -26h60q42 0 77 34t46 86v305h93v-499h-88v72q-24 -35 -60 -57.5t-71 -22.5h-64q-73 0 -117.5 49zM175 606q-41 38 -41 100v12h74v-12q0 -34 21 -54.5t55 -20.5h12q34 0 55 20.5t21 54.5v12h74v-12
q0 -62 -41 -100t-109 -38h-12q-68 0 -109 38z" />
    <glyph glyph-name="Uring" unicode="&#x16e;" horiz-adv-x="701" 
d="M177.5 21.5q-51.5 29.5 -79.5 83.5t-28 124v471h95v-471q0 -68 36.5 -110t95.5 -42h107q59 0 95.5 42t36.5 110v471h95v-471q0 -70 -28 -124t-79.5 -83.5t-119.5 -29.5h-107q-68 0 -119.5 29.5zM270 775q-31 30 -31 78q0 49 31 79t81 30t81 -30t31 -79q0 -48 -31 -78
t-81 -30t-81 30zM388.5 816q14.5 14 14.5 37q0 24 -14.5 38t-37.5 14t-37.5 -14t-14.5 -38q0 -23 14.5 -37t37.5 -14t37.5 14z" />
    <glyph glyph-name="uring" unicode="&#x16f;" horiz-adv-x="579" 
d="M108.5 41q-44.5 49 -44.5 129v329h93v-331q0 -42 21 -68t55 -26h60q42 0 77 34t46 86v305h93v-499h-88v72q-24 -35 -60 -57.5t-71 -22.5h-64q-73 0 -117.5 49zM209 574q-31 30 -31 78q0 49 31 79t81 30t81 -30t31 -79q0 -48 -31 -78t-81 -30t-81 30zM327.5 615
q14.5 14 14.5 37q0 24 -14.5 38t-37.5 14t-37.5 -14t-14.5 -38q0 -23 14.5 -37t37.5 -14t37.5 14z" />
    <glyph glyph-name="Uhungarumlaut" unicode="&#x170;" horiz-adv-x="701" 
d="M177.5 21.5q-51.5 29.5 -79.5 83.5t-28 124v471h95v-471q0 -68 36.5 -110t95.5 -42h107q59 0 95.5 42t36.5 110v471h95v-471q0 -70 -28 -124t-79.5 -83.5t-119.5 -29.5h-107q-68 0 -119.5 29.5zM310 938h100l-102 -161h-83zM461 938h100l-103 -161h-82z" />
    <glyph glyph-name="uhungarumlaut" unicode="&#x171;" horiz-adv-x="579" 
d="M108.5 41q-44.5 49 -44.5 129v329h93v-331q0 -42 21 -68t55 -26h60q42 0 77 34t46 86v305h93v-499h-88v72q-24 -35 -60 -57.5t-71 -22.5h-64q-73 0 -117.5 49zM249 737h100l-102 -161h-83zM400 737h100l-103 -161h-82z" />
    <glyph glyph-name="Uogonek" unicode="&#x172;" horiz-adv-x="701" 
d="M631 700v-471q0 -90 -45 -151.5t-123 -79.5q-30 -17 -47.5 -42.5t-17.5 -53.5v-11q0 -19 12.5 -30.5t34.5 -11.5h11q15 0 31 5.5t28 14.5v-65q-12 -9 -31.5 -14.5t-38.5 -5.5h-12q-52 0 -82.5 27t-30.5 71v11q0 28 14 55t38 44h-75q-68 0 -119.5 29.5t-79.5 83.5t-28 124
v471h95v-471q0 -68 36.5 -110t95.5 -42h107q59 0 95.5 42t36.5 110v471h95z" />
    <glyph glyph-name="uogonek" unicode="&#x173;" horiz-adv-x="579" 
d="M531 -145.5q16 5.5 28 14.5v-65q-12 -9 -31.5 -14.5t-38.5 -5.5h-12q-52 0 -83 27t-31 71v11q0 31 17.5 60.5t46.5 46.5h-6v72q-24 -35 -60 -57.5t-71 -22.5h-64q-73 0 -117.5 49t-44.5 129v329h93v-331q0 -42 21 -68t55 -26h60q42 0 77 34t46 86v305h93v-499
q-31 -17 -49.5 -43t-18.5 -55v-11q0 -18 13 -30t34 -12h12q15 0 31 5.5z" />
    <glyph glyph-name="Wcircumflex" unicode="&#x174;" horiz-adv-x="855" 
d="M173.5 16q-18.5 16 -24.5 53l-121 631h95l102 -568h1l166 531h37q20 0 33.5 -11.5t21.5 -37.5l145 -482h1l102 568h95l-121 -631q-7 -35 -24.5 -52t-48.5 -17h-40l-163 536h-1l-167 -536h-40q-30 0 -48.5 16zM394 947h67l133 -170h-85l-81 107l-81 -107h-85z" />
    <glyph glyph-name="wcircumflex" unicode="&#x175;" horiz-adv-x="732" 
d="M706 499l-105 -434q-8 -34 -25 -49.5t-44 -15.5h-43l-121 357l-124 -357h-43q-27 0 -44 15.5t-25 49.5l-106 434h98l82 -384l127 371h35q18 0 29 -8.5t17 -26.5l112 -337l82 385h98zM333 746h67l133 -170h-85l-81 107l-81 -107h-85z" />
    <glyph glyph-name="Ycircumflex" unicode="&#x176;" horiz-adv-x="632" 
d="M268 270l-258 430h103l203 -343l203 343h103l-258 -430v-270h-96v270zM282 947h67l133 -170h-85l-81 107l-81 -107h-85z" />
    <glyph glyph-name="ycircumflex" unicode="&#x177;" horiz-adv-x="581" 
d="M124.5 -164q-46.5 39 -51.5 102h93q3 -27 24 -44t52 -17h79q45 0 70.5 31.5t25.5 86.5v83q-23 -35 -57 -56t-68 -21h-65q-73 0 -118 49t-45 129v320h93v-322q0 -42 21.5 -68t55.5 -26h61q42 0 76.5 34t45.5 86v296h94v-504q0 -92 -51 -145t-139 -53h-79q-71 0 -117.5 39z
M256 746h67l133 -170h-85l-81 107l-81 -107h-85z" />
    <glyph glyph-name="Ydieresis" unicode="&#x178;" horiz-adv-x="632" 
d="M268 270l-258 430h103l203 -343l203 343h103l-258 -430v-270h-96v270zM167 793.5q-16 15.5 -16 40.5t16 40.5t41 15.5t40.5 -15.5t15.5 -40.5t-15.5 -40.5t-40.5 -15.5t-41 15.5zM382.5 793.5q-15.5 15.5 -15.5 40.5t15.5 40.5t40.5 15.5t41 -15.5t16 -40.5t-16 -40.5
t-41 -15.5t-40.5 15.5z" />
    <glyph glyph-name="Zacute" unicode="&#x179;" horiz-adv-x="587" 
d="M34 45l388 574h-370v81h501v-45l-388 -574h378v-81h-509v45zM339 938h105l-106 -161h-87z" />
    <glyph glyph-name="zacute" unicode="&#x17a;" horiz-adv-x="481" 
d="M30 44l287 376h-275v79h409v-44l-287 -376h282v-79h-416v44zM288 737h105l-106 -161h-87z" />
    <glyph glyph-name="Zdotaccent" unicode="&#x17b;" horiz-adv-x="587" 
d="M34 45l388 574h-370v81h501v-45l-388 -574h378v-81h-509v45zM247.5 792q-17.5 18 -17.5 46t17.5 45.5t46.5 17.5t46.5 -17.5t17.5 -45.5t-17.5 -46t-46.5 -18t-46.5 18z" />
    <glyph glyph-name="zdotaccent" unicode="&#x17c;" horiz-adv-x="481" 
d="M30 44l287 376h-275v79h409v-44l-287 -376h282v-79h-416v44zM196.5 591q-17.5 18 -17.5 46t17.5 45.5t46.5 17.5t46.5 -17.5t17.5 -45.5t-17.5 -46t-46.5 -18t-46.5 18z" />
    <glyph glyph-name="Zcaron" unicode="&#x17d;" horiz-adv-x="587" 
d="M34 45l388 574h-370v81h501v-45l-388 -574h378v-81h-509v45zM128 947h85l81 -107l81 107h85l-133 -170h-67z" />
    <glyph glyph-name="zcaron" unicode="&#x17e;" horiz-adv-x="481" 
d="M30 44l287 376h-275v79h409v-44l-287 -376h282v-79h-416v44zM77 746h85l81 -107l81 107h85l-133 -170h-67z" />
    <glyph glyph-name="uni018F" unicode="&#x18f;" horiz-adv-x="717" 
d="M541.5 677q57.5 -31 89.5 -87.5t32 -130.5v-204q0 -78 -32 -137.5t-89.5 -92.5t-132.5 -33h-114q-72 0 -126.5 32t-84.5 90t-30 134v121h514v90q0 74 -44 119.5t-115 45.5h-106q-68 0 -109.5 -41t-41.5 -108h-95q0 69 30.5 122t86.5 82t129 29h106q75 0 132.5 -31z
M524 125.5q44 49.5 44 129.5v32h-419v-39q0 -77 40 -124.5t106 -47.5h114q71 0 115 49.5z" />
    <glyph glyph-name="florin" unicode="&#x192;" horiz-adv-x="606" 
d="M50 -86h45q40 0 62.5 22.5t35.5 75.5l101 407h-85l-1 81h105l9 31q25 93 68.5 133t119.5 40h46v-80h-46q-37 0 -59 -22t-36 -72l-8 -30h106v-81h-125l-102 -412q-23 -93 -66 -133t-120 -40h-50v80z" />
    <glyph glyph-name="Ohorn" unicode="&#x1a0;" horiz-adv-x="788" 
d="M806 701v-24q0 -85 -42 -133t-116 -49q3 -21 3 -44v-202q0 -77 -30.5 -135t-86.5 -90t-128 -32h-107q-73 0 -128.5 32t-86 90t-30.5 135v202q0 77 30.5 135t86.5 90t129 32h106q77 0 135 -36t86 -100h17q35 0 54.5 27t19.5 78v24h88zM556 449q0 79 -42 126.5t-110 47.5
h-103q-68 0 -110 -47.5t-42 -126.5v-198q0 -79 41.5 -126.5t109.5 -47.5h104q68 0 110 47.5t42 126.5v198z" />
    <glyph glyph-name="ohorn" unicode="&#x1a1;" horiz-adv-x="664" 
d="M669 500v-24q0 -80 -37 -127.5t-104 -53.5v-111q0 -86 -54.5 -139t-143.5 -53h-85q-88 0 -141.5 53t-53.5 139v130q0 87 54 140t143 53h84q72 0 122.5 -36t67.5 -99q29 5 44.5 32t15.5 72v24h88zM435 311q0 52 -28.5 83t-75.5 31h-84q-47 0 -75.5 -31t-28.5 -83v-123
q0 -52 28 -83t75 -31h83q48 0 77 31t29 83v123z" />
    <glyph glyph-name="Uhorn" unicode="&#x1af;" horiz-adv-x="792" 
d="M801 700v-24q0 -86 -42 -134t-118 -48h-10v-265q0 -70 -28 -124t-79.5 -83.5t-119.5 -29.5h-107q-68 0 -119.5 29.5t-79.5 83.5t-28 124v471h95v-471q0 -68 36.5 -110t95.5 -42h107q59 0 95.5 42t36.5 110v471h95v-129h8q36 0 55 27t19 78v24h88z" />
    <glyph glyph-name="uhorn" unicode="&#x1b0;" horiz-adv-x="670" 
d="M664 499v-24q0 -85 -41 -133.5t-114 -49.5v-292h-88v72q-24 -35 -60 -57.5t-71 -22.5h-64q-73 0 -117.5 49t-44.5 129v329h93v-331q0 -42 21 -68t55 -26h60q42 0 77 34t46 86v305h93v-129q33 3 50.5 29.5t17.5 75.5v24h87z" />
    <glyph glyph-name="uni01CD" unicode="&#x1cd;" horiz-adv-x="658" 
d="M475 184h-292l-68 -184h-99l271 700h43q43 0 61 -47l251 -653h-98zM211 264h236l-117 316h-1zM164 947h85l81 -107l81 107h85l-133 -170h-67z" />
    <glyph glyph-name="uni01CE" unicode="&#x1ce;" horiz-adv-x="565" 
d="M99 30.5q-45 38.5 -45 102.5v33q0 63 47 101.5t123 38.5h63q30 0 64 -9t58 -25v73q0 37 -23 59.5t-60 22.5h-82q-38 0 -61 -18t-23 -47h-92q0 65 48.5 105t127.5 40h82q79 0 127 -44.5t48 -117.5v-345h-87v67q-23 -34 -60 -54.5t-75 -20.5h-60q-75 0 -120 38.5zM284 69
q44 0 78 25.5t47 68.5v30q-19 17 -52 27t-68 10h-64q-35 0 -57 -18t-22 -48v-30q0 -30 21.5 -47.5t57.5 -17.5h59zM122 746h85l81 -107l81 107h85l-133 -170h-67z" />
    <glyph glyph-name="uni01CF" unicode="&#x1cf;" horiz-adv-x="263" 
d="M84 700h95v-700h-95v700zM-34 947h85l81 -107l81 107h85l-133 -170h-67z" />
    <glyph glyph-name="uni01D0" unicode="&#x1d0;" horiz-adv-x="245" 
d="M76 499h93v-499h-93v499zM-43 746h85l81 -107l81 107h85l-133 -170h-67z" />
    <glyph glyph-name="uni01D1" unicode="&#x1d1;" horiz-adv-x="705" 
d="M170.5 24q-55.5 32 -86 90t-30.5 135v202q0 77 30.5 135t86.5 90t129 32h106q73 0 128.5 -32t86 -90t30.5 -135v-202q0 -77 -30.5 -135t-86.5 -90t-128 -32h-107q-73 0 -128.5 32zM404 77q68 0 110 47.5t42 126.5v198q0 79 -42 126.5t-110 47.5h-103q-68 0 -110 -47.5
t-42 -126.5v-198q0 -79 41.5 -126.5t109.5 -47.5h104zM187 947h85l81 -107l81 107h85l-133 -170h-67z" />
    <glyph glyph-name="uni01D2" unicode="&#x1d2;" horiz-adv-x="578" 
d="M103.5 45q-53.5 53 -53.5 139v130q0 87 54 140t143 53h84q89 0 143 -53t54 -140v-130q0 -86 -54.5 -139t-143.5 -53h-85q-88 0 -141.5 53zM329 74q48 0 77 31t29 83v123q0 52 -28.5 83t-75.5 31h-84q-47 0 -75.5 -31t-28.5 -83v-123q0 -52 28 -83t75 -31h83zM123 746h85
l81 -107l81 107h85l-133 -170h-67z" />
    <glyph glyph-name="uni01D3" unicode="&#x1d3;" horiz-adv-x="701" 
d="M177.5 21.5q-51.5 29.5 -79.5 83.5t-28 124v471h95v-471q0 -68 36.5 -110t95.5 -42h107q59 0 95.5 42t36.5 110v471h95v-471q0 -70 -28 -124t-79.5 -83.5t-119.5 -29.5h-107q-68 0 -119.5 29.5zM185 947h85l81 -107l81 107h85l-133 -170h-67z" />
    <glyph glyph-name="uni01D4" unicode="&#x1d4;" horiz-adv-x="579" 
d="M108.5 41q-44.5 49 -44.5 129v329h93v-331q0 -42 21 -68t55 -26h60q42 0 77 34t46 86v305h93v-499h-88v72q-24 -35 -60 -57.5t-71 -22.5h-64q-73 0 -117.5 49zM124 746h85l81 -107l81 107h85l-133 -170h-67z" />
    <glyph glyph-name="uni01D5" unicode="&#x1d5;" horiz-adv-x="701" 
d="M177.5 21.5q-51.5 29.5 -79.5 83.5t-28 124v471h95v-471q0 -68 36.5 -110t95.5 -42h107q59 0 95.5 42t36.5 110v471h95v-471q0 -70 -28 -124t-79.5 -83.5t-119.5 -29.5h-107q-68 0 -119.5 29.5zM213 1018h277v-68h-277v68zM202 793.5q-16 15.5 -16 40.5t16 40.5t41 15.5
t40.5 -15.5t15.5 -40.5t-15.5 -40.5t-40.5 -15.5t-41 15.5zM417.5 793.5q-15.5 15.5 -15.5 40.5t15.5 40.5t40.5 15.5t41 -15.5t16 -40.5t-16 -40.5t-41 -15.5t-40.5 15.5z" />
    <glyph glyph-name="uni01D6" unicode="&#x1d6;" horiz-adv-x="579" 
d="M108.5 41q-44.5 49 -44.5 129v329h93v-331q0 -42 21 -68t55 -26h60q42 0 77 34t46 86v305h93v-499h-88v72q-24 -35 -60 -57.5t-71 -22.5h-64q-73 0 -117.5 49zM152 817h277v-68h-277v68zM141 592.5q-16 15.5 -16 40.5t16 40.5t41 15.5t40.5 -15.5t15.5 -40.5t-15.5 -40.5
t-40.5 -15.5t-41 15.5zM356.5 592.5q-15.5 15.5 -15.5 40.5t15.5 40.5t40.5 15.5t41 -15.5t16 -40.5t-16 -40.5t-41 -15.5t-40.5 15.5z" />
    <glyph glyph-name="uni01D7" unicode="&#x1d7;" horiz-adv-x="701" 
d="M177.5 21.5q-51.5 29.5 -79.5 83.5t-28 124v471h95v-471q0 -68 36.5 -110t95.5 -42h107q59 0 95.5 42t36.5 110v471h95v-471q0 -70 -28 -124t-79.5 -83.5t-119.5 -29.5h-107q-68 0 -119.5 29.5zM382 1063h89l-84 -127h-75zM202 793.5q-16 15.5 -16 40.5t16 40.5t41 15.5
t40.5 -15.5t15.5 -40.5t-15.5 -40.5t-40.5 -15.5t-41 15.5zM417.5 793.5q-15.5 15.5 -15.5 40.5t15.5 40.5t40.5 15.5t41 -15.5t16 -40.5t-16 -40.5t-41 -15.5t-40.5 15.5z" />
    <glyph glyph-name="uni01D8" unicode="&#x1d8;" horiz-adv-x="579" 
d="M108.5 41q-44.5 49 -44.5 129v329h93v-331q0 -42 21 -68t55 -26h60q42 0 77 34t46 86v305h93v-499h-88v72q-24 -35 -60 -57.5t-71 -22.5h-64q-73 0 -117.5 49zM321 862h89l-84 -127h-75zM141 592.5q-16 15.5 -16 40.5t16 40.5t41 15.5t40.5 -15.5t15.5 -40.5t-15.5 -40.5
t-40.5 -15.5t-41 15.5zM356.5 592.5q-15.5 15.5 -15.5 40.5t15.5 40.5t40.5 15.5t41 -15.5t16 -40.5t-16 -40.5t-41 -15.5t-40.5 15.5z" />
    <glyph glyph-name="uni01D9" unicode="&#x1d9;" horiz-adv-x="701" 
d="M177.5 21.5q-51.5 29.5 -79.5 83.5t-28 124v471h95v-471q0 -68 36.5 -110t95.5 -42h107q59 0 95.5 42t36.5 110v471h95v-471q0 -70 -28 -124t-79.5 -83.5t-119.5 -29.5h-107q-68 0 -119.5 29.5zM209 1078h75l67 -90l66 90h76l-112 -146h-60zM202 793.5q-16 15.5 -16 40.5
t16 40.5t41 15.5t40.5 -15.5t15.5 -40.5t-15.5 -40.5t-40.5 -15.5t-41 15.5zM417.5 793.5q-15.5 15.5 -15.5 40.5t15.5 40.5t40.5 15.5t41 -15.5t16 -40.5t-16 -40.5t-41 -15.5t-40.5 15.5z" />
    <glyph glyph-name="uni01DA" unicode="&#x1da;" horiz-adv-x="579" 
d="M108.5 41q-44.5 49 -44.5 129v329h93v-331q0 -42 21 -68t55 -26h60q42 0 77 34t46 86v305h93v-499h-88v72q-24 -35 -60 -57.5t-71 -22.5h-64q-73 0 -117.5 49zM148 877h75l67 -90l66 90h76l-112 -146h-60zM141 592.5q-16 15.5 -16 40.5t16 40.5t41 15.5t40.5 -15.5
t15.5 -40.5t-15.5 -40.5t-40.5 -15.5t-41 15.5zM356.5 592.5q-15.5 15.5 -15.5 40.5t15.5 40.5t40.5 15.5t41 -15.5t16 -40.5t-16 -40.5t-41 -15.5t-40.5 15.5z" />
    <glyph glyph-name="uni01DB" unicode="&#x1db;" horiz-adv-x="701" 
d="M177.5 21.5q-51.5 29.5 -79.5 83.5t-28 124v471h95v-471q0 -68 36.5 -110t95.5 -42h107q59 0 95.5 42t36.5 110v471h95v-471q0 -70 -28 -124t-79.5 -83.5t-119.5 -29.5h-107q-68 0 -119.5 29.5zM228 1063h89l70 -127h-75zM202 793.5q-16 15.5 -16 40.5t16 40.5t41 15.5
t40.5 -15.5t15.5 -40.5t-15.5 -40.5t-40.5 -15.5t-41 15.5zM417.5 793.5q-15.5 15.5 -15.5 40.5t15.5 40.5t40.5 15.5t41 -15.5t16 -40.5t-16 -40.5t-41 -15.5t-40.5 15.5z" />
    <glyph glyph-name="uni01DC" unicode="&#x1dc;" horiz-adv-x="579" 
d="M108.5 41q-44.5 49 -44.5 129v329h93v-331q0 -42 21 -68t55 -26h60q42 0 77 34t46 86v305h93v-499h-88v72q-24 -35 -60 -57.5t-71 -22.5h-64q-73 0 -117.5 49zM167 862h89l70 -127h-75zM141 592.5q-16 15.5 -16 40.5t16 40.5t41 15.5t40.5 -15.5t15.5 -40.5t-15.5 -40.5
t-40.5 -15.5t-41 15.5zM356.5 592.5q-15.5 15.5 -15.5 40.5t15.5 40.5t40.5 15.5t41 -15.5t16 -40.5t-16 -40.5t-41 -15.5t-40.5 15.5z" />
    <glyph glyph-name="Gcaron" unicode="&#x1e6;" horiz-adv-x="693" 
d="M167.5 24q-54.5 32 -84 90.5t-29.5 135.5v200q0 77 30.5 135.5t85.5 90.5t127 32h108q69 0 122 -28.5t82 -81t29 -120.5h-93q0 65 -38.5 105t-101.5 40h-108q-66 0 -107 -48t-41 -127v-196q0 -79 39.5 -127t104.5 -48h112q64 0 104.5 45t40.5 116v48h-194v83h287v-131
q0 -72 -30 -128t-84 -87t-124 -31h-112q-71 0 -125.5 32zM184 947h85l81 -107l81 107h85l-133 -170h-67z" />
    <glyph glyph-name="gcaron" unicode="&#x1e7;" horiz-adv-x="587" 
d="M125.5 -164q-46.5 39 -51.5 102h93q3 -27 24 -44t52 -17h85q45 0 70.5 31.5t25.5 86.5v67q-22 -27 -55 -44t-63 -17h-72q-54 0 -96 24t-65 68t-23 101v112q0 59 24.5 105t68.5 71t101 25h66q32 0 66 -17.5t53 -44.5v54h88v-504q0 -92 -50.5 -145t-138.5 -53h-85
q-71 0 -117.5 39zM309 82q46 0 78.5 37t36.5 95v105q-4 47 -34 76.5t-72 29.5h-69q-47 0 -76.5 -33.5t-29.5 -88.5v-106q0 -51 27 -83t68 -32h71zM118 746h85l81 -107l81 107h85l-133 -170h-67z" />
    <glyph glyph-name="Aringacute" unicode="&#x1fa;" horiz-adv-x="658" 
d="M475 184h-292l-68 -184h-99l271 700h43q43 0 61 -47l251 -653h-98zM211 264h236l-117 316h-1zM249 775q-31 30 -31 78q0 49 31 79t81 30t81 -30t31 -79q0 -48 -31 -78t-81 -30t-81 30zM367.5 816q14.5 14 14.5 37q0 24 -14.5 38t-37.5 14t-37.5 -14t-14.5 -38
q0 -23 14.5 -37t37.5 -14t37.5 14zM375 1169h105l-106 -161h-87z" />
    <glyph glyph-name="aringacute" unicode="&#x1fb;" horiz-adv-x="565" 
d="M99 30.5q-45 38.5 -45 102.5v33q0 63 47 101.5t123 38.5h63q30 0 64 -9t58 -25v73q0 37 -23 59.5t-60 22.5h-82q-38 0 -61 -18t-23 -47h-92q0 65 48.5 105t127.5 40h82q79 0 127 -44.5t48 -117.5v-345h-87v67q-23 -34 -60 -54.5t-75 -20.5h-60q-75 0 -120 38.5zM284 69
q44 0 78 25.5t47 68.5v30q-19 17 -52 27t-68 10h-64q-35 0 -57 -18t-22 -48v-30q0 -30 21.5 -47.5t57.5 -17.5h59zM207 574q-31 30 -31 78q0 49 31 79t81 30t81 -30t31 -79q0 -48 -31 -78t-81 -30t-81 30zM325.5 615q14.5 14 14.5 37q0 24 -14.5 38t-37.5 14t-37.5 -14
t-14.5 -38q0 -23 14.5 -37t37.5 -14t37.5 14zM333 968h105l-106 -161h-87z" />
    <glyph glyph-name="AEacute" unicode="&#x1fc;" horiz-adv-x="938" 
d="M509 617v-218h345v-82h-345v-234h385v-83h-403q-34 0 -54.5 20.5t-20.5 54.5v110h-215l-101 -185h-98l384 700h508v-83h-385zM420 265v327l-177 -327h177zM581 938h105l-106 -161h-87z" />
    <glyph glyph-name="aeacute" unicode="&#x1fd;" horiz-adv-x="915" 
d="M100.5 30.5q-46.5 38.5 -46.5 101.5v34q0 64 46.5 102t124.5 38h63q30 0 64 -9t59 -25v73q0 37 -23 59t-61 22h-82q-38 0 -61.5 -17.5t-23.5 -46.5h-92q0 65 48.5 105t128.5 40h82q43 0 79.5 -18t56.5 -49h1q21 31 60 49t82 18h76q85 0 137 -52.5t52 -138.5v-93h-367v-46
q0 -47 28 -75.5t75 -28.5h71q45 0 72 23.5t27 62.5h92q0 -75 -53 -121t-139 -46h-70q-51 0 -92 20.5t-63 59.5h-1q-33 -43 -74.5 -61.5t-84.5 -18.5h-71q-74 0 -120.5 38.5zM778 297v19q0 50 -26 80t-70 30h-76q-46 0 -74 -31.5t-28 -82.5v-15h274zM285 69q44 0 78.5 25.5
t47.5 68.5v30q-19 17 -52 27t-69 10h-63q-38 0 -59.5 -17.5t-21.5 -48.5v-30q0 -29 22 -47t58 -18h59zM509 737h105l-106 -161h-87z" />
    <glyph glyph-name="Oslashacute" unicode="&#x1fe;" horiz-adv-x="705" 
d="M586 635q31 -34 48 -81t17 -103v-202q0 -77 -30.5 -135t-86.5 -90t-128 -32h-107q-70 0 -123 29l-46 -70h-82l74 111q-33 34 -50.5 81.5t-17.5 105.5v202q0 77 30.5 135t86.5 90t129 32h106q71 0 127 -31l43 65h81zM177 144l306 458q-35 21 -79 21h-103q-68 0 -110 -47.5
t-42 -126.5v-198q0 -63 28 -107zM531 552l-305 -456q32 -19 74 -19h104q68 0 110 47.5t42 126.5v198q0 59 -25 103zM396 938h105l-106 -161h-87z" />
    <glyph glyph-name="oslashacute" unicode="&#x1ff;" horiz-adv-x="578" 
d="M514 393q14 -36 14 -79v-130q0 -86 -54.5 -139t-143.5 -53h-85q-48 0 -84 15l-32 -45h-82l57 82q-54 54 -54 140v130q0 87 54 140t143 53h84q49 0 85 -16l33 47h82l-58 -83q27 -26 41 -62zM159 122l207 298q-17 5 -35 5h-84q-47 0 -75.5 -31t-28.5 -83v-123q0 -37 16 -66
zM435 311q0 37 -16 66l-208 -298q18 -5 35 -5h83q48 0 77 31t29 83v123zM331 737h105l-106 -161h-87z" />
    <glyph glyph-name="uni0218" unicode="&#x218;" horiz-adv-x="637" 
d="M108 50q-58 58 -58 156h93q0 -59 33.5 -94t88.5 -35h111q55 0 88 23.5t33 62.5v54q0 31 -23.5 52t-66.5 28l-182 30q-80 13 -123.5 55t-43.5 105v55q0 75 57.5 120.5t151.5 45.5h113q59 0 104.5 -24.5t70.5 -69t25 -102.5h-94q0 50 -29 80.5t-77 30.5h-113
q-51 0 -82.5 -22.5t-31.5 -61.5v-45q0 -32 22.5 -53t64.5 -29l180 -31q83 -14 127.5 -54.5t44.5 -101.5v-65q0 -76 -58.5 -122t-155.5 -46h-115q-97 0 -155 58zM209 -229l20 15q57 42 57 110v33h94v-33q0 -60 -22 -103.5t-68 -75.5l-24 -17z" />
    <glyph glyph-name="uni0219" unicode="&#x219;" horiz-adv-x="530" 
d="M94 36.5q-49 44.5 -49 117.5h91q0 -37 24 -60t64 -23h88q38 0 61 14.5t23 38.5v29q0 16 -13.5 28.5t-34.5 16.5l-173 30q-55 10 -88 41.5t-33 73.5v33q0 59 47 95t126 36h84q75 0 120.5 -41t45.5 -109h-91q-1 32 -21.5 51.5t-53.5 19.5h-83q-37 0 -58.5 -15t-21.5 -40
v-25q0 -16 14 -28t36 -17l175 -31q52 -9 84.5 -40t32.5 -72v-39q0 -58 -49 -93.5t-129 -35.5h-88q-81 0 -130 44.5zM154 -229l20 15q57 42 57 110v33h94v-33q0 -60 -22 -103.5t-68 -75.5l-24 -17z" />
    <glyph glyph-name="uni021A" unicode="&#x21a;" horiz-adv-x="587" 
d="M246 617h-222v83h539v-83h-222v-617h-95v617zM169 -229l20 15q57 42 57 110v33h94v-33q0 -60 -22 -103.5t-68 -75.5l-24 -17z" />
    <glyph glyph-name="uni021B" unicode="&#x21b;" horiz-adv-x="391" 
d="M154.5 36q-36.5 36 -36.5 116v266h-88v81h89v151h92v-151h130v-81h-130v-264q0 -39 15.5 -56t50.5 -17h64v-81h-68q-82 0 -118.5 36zM114 -229l20 15q57 42 57 110v33h94v-33q0 -60 -22 -103.5t-68 -75.5l-24 -17z" />
    <glyph glyph-name="uni0237" unicode="&#x237;" horiz-adv-x="265" 
d="M-36 -118h46q46 0 66 26t20 86v506h93v-501q0 -106 -41.5 -152t-137.5 -46h-46v81z" />
    <glyph glyph-name="uni0251" unicode="&#x251;" horiz-adv-x="591" 
d="M137.5 16q-41.5 24 -64.5 68t-23 101v118q0 60 24 106.5t67.5 72t99.5 25.5h67q35 0 67.5 -17.5t51.5 -45.5v55h89v-368q0 -49 44 -49h25v-82h-40q-42 0 -68 18.5t-34 52.5h-1q-25 -37 -61.5 -58t-77.5 -21h-70q-54 0 -95.5 24zM305 74q46 0 80.5 39.5t38.5 92.5v111
q-6 49 -35 78.5t-71 29.5h-72q-45 0 -74 -35t-29 -91v-111q0 -51 27 -82.5t69 -31.5h66z" />
    <glyph glyph-name="uni0259" unicode="&#x259;" horiz-adv-x="558" 
d="M96.5 44.5q-51.5 52.5 -51.5 138.5v93h370v45q0 47 -28 76t-75 29h-75q-45 0 -72 -23.5t-27 -62.5h-91q0 75 52.5 121t138.5 46h74q88 0 142 -50t54 -133v-138q0 -88 -53.5 -141t-141.5 -53h-80q-85 0 -136.5 52.5zM313 73q46 0 74 31.5t28 82.5v15h-277v-19
q0 -50 26 -80t69 -30h80z" />
    <glyph glyph-name="uni02BB" unicode="&#x2bb;" horiz-adv-x="241" 
d="M27 579q0 60 21.5 103.5t67.5 74.5l24 17l57 -70l-20 -16q-29 -22 -43 -48.5t-14 -60.5v-37h-93v37z" />
    <glyph glyph-name="uni02BC" unicode="&#x2bc;" horiz-adv-x="241" 
d="M26 561l20 16q29 22 43 48.5t14 60.5v37h94v-37q0 -60 -22 -103.5t-68 -74.5l-24 -17z" />
    <glyph glyph-name="uni02BE" unicode="&#x2be;" 
d="M0 579q23 0 37.5 14t14.5 37q0 24 -14.5 38t-37.5 14v57q50 0 81 -30t31 -79q0 -48 -31 -78t-81 -30v57z" />
    <glyph glyph-name="uni02BF" unicode="&#x2bf;" 
d="M-81 552q-31 30 -31 78q0 49 31 79t81 30v-57q-23 0 -37.5 -14t-14.5 -38q0 -23 14.5 -37t37.5 -14v-57q-50 0 -81 30z" />
    <glyph glyph-name="circumflex" unicode="&#x2c6;" horiz-adv-x="421" 
d="M243 746l134 -170h-86l-81 107l-81 -107h-85l133 170h66z" />
    <glyph glyph-name="caron" unicode="&#x2c7;" horiz-adv-x="421" 
d="M44 746h85l81 -107l81 107h85l-133 -170h-67z" />
    <glyph glyph-name="uni02C8" unicode="&#x2c8;" 
d="M-47 727h94v-169h-94v169z" />
    <glyph glyph-name="uni02C9" unicode="&#x2c9;" horiz-adv-x="492" 
d="M63 669h366v-70h-366v70z" />
    <glyph glyph-name="uni02CA" unicode="&#x2ca;" 
d="M-97 587l130 152l65 -61l-147 -135z" />
    <glyph glyph-name="uni02CB" unicode="&#x2cb;" 
d="M-97 678l65 61l130 -152l-48 -44z" />
    <glyph glyph-name="uni02CC" unicode="&#x2cc;" 
d="M-45 -40h94v-169h-94v169z" />
    <glyph glyph-name="breve" unicode="&#x2d8;" horiz-adv-x="399" 
d="M85 606q-41 38 -41 100v12h74v-12q0 -34 21 -54.5t55 -20.5h12q34 0 55 20.5t21 54.5v12h74v-12q0 -62 -41 -100t-109 -38h-12q-68 0 -109 38z" />
    <glyph glyph-name="dotaccent" unicode="&#x2d9;" horiz-adv-x="215" 
d="M61.5 591q-17.5 18 -17.5 46t17.5 45.5t46.5 17.5t46.5 -17.5t17.5 -45.5t-17.5 -46t-46.5 -18t-46.5 18z" />
    <glyph glyph-name="ring" unicode="&#x2da;" horiz-adv-x="311" 
d="M75 574q-31 30 -31 78q0 49 31 79t81 30t81 -30t31 -79q0 -48 -31 -78t-81 -30t-81 30zM193.5 615q14.5 14 14.5 37q0 24 -14.5 38t-37.5 14t-37.5 -14t-14.5 -38q0 -23 14.5 -37t37.5 -14t37.5 14z" />
    <glyph glyph-name="ogonek" unicode="&#x2db;" horiz-adv-x="283" 
d="M74.5 -189q-30.5 27 -30.5 71v11q0 32 17.5 61.5t46.5 45.5h82q-31 -17 -49.5 -43t-18.5 -55v-11q0 -19 12.5 -30.5t34.5 -11.5h11q15 0 31 5.5t28 14.5v-65q-12 -9 -31.5 -14.5t-38.5 -5.5h-12q-52 0 -82.5 27z" />
    <glyph glyph-name="tilde" unicode="&#x2dc;" horiz-adv-x="429" 
d="M236 578q-16 10 -36 29q-15 14 -23.5 20t-18.5 6h-9q-15 0 -24.5 -14t-10.5 -38h-70q1 53 29 85t74 32h8q25 0 43 -11t38 -31q2 -2 10.5 -9t14.5 -10.5t12 -3.5h8q14 0 23 14.5t10 37.5h71q-2 -53 -29.5 -85t-71.5 -32h-9q-23 0 -39 10z" />
    <glyph glyph-name="hungarumlaut" unicode="&#x2dd;" horiz-adv-x="424" 
d="M129 737h100l-102 -161h-83zM280 737h100l-103 -161h-82z" />
    <glyph glyph-name="gravecomb" unicode="&#x300;" 
d="M-149 737h105l88 -161h-87z" />
    <glyph glyph-name="acutecomb" unicode="&#x301;" 
d="M45 737h105l-106 -161h-87z" />
    <glyph glyph-name="uni0302" unicode="&#x302;" 
d="M-34 746h67l133 -170h-85l-81 107l-81 -107h-85z" />
    <glyph glyph-name="tildecomb" unicode="&#x303;" 
d="M22 578q-16 10 -36 29q-15 14 -23.5 20t-18.5 6h-9q-15 0 -24.5 -14t-10.5 -38h-70q1 53 29 85t74 32h8q25 0 43 -11t38 -31q2 -2 10.5 -9t14.5 -10.5t12 -3.5h8q14 0 23 14.5t10 37.5h71q-2 -53 -29.5 -85t-71.5 -32h-9q-23 0 -39 10z" />
    <glyph glyph-name="uni0304" unicode="&#x304;" 
d="M-138 658h277v-70h-277v70z" />
    <glyph glyph-name="uni0306" unicode="&#x306;" 
d="M-115 606q-41 38 -41 100v12h74v-12q0 -34 21 -54.5t55 -20.5h12q34 0 55 20.5t21 54.5v12h74v-12q0 -62 -41 -100t-109 -38h-12q-68 0 -109 38z" />
    <glyph glyph-name="uni0307" unicode="&#x307;" 
d="M-46.5 591q-17.5 18 -17.5 46t17.5 45.5t46.5 17.5t46.5 -17.5t17.5 -45.5t-17.5 -46t-46.5 -18t-46.5 18z" />
    <glyph glyph-name="uni0308" unicode="&#x308;" 
d="M-149 592.5q-16 15.5 -16 40.5t16 40.5t41 15.5t40.5 -15.5t15.5 -40.5t-15.5 -40.5t-40.5 -15.5t-41 15.5zM66.5 592.5q-15.5 15.5 -15.5 40.5t15.5 40.5t40.5 15.5t41 -15.5t16 -40.5t-16 -40.5t-41 -15.5t-40.5 15.5z" />
    <glyph glyph-name="hookabovecomb" unicode="&#x309;" 
d="M-42 581q0 21 12.5 34.5t37.5 28.5q19 12 28 20.5t9 20.5v12q0 31 -35 31h-19q-41 0 -41 -41h-69q0 104 110 104h19q53 0 80 -24t27 -70v-12q0 -25 -13.5 -40t-38.5 -33q-16 -10 -23.5 -17.5t-7.5 -16.5v-15h-76v18z" />
    <glyph glyph-name="uni030A" unicode="&#x30a;" 
d="M-81 574q-31 30 -31 78q0 49 31 79t81 30t81 -30t31 -79q0 -48 -31 -78t-81 -30t-81 30zM37.5 615q14.5 14 14.5 37q0 24 -14.5 38t-37.5 14t-37.5 -14t-14.5 -38q0 -23 14.5 -37t37.5 -14t37.5 14z" />
    <glyph glyph-name="uni030B" unicode="&#x30b;" 
d="M-41 737h100l-102 -161h-83zM110 737h100l-103 -161h-82z" />
    <glyph glyph-name="uni030C" unicode="&#x30c;" 
d="M-166 746h85l81 -107l81 107h85l-133 -170h-67z" />
    <glyph glyph-name="uni031B" unicode="&#x31b;" 
d="M-115 500h28q36 0 55.5 27t19.5 78v24h87v-24q0 -86 -42 -134t-118 -48h-30v77z" />
    <glyph glyph-name="dotbelowcomb" unicode="&#x323;" 
d="M-46 -177.5q-18 17.5 -18 45.5t17.5 46t46.5 18t46.5 -18t17.5 -46t-18 -45.5t-46 -17.5t-46 17.5z" />
    <glyph glyph-name="uni0324" unicode="&#x324;" 
d="M-149.5 -165.5q-15.5 15.5 -15.5 41.5q0 25 16 40.5t41 15.5t40.5 -15.5t15.5 -40.5t-15.5 -41t-40.5 -16q-26 0 -41.5 15.5zM66.5 -165q-15.5 16 -15.5 41t15.5 40.5t40.5 15.5t41 -15.5t16 -40.5q0 -26 -15.5 -41.5t-41.5 -15.5q-25 0 -40.5 16z" />
    <glyph glyph-name="uni0326" unicode="&#x326;" 
d="M-193 -229l20 15q57 42 57 110v33h94v-33q0 -60 -22 -103.5t-68 -75.5l-24 -17z" />
    <glyph glyph-name="uni0327" unicode="&#x327;" 
d="M-80 -173h64q21 0 34 8.5t13 22.5v12q0 13 -11.5 21t-29.5 8h-54v47l32 74h72l-32 -71h8q39 0 63 -21.5t24 -57.5v-14q0 -40 -31.5 -64t-82.5 -24h-69v59z" />
    <glyph glyph-name="uni0328" unicode="&#x328;" 
d="M-73.5 -189q-30.5 27 -30.5 71v11q0 32 17.5 61.5t46.5 45.5h82q-31 -17 -49.5 -43t-18.5 -55v-11q0 -19 12.5 -30.5t34.5 -11.5h11q15 0 31 5.5t28 14.5v-65q-12 -9 -31.5 -14.5t-38.5 -5.5h-12q-52 0 -82.5 27z" />
    <glyph glyph-name="uni032E" unicode="&#x32e;" 
d="M-115 -175q-41 38 -41 100v12h74v-12q0 -34 21 -54.5t55 -20.5h12q34 0 55 20.5t21 54.5v12h74v-12q0 -62 -41 -100t-109 -38h-12q-68 0 -109 38z" />
    <glyph glyph-name="uni0331" unicode="&#x331;" 
d="M-138 -77h277v-70h-277v70z" />
    <glyph glyph-name="uni0394" unicode="&#x394;" horiz-adv-x="714" 
d="M50 75l273 625h75l266 -625v-75h-614v75zM565 83l-204 490l-212 -490h416z" />
    <glyph glyph-name="uni03A9" unicode="&#x3a9;" horiz-adv-x="773" 
d="M50 83h196v92q-77 11 -120.5 61.5t-43.5 130.5v114q0 107 65.5 167t181.5 60h114q115 0 179.5 -60.5t64.5 -169.5v-111q0 -80 -42 -131t-117 -61v-92h195v-83h-289v251h47q53 0 82 31t29 87v109q0 68 -39.5 107t-109.5 39h-114q-72 0 -112 -37.5t-40 -105.5v-112
q0 -56 30.5 -87t84.5 -31h48v-251h-290v83z" />
    <glyph glyph-name="uni03BC" unicode="&#x3bc;" horiz-adv-x="579" 
d="M509 499v-499h-88v72q-24 -35 -60 -57.5t-70 -22.5h-55q-50 0 -79 31v-206h-93v682h93v-336q0 -41 21 -65t57 -24h58q42 0 77 34t46 86v305h93z" />
    <glyph glyph-name="pi" unicode="&#x3c0;" horiz-adv-x="730" 
d="M560 418v-264q0 -39 15.5 -56t50.5 -17h54v-81h-58q-82 0 -118.5 36t-36.5 116v266h-209v-418h-93v418h-115v81h630v-81h-120z" />
    <glyph glyph-name="uni0E01" unicode="&#xe01;" horiz-adv-x="613" 
d="M116 262q0 34 -21 56.5t-59 30.5q8 57 38.5 105t77 76t100.5 28h120q75 0 121 -45.5t46 -119.5v-393h-93v390q0 39 -23.5 62.5t-63.5 23.5h-107q-37 0 -68.5 -26.5t-47.5 -70.5q34 -16 53.5 -47.5t19.5 -69.5v-262h-93v262z" />
    <glyph glyph-name="uni0E02" unicode="&#xe02;" horiz-adv-x="576" 
d="M219 18.5q-19 18.5 -19 50.5v151q0 18 8 33.5t24 36.5q20 27 30 48t10 50v30q0 35 -20 56.5t-52 21.5h-21q-52 0 -71 -34v-1q14 6 31 6q40 0 64.5 -24.5t24.5 -64.5q0 -43 -28 -69.5t-73 -26.5q-44 0 -72 27.5t-28 72.5v34q0 66 41 104t112 38h30q63 0 101.5 -38
t38.5 -100v-33q0 -32 -9 -55t-26 -52q-11 -18 -16.5 -30.5t-5.5 -26.5v-145h66q24 0 37 16t13 46v410h93v-412q0 -65 -35.5 -101.5t-99.5 -36.5h-96q-33 0 -52 18.5zM159 346q12 12 12 32t-12 32t-32 12t-32 -12t-12 -32t12 -32t32 -12t32 12z" />
    <glyph glyph-name="uni0E03" unicode="&#xe03;" horiz-adv-x="589" 
d="M232 18.5q-19 18.5 -19 50.5v155q0 18 8.5 34.5t26.5 42.5q22 31 33 53.5t11 48.5v36q0 54 -24 54h-6l-50 -48l-53 48h-10q-43 0 -47 -49l1 -1q12 6 28 6q41 0 66 -24t25 -64q0 -43 -27.5 -68.5t-71.5 -25.5t-71 27t-27 71v42q0 151 125 151h18l44 -43l42 43h18
q96 0 96 -116v-39q0 -33 -9 -57t-27 -54q-13 -21 -19.5 -36.5t-6.5 -33.5v-144h66q24 0 36.5 16t12.5 46v410h94v-412q0 -65 -35.5 -101.5t-99.5 -36.5h-96q-33 0 -52 18.5zM154 329q12 12 12 32q0 19 -12 30.5t-31 11.5q-20 0 -32 -11.5t-12 -30.5t12.5 -31.5t31.5 -12.5
t31 12z" />
    <glyph glyph-name="uni0E04" unicode="&#xe04;" horiz-adv-x="637" 
d="M511 506.5q52 -51.5 52 -136.5v-370h-93v370q0 48 -26 77t-69 29h-108q-47 0 -76 -29t-29 -77v-236h2l53 129q19 45 43 64.5t60 19.5q47 0 75 -27t28 -72q0 -44 -28 -71.5t-74 -27.5q-21 0 -39.5 8.5t-29.5 22.5l-82 -180h-96v370q0 85 53 136.5t140 51.5h108
q84 0 136 -51.5zM286.5 281.5q-12.5 -12.5 -12.5 -33.5t12.5 -34t33.5 -13t34 13t13 34t-13 33.5t-34 12.5t-33.5 -12.5z" />
    <glyph glyph-name="uni0E05" unicode="&#xe05;" horiz-adv-x="641" 
d="M527 511q40 -47 40 -130v-381h-92v381q0 44 -15.5 69t-43.5 25h-11l-84 -70l-83 70h-11q-29 0 -47 -25.5t-18 -69.5v-245h2l53 127q19 45 43 64.5t60 19.5q47 0 75.5 -27.5t28.5 -72.5q0 -44 -28 -71.5t-74 -27.5q-21 0 -39.5 8.5t-29.5 22.5l-84 -178h-95v380
q0 84 40.5 131t113.5 47h22l71 -64l72 64h22q72 0 112 -47zM287.5 280q-12.5 -13 -12.5 -34t12.5 -33.5t33.5 -12.5t33.5 12.5t12.5 33.5t-12.5 34t-33.5 13t-33.5 -13z" />
    <glyph glyph-name="uni0E06" unicode="&#xe06;" horiz-adv-x="656" 
d="M126 21q-33 31 -33 81q0 58 38.5 92.5t102.5 34.5v11q0 16 8.5 31.5t25.5 38.5q20 29 30.5 49t10.5 44v36q0 27 -5 40.5t-20 13.5h-7l-51 -48l-55 48h-10q-45 0 -49 -49l1 -1q12 6 28 6q41 0 66 -24t25 -64q0 -43 -27.5 -68.5t-71.5 -25.5t-71 27t-27 71v42
q0 151 126 151h20l45 -43l43 43h19q49 0 74.5 -29.5t25.5 -86.5v-39q0 -30 -10 -53t-29 -53q-15 -23 -22 -37.5t-7 -31.5v-13q40 -9 86 -38t84 -69v442h92v-550h-88q-40 55 -90.5 95t-93.5 51v-128q-15 -13 -41 -20.5t-57 -7.5q-53 0 -86 31zM164 329q12 12 12 32
q0 19 -12 30.5t-31 11.5q-20 0 -32 -11.5t-12 -30.5t12.5 -31.5t31.5 -12.5t31 12zM231 55v110h-8q-30 0 -46.5 -17t-16.5 -46q0 -25 12.5 -38.5t34.5 -13.5q19 0 24 5z" />
    <glyph glyph-name="uni0E07" unicode="&#xe07;" horiz-adv-x="517" 
d="M412.5 531q30.5 -29 30.5 -77v-333q0 -57 -30.5 -89t-83.5 -32h-55q-23 0 -41 11t-29 32l-178 318h100l157 -282h32q16 0 25 11.5t9 33.5v229q-10 -3 -22 -3q-47 0 -76 28.5t-29 75.5q0 48 30 77t80 29t80.5 -29zM367 420q13 13 13 34q0 22 -13 35t-35 13q-21 0 -34 -13
t-13 -35q0 -21 13 -34t34 -13q22 0 35 13z" />
    <glyph glyph-name="uni0E08" unicode="&#xe08;" horiz-adv-x="589" 
d="M468.5 512q46.5 -46 46.5 -122v-247q0 -69 -36 -106t-103 -37h-86q-33 0 -52.5 18.5t-19.5 50.5v81q-14 -2 -22 -2q-46 0 -74.5 28t-28.5 74t29.5 74.5t78.5 28.5t78.5 -28.5t29.5 -74.5v-171h59q28 0 41 16.5t13 51.5v244q0 38 -21 61.5t-55 23.5h-124q-43 0 -69 -26.5
t-26 -70.5h-93q0 81 51.5 130t136.5 49h124q76 0 122.5 -46zM167 216q13 -13 34 -13q22 0 34.5 13t12.5 34t-12.5 34t-34.5 13q-21 0 -34 -13t-13 -34t13 -34z" />
    <glyph glyph-name="uni0E09" unicode="&#xe09;" horiz-adv-x="625" 
d="M560 159q19 -26 19 -63q0 -48 -30 -77t-78 -29q-45 0 -74.5 25t-33.5 68l-116 -83h-88v135q-5 -1 -17 -1q-46 0 -74 28t-28 74t29 74.5t77 28.5q46 0 74.5 -28.5t28.5 -74.5v-152l204 141v166q0 38 -21 61.5t-55 23.5h-135q-43 0 -69.5 -25t-26.5 -66h-92q0 77 51.5 125
t136.5 48h135q76 0 122 -46t46 -122v-168l-37 -27q33 -10 52 -36zM112 202q13 -13 34 -13q20 0 33 13t13 34t-12.5 34t-33.5 13t-34 -13t-13 -34t13 -34zM504 61q13 13 13 34q0 22 -13 35.5t-34 13.5q-20 0 -33 -13.5t-13 -35.5q0 -21 13 -34t33 -13q21 0 34 13z" />
    <glyph glyph-name="uni0E0A" unicode="&#xe0a;" horiz-adv-x="577" 
d="M505.5 466.5q-26.5 -45.5 -73.5 -69.5q32 -11 51 -35.5t19 -54.5v-169q0 -65 -35.5 -101.5t-99.5 -36.5h-96q-33 0 -52 18.5t-19 50.5v151q0 18 8 33.5t24 36.5q20 27 30 48t10 50v30q0 35 -20 56.5t-52 21.5h-21q-52 0 -71 -34v-1q14 6 31 6q40 0 64.5 -24.5t24.5 -64.5
q0 -43 -28 -69.5t-73 -26.5q-44 0 -72 27.5t-28 72.5v34q0 66 41 104t112 38h30q62 0 99.5 -36.5t39.5 -96.5q44 9 71 49.5t35 110.5l2 14h85l-1 -14q-9 -73 -35.5 -118.5zM95 410q-12 -12 -12 -32t12 -32t32 -12t32 12t12 32t-12 32t-32 12t-32 -12zM411 309q0 53 -63 62
q-2 -26 -10 -46t-23 -45q-11 -18 -16.5 -30.5t-5.5 -26.5v-146h69q24 0 36.5 16t12.5 46v170z" />
    <glyph glyph-name="uni0E0B" unicode="&#xe0b;" horiz-adv-x="590" 
d="M518 467q-27 -46 -73 -70q32 -11 51 -35.5t19 -54.5v-169q0 -65 -35.5 -101.5t-99.5 -36.5h-96q-33 0 -52 18.5t-19 50.5v155q0 18 8.5 34.5t26.5 42.5q22 31 33 53.5t11 48.5v36q0 54 -24 54h-6l-50 -48l-53 48h-10q-43 0 -47 -49l1 -1q12 6 28 6q41 0 66 -24t25 -64
q0 -43 -27.5 -68.5t-71.5 -25.5t-71 27t-27 71v42q0 151 125 151h18l44 -43l42 43h18q95 0 95 -116v-16q83 21 101 159l2 14h85l-2 -14q-8 -72 -35 -118zM91 391.5q-12 -11.5 -12 -30.5t12.5 -31.5t31.5 -12.5t31 12t12 32q0 19 -12 30.5t-31 11.5q-20 0 -32 -11.5zM424 309
q0 52 -60 61q-4 -21 -12 -38.5t-21 -39.5q-13 -23 -19 -38t-6 -32v-145h68q24 0 37 16t13 46v170z" />
    <glyph glyph-name="uni0E0C" unicode="&#xe0c;" horiz-adv-x="910" 
d="M836 550v-550h-88q-38 53 -90 92.5t-99 51.5v-129q-14 -12 -36.5 -18.5t-49.5 -6.5q-53 0 -82 30.5t-29 83.5q0 46 25.5 79t68.5 41v166q0 38 -25.5 62t-66.5 24h-112q-37 0 -68.5 -26.5t-47.5 -70.5q33 -16 52 -47.5t19 -69.5v-69q11 3 22 3q46 0 74 -28t28 -74
q0 -47 -30 -75.5t-79 -28.5t-78.5 28.5t-29.5 75.5v168q0 35 -20 57.5t-58 29.5q8 57 38.5 105t77 76t100.5 28h124q77 0 124 -45.5t47 -119.5v-169q50 -10 104 -41t92 -71v438h93zM493 166h-9q-26 0 -41 -17t-15 -45q0 -27 10 -40.5t33 -13.5q15 0 22 5v111zM188 128
q-13 -13 -13 -34t13 -34t34 -13q22 0 34.5 13t12.5 34t-12.5 34t-34.5 13q-21 0 -34 -13z" />
    <glyph glyph-name="uni0E0D" unicode="&#xe0d;" horiz-adv-x="917" 
d="M843 550v-406q0 -67 -36 -105.5t-103 -38.5h-193q-33 0 -52 18.5t-19 50.5v321q0 38 -24.5 62t-63.5 24h-100q-37 0 -68.5 -26.5t-47.5 -70.5q33 -16 52 -47.5t19 -69.5v-69q11 3 22 3q46 0 74 -28t28 -74q0 -47 -30 -75.5t-79 -28.5t-78.5 28.5t-29.5 75.5v168
q0 35 -20 57.5t-58 29.5q8 57 38.5 105t77 76t100.5 28h113q74 0 120 -45.5t46 -119.5v-311h159q31 0 45 16t14 48v404h94zM188 128q-13 -13 -13 -34t13 -34t34 -13q22 0 34.5 13t12.5 34t-12.5 34t-34.5 13q-21 0 -34 -13zM712.5 -152.5q33.5 32.5 45.5 95.5h85
q-13 -94 -74 -146.5t-158 -52.5q-86 0 -136.5 31.5t-50.5 87.5q0 42 27.5 67.5t72.5 25.5q44 0 71 -25.5t27 -67.5q0 -28 -16 -47q6 -1 21 -1q52 0 85.5 32.5zM556 -169q12 12 12 32q0 19 -12 31t-32 12t-32 -11.5t-12 -31.5t12 -32t32 -12t32 12z" />
    <glyph glyph-name="uni0E0E" unicode="&#xe0e;" horiz-adv-x="631" 
d="M510.5 512.5q46.5 -45.5 46.5 -119.5v-475q0 -66 -33 -109.5t-98 -59.5l-119 77q-6 -36 -32.5 -58t-64.5 -22q-45 0 -73 27.5t-28 71.5t28 71t73 27q22 0 42 -7t46 -23l121 -77q24 8 34 28t10 54v472q0 38 -23.5 62t-62.5 24h-96q-36 0 -67 -26.5t-46 -70.5
q38 -17 60 -47.5t22 -65.5v-172q0 -46 -30 -75t-78 -29t-77.5 28.5t-29.5 75.5q0 46 27.5 73.5t73.5 27.5q8 0 20 -2v73q0 30 -23.5 53t-64.5 30q8 57 38 105t75.5 76t98.5 28h109q75 0 121.5 -45.5zM176 59.5q13 12.5 13 34.5q0 21 -13 33.5t-34 12.5q-22 0 -34.5 -12.5
t-12.5 -33.5q0 -22 12.5 -34.5t34.5 -12.5q21 0 34 12.5zM242.5 -187.5q12.5 12.5 12.5 32.5t-12.5 33t-32.5 13t-32.5 -12.5t-12.5 -33.5t12.5 -33t32.5 -12t32.5 12.5z" />
    <glyph glyph-name="uni0E0F" unicode="&#xe0f;" horiz-adv-x="631" 
d="M510.5 512.5q46.5 -45.5 46.5 -119.5v-484q0 -64 -31.5 -103.5t-90.5 -53.5l-76 71l-50 -71l-60 59q-9 -30 -33 -47.5t-56 -17.5q-44 0 -71 26.5t-27 70.5t27 70t71 26q25 0 44.5 -9t38.5 -27l61 -59l49 67l81 -73q16 8 22.5 26.5t6.5 51.5v474q0 38 -23.5 62t-62.5 24
h-96q-36 0 -66.5 -26.5t-46.5 -70.5q38 -17 60 -47.5t22 -65.5v-172q0 -46 -30 -75t-78 -29t-77.5 28.5t-29.5 75.5q0 46 27.5 73.5t73.5 27.5q8 0 20 -2v73q0 30 -23.5 53t-64.5 30q8 57 38 105t75.5 76t98.5 28h109q75 0 121.5 -45.5zM176 59.5q13 12.5 13 34.5
q0 21 -13 33.5t-34 12.5q-22 0 -34.5 -12.5t-12.5 -33.5q0 -22 12.5 -34.5t34.5 -12.5q21 0 34 12.5zM192.5 -189.5q12.5 12.5 12.5 32.5t-12.5 33t-32.5 13t-32.5 -13t-12.5 -33t12.5 -32.5t32.5 -12.5t32.5 12.5z" />
    <glyph glyph-name="uni0E10" unicode="&#xe10;" horiz-adv-x="552" 
d="M380 288q-98 50 -335 81q0 93 45.5 142t132.5 49q26 0 47 -5t52 -16q25 -9 44 -14t41 -5q27 0 52 8.5t41 24.5v-76q-14 -14 -38 -22.5t-50 -8.5q-24 0 -46 5t-51 15q-29 9 -49 13.5t-41 4.5q-39 0 -61 -15t-25 -44q99 -16 187 -42t145 -59v-181q0 -68 -36.5 -105.5
t-101.5 -37.5h-75q-32 0 -51 18.5t-19 49.5v42q-10 -2 -16 -2q-46 0 -74 27t-28 71q0 46 29 73.5t76 27.5q46 0 73.5 -27.5t27.5 -73.5v-131h48q31 0 43.5 16.5t12.5 53.5v143zM141.5 173.5q12.5 -12.5 32.5 -12.5q21 0 33.5 12.5t12.5 32.5q0 21 -12.5 33.5t-32.5 12.5
q-21 0 -33.5 -12.5t-12.5 -33.5q0 -20 12.5 -32.5zM495.5 -30q20.5 -20 20.5 -53v-80q0 -47 -31.5 -77.5t-81.5 -35.5l-62 61l-49 -61l-58 59q-9 -28 -33.5 -45.5t-55.5 -17.5q-45 0 -73 27t-28 70q0 44 27.5 71t71.5 27t83 -41l65 -64l45 54l80 -75q18 4 27.5 17t9.5 31v11
q-10 -2 -16 -2q-33 0 -53 19.5t-20 51.5q0 33 21 53t56 20q34 0 54.5 -20zM417.5 -106q8.5 -9 23.5 -9q14 0 23 9t9 23q0 15 -9 23.5t-23 8.5q-15 0 -23.5 -8.5t-8.5 -23.5q0 -14 8.5 -23zM176.5 -215.5q12.5 12.5 12.5 32.5q0 21 -12.5 33.5t-33.5 12.5q-20 0 -33 -12.5
t-13 -33.5q0 -20 13 -32.5t33 -12.5q21 0 33.5 12.5z" />
    <glyph glyph-name="uni0E11" unicode="&#xe11;" horiz-adv-x="664" 
d="M189 158q0 30 10 56t28 56q4 7 22.5 37t28 60.5t9.5 60.5v13q0 52 -27 52h-4l-47 -47l-50 47h-10q-44 0 -48 -49v-2q12 6 29 6q41 0 65.5 -24t24.5 -64q0 -43 -27 -68.5t-72 -25.5q-44 0 -70.5 27t-26.5 72v42q0 151 126 151h18l42 -42l39 42h16q46 0 68 -28.5t22 -76.5
v-4q0 -9 -3 -23h2l22 32l71 100h19q60 0 92 -37t32 -106v-415h-93v415q0 27 -8 42t-23 15h-4l-93 -127q-50 -69 -68.5 -107t-18.5 -74v-164h-93v158zM153 329q12 12 12 31t-12 30.5t-32 11.5q-19 0 -31 -11.5t-12 -30.5t12 -31t31 -12q20 0 32 12z" />
    <glyph glyph-name="uni0E12" unicode="&#xe12;" horiz-adv-x="929" 
d="M855 550v-550h-87q-37 54 -84 93.5t-88 50.5v-128q-32 -26 -88 -26q-50 0 -78.5 29.5t-28.5 82.5q0 44 25.5 77t65.5 40v162q0 44 -16 69t-45 25h-11l-90 -70l-91 70h-11q-29 0 -47 -25.5t-18 -69.5v-309h11q43 2 79 24t56 60q-4 -1 -14 -1q-43 0 -70.5 26.5t-27.5 70.5
t28.5 71.5t74.5 27.5q47 0 75 -28t28 -75q0 -60 -30 -115t-85 -91.5t-126 -40.5h-88v380q0 84 41 131t114 47h22l79 -64l78 64h22q72 0 112.5 -47t40.5 -130v-157q49 -11 95 -41t83 -70v437h94zM267 217.5q13 -12.5 33 -12.5q21 0 33.5 12.5t12.5 33.5q0 20 -12.5 33
t-33.5 13q-20 0 -33 -13t-13 -33q0 -21 13 -33.5zM531 162h-8q-28 0 -42 -15.5t-14 -43.5t10 -41.5t31 -13.5q18 0 23 5v109z" />
    <glyph glyph-name="uni0E13" unicode="&#xe13;" horiz-adv-x="904" 
d="M859 153.5q15 -24.5 15 -56.5q0 -48 -30 -77.5t-79 -29.5t-79 29t-30 76q0 14 3 26q-72 -37 -139 -121h-84v390q0 38 -24 62t-64 24h-96q-37 0 -68.5 -26.5t-47.5 -70.5q33 -16 52 -47.5t19 -69.5v-69q11 3 22 3q46 0 74 -28t28 -74q0 -47 -30 -75.5t-79 -28.5
t-78.5 28.5t-29.5 75.5v168q0 35 -20 57.5t-58 29.5q8 57 38.5 105t77 76t100.5 28h108q75 0 121.5 -45.5t46.5 -119.5v-287q41 40 92 68t104 36v340h93v-360q27 -12 42 -36.5zM799 61.5q13 13.5 13 34.5q0 22 -13 35t-34 13q-22 0 -34.5 -13t-12.5 -35q0 -21 13 -34.5
t34 -13.5t34 13.5zM188 128q-13 -13 -13 -34t13 -34t34 -13q22 0 34.5 13t12.5 34t-12.5 34t-34.5 13q-21 0 -34 -13z" />
    <glyph glyph-name="uni0E14" unicode="&#xe14;" horiz-adv-x="639" 
d="M512.5 506.5q52.5 -51.5 52.5 -136.5v-370h-92v370q0 48 -27 77t-71 29h-107q-46 0 -74.5 -30t-28.5 -80v-293h13q50 0 90 23t60 62q-12 -2 -19 -2q-43 0 -70 26.5t-27 70.5q0 46 29 73.5t76 27.5t75.5 -28t28.5 -76q0 -69 -33.5 -125.5t-92.5 -90t-132 -34.5h-89v366
q0 86 53.5 139t140.5 53h107q85 0 137.5 -51.5zM283.5 219.5q12.5 -12.5 33.5 -12.5t33.5 12.5t12.5 33.5t-12.5 34t-33.5 13t-33.5 -13t-12.5 -34t12.5 -33.5z" />
    <glyph glyph-name="uni0E15" unicode="&#xe15;" horiz-adv-x="643" 
d="M529.5 511q39.5 -47 39.5 -130v-381h-92v381q0 44 -15.5 69t-42.5 25h-12l-84 -70l-84 70h-12q-29 0 -45.5 -25.5t-16.5 -69.5v-307h13q50 0 90 21.5t60 58.5q-6 -1 -18 -1q-43 0 -70 26.5t-27 70.5q0 46 28.5 73.5t76.5 27.5q47 0 75.5 -28t28.5 -76q0 -69 -33.5 -124.5
t-92.5 -88t-133 -33.5h-89v380q0 84 40.5 131t112.5 47h24l72 -64l72 64h24q71 0 110.5 -47zM284 215.5q13 -12.5 34 -12.5t33.5 12.5t12.5 33.5t-12.5 34t-33.5 13t-34 -13t-13 -34t13 -33.5z" />
    <glyph glyph-name="uni0E16" unicode="&#xe16;" horiz-adv-x="613" 
d="M493 512.5q46 -45.5 46 -119.5v-393h-93v390q0 39 -23.5 62.5t-63.5 23.5h-107q-37 0 -68.5 -26.5t-47.5 -70.5q33 -16 52 -47.5t19 -69.5v-69q11 3 22 3q46 0 74 -28t28 -74q0 -47 -30 -75.5t-79 -28.5t-78.5 28.5t-29.5 75.5v168q0 35 -20 57.5t-58 29.5q8 57 38.5 105
t77 76t100.5 28h120q75 0 121 -45.5zM188 128q-13 -13 -13 -34t13 -34t34 -13q22 0 34.5 13t12.5 34t-12.5 34t-34.5 13q-21 0 -34 -13z" />
    <glyph glyph-name="uni0E17" unicode="&#xe17;" horiz-adv-x="659" 
d="M549 519.5q36 -38.5 36 -108.5v-411h-93v412q0 29 -10.5 45t-29.5 16h-4l-183 -473h-111v352q-14 -2 -22 -2q-47 0 -76 28.5t-29 75.5q0 48 30 77t80 29q49 0 79 -29t30 -77v-313h1l158 417h42q66 0 102 -38.5zM102 420q13 -13 35 -13q21 0 34 13t13 34q0 22 -13 35
t-34 13q-22 0 -35 -13t-13 -35q0 -21 13 -34z" />
    <glyph glyph-name="uni0E18" unicode="&#xe18;" horiz-adv-x="573" 
d="M119 18.5q-19 18.5 -19 50.5v190h92v-179h159q31 0 45 16t14 47v118q-42 22 -136 43t-224 39q0 107 46 162t135 55q25 0 46 -5t53 -16q30 -10 49 -15t41 -5q27 0 51.5 9t41.5 25v-79q-14 -14 -37.5 -22.5t-50.5 -8.5q-25 0 -48 5t-53 15q-33 9 -52 13.5t-41 4.5
q-78 0 -86 -81q112 -17 207.5 -42.5t149.5 -57.5v-157q0 -70 -37 -106.5t-107 -36.5h-188q-32 0 -51 18.5z" />
    <glyph glyph-name="uni0E19" unicode="&#xe19;" horiz-adv-x="645" 
d="M600 153.5q15 -24.5 15 -56.5q0 -48 -30 -77.5t-79 -29.5t-79 29t-30 76q0 17 4 29q-44 -19 -87 -52t-75 -72h-85v353q-10 -3 -22 -3q-47 0 -76 28.5t-29 75.5q0 48 30 77t80 29t80 -29t30 -77v-348q41 39 100.5 68.5t117.5 38.5v337h93v-360q27 -12 42 -36.5zM171.5 420
q12.5 13 12.5 34q0 22 -12.5 35t-34.5 13t-34.5 -13t-12.5 -35q0 -21 12.5 -34t34.5 -13t34.5 13zM539 61.5q13 13.5 13 34.5q0 22 -12.5 35t-34.5 13q-21 0 -34 -13t-13 -35q0 -21 13 -34.5t34 -13.5t34 13.5z" />
    <glyph glyph-name="uni0E1A" unicode="&#xe1a;" horiz-adv-x="656" 
d="M582 550v-406q0 -67 -36 -105.5t-102 -38.5h-219q-33 0 -52 18.5t-19 50.5v283q-14 -2 -22 -2q-47 0 -76 28.5t-29 75.5q0 48 30 77t80 29t80 -29t30 -77v-372h183q31 0 45 16t14 48v404h93zM102.5 420q12.5 -13 34.5 -13t34.5 13t12.5 34q0 22 -12.5 35t-34.5 13
t-34.5 -13t-12.5 -35q0 -21 12.5 -34z" />
    <glyph glyph-name="uni0E1B" unicode="&#xe1b;" horiz-adv-x="658" 
d="M584 762v-618q0 -67 -36 -105.5t-102 -38.5h-221q-33 0 -52 18.5t-19 50.5v283q-14 -2 -22 -2q-47 0 -76 28.5t-29 75.5q0 48 30 77t80 29t80 -29t30 -77v-372h185q31 0 45 16t14 48v616h93zM102.5 420q12.5 -13 34.5 -13t34.5 13t12.5 34q0 22 -12.5 35t-34.5 13
t-34.5 -13t-12.5 -35q0 -21 12.5 -34z" />
    <glyph glyph-name="uni0E1C" unicode="&#xe1c;" horiz-adv-x="630" 
d="M556 550v-483q0 -31 -18 -49t-47 -18h-34l-140 212l-144 -212h-34q-29 0 -47 18t-18 48v390q0 47 30 75.5t79 28.5t79 -28.5t30 -75.5q0 -46 -28 -74t-75 -28q-10 0 -24 2v-250l135 198h14q20 0 35 -22l115 -174v442h92zM148 490q-13 -13 -13 -34q0 -22 13 -34.5
t35 -12.5q21 0 34.5 13t13.5 34t-13.5 34t-34.5 13q-22 0 -35 -13z" />
    <glyph glyph-name="uni0E1D" unicode="&#xe1d;" horiz-adv-x="632" 
d="M558 762v-695q0 -31 -18 -49t-47 -18h-34l-141 212l-145 -212h-34q-29 0 -47 18t-18 48v390q0 47 30 75.5t79 28.5t79 -28.5t30 -75.5q0 -46 -28 -74t-75 -28q-10 0 -24 2v-250l136 198h14q20 0 35 -22l116 -174v654h92zM148 490q-13 -13 -13 -34q0 -22 13 -34.5
t35 -12.5q21 0 34.5 13t13.5 34t-13.5 34t-34.5 13q-22 0 -35 -13z" />
    <glyph glyph-name="uni0E1E" unicode="&#xe1e;" horiz-adv-x="710" 
d="M636 550v-478q0 -34 -19.5 -53t-54.5 -19h-43l-122 371l-124 -371h-42q-35 0 -55 19t-20 53v281q-11 -3 -24 -3q-47 0 -76 28.5t-29 75.5q0 48 30 77t79 29t79 -29t30 -77v-338h1l129 382h21q10 0 18.5 -7.5t13.5 -21.5l118 -352h2v433h88zM102 420q13 -13 34 -13
q22 0 35 13t13 34q0 22 -13 35t-35 13q-21 0 -34 -13t-13 -35q0 -21 13 -34z" />
    <glyph glyph-name="uni0E1F" unicode="&#xe1f;" horiz-adv-x="712" 
d="M638 762v-690q0 -34 -19.5 -53t-54.5 -19h-43l-123 371l-125 -371h-42q-35 0 -55 19t-20 53v281q-11 -3 -24 -3q-47 0 -76 28.5t-29 75.5q0 48 30 77t79 29t79 -29t30 -77v-338h1l130 382h21q10 0 18.5 -7.5t13.5 -21.5l119 -352h2v645h88zM102 420q13 -13 34 -13
q22 0 35 13t13 34q0 22 -13 35t-35 13q-21 0 -34 -13t-13 -35q0 -21 13 -34z" />
    <glyph glyph-name="uni0E20" unicode="&#xe20;" horiz-adv-x="630" 
d="M510 512.5q46 -45.5 46 -119.5v-393h-93v390q0 38 -24 62t-63 24h-95q-36 0 -67 -26.5t-46 -70.5q38 -17 60 -47.5t22 -65.5v-172q0 -46 -30 -75t-78 -29t-77.5 28.5t-29.5 75.5q0 46 27.5 73.5t73.5 27.5q8 0 20 -2v73q0 30 -23.5 53t-64.5 30q8 57 38 105t75.5 76
t98.5 28h109q75 0 121 -45.5zM176 59.5q13 12.5 13 34.5q0 21 -13 33.5t-34 12.5q-22 0 -34.5 -12.5t-12.5 -33.5q0 -22 12.5 -34.5t34.5 -12.5q21 0 34 12.5z" />
    <glyph glyph-name="uni0E21" unicode="&#xe21;" horiz-adv-x="632" 
d="M558 550v-550h-88q-37 53 -93.5 93.5t-112.5 54.5v-133q-16 -11 -42.5 -18t-57.5 -7q-52 0 -84 31.5t-32 82.5q0 56 34 90t90 36v122q-14 -2 -22 -2q-48 0 -77 28.5t-29 75.5q0 48 30 77t80 29t80.5 -29t30.5 -77v-228q53 -12 107.5 -43t91.5 -70v437h94zM120 420
q13 -13 34 -13q22 0 35 13t13 34q0 22 -13 35t-35 13q-21 0 -34 -13t-13 -35q0 -21 13 -34zM187 167h-9q-29 0 -46 -17t-17 -46q0 -25 12.5 -39t34.5 -14q17 0 25 5v111z" />
    <glyph glyph-name="uni0E22" unicode="&#xe22;" horiz-adv-x="604" 
d="M530 550v-406q0 -67 -36 -105.5t-102 -38.5h-249q-33 0 -52 18.5t-19 50.5v59q0 43 19 76t54 50v1q-42 18 -62.5 50t-20.5 81q0 78 40 126t105 48q49 0 79 -28t30 -74q0 -45 -28 -72.5t-73 -27.5q-21 0 -39 7.5t-29 21.5v-12q0 -44 27.5 -64.5t84.5 -20.5h43v-73h-43
q-94 0 -94 -88v-48h213q31 0 45 15.5t14 48.5v405h93zM172 492q-13 -13 -13 -34q0 -22 13 -34.5t35 -12.5q21 0 34.5 13t13.5 34t-13.5 34t-34.5 13q-22 0 -35 -13z" />
    <glyph glyph-name="uni0E23" unicode="&#xe23;" horiz-adv-x="511" 
d="M153 457.5q-22 -22.5 -26 -63.5q184 -34 293 -97v-201q0 -48 -30 -77t-80 -29t-80.5 29t-30.5 77q0 46 29.5 74.5t76.5 28.5q8 0 22 -2v63q-92 48 -293 80q0 105 47 162.5t132 57.5q26 0 47.5 -5.5t48.5 -16.5q25 -10 42 -14.5t36 -4.5q54 0 90 34v-80q-33 -31 -86 -31
q-22 0 -42 5t-46 14q-31 10 -49.5 14.5t-40.5 4.5q-38 0 -60 -22.5zM344 61q13 13 13 35q0 21 -13 34t-34 13q-22 0 -35 -13t-13 -34q0 -22 13 -35t35 -13q21 0 34 13z" />
    <glyph glyph-name="uni0E24" unicode="&#xe24;" horiz-adv-x="615" 
d="M495 512.5q46 -45.5 46 -119.5v-593h-93v590q0 39 -23.5 62.5t-63.5 23.5h-109q-36 0 -67.5 -26.5t-47.5 -70.5q33 -16 51.5 -47.5t18.5 -69.5v-69q11 3 22 3q46 0 74 -28t28 -74q0 -47 -30 -75.5t-79 -28.5t-78.5 28.5t-29.5 75.5v168q0 35 -20 57.5t-58 29.5
q8 57 38.5 105t77 76t99.5 28h123q75 0 121 -45.5zM188 128q-13 -13 -13 -34t13 -34t34 -13q22 0 34.5 13t12.5 34t-12.5 34t-34.5 13q-21 0 -34 -13z" />
    <glyph glyph-name="uni0E25" unicode="&#xe25;" horiz-adv-x="594" 
d="M473.5 512q46.5 -46 46.5 -122v-390h-94v63q-4 94 -48.5 148.5t-117.5 54.5q-43 0 -68.5 -20t-27.5 -57q11 3 24 3q45 0 72.5 -27t27.5 -72q0 -46 -29.5 -74.5t-78.5 -28.5t-78.5 28.5t-29.5 74.5v79q0 82 49 128t137 46q55 0 99 -22.5t70 -63.5v131q0 38 -21 61.5
t-55 23.5h-111q-44 0 -70.5 -25t-26.5 -65h-91q0 77 51.5 124.5t136.5 47.5h111q76 0 122.5 -46zM214 127q-13 13 -34 13t-34 -13t-13 -34t13 -34t34 -13t34 13t13 34t-13 34z" />
    <glyph glyph-name="uni0E26" unicode="&#xe26;" horiz-adv-x="631" 
d="M510.5 512.5q46.5 -45.5 46.5 -119.5v-593h-94v590q0 38 -23.5 62t-62.5 24h-96q-36 0 -67 -26.5t-46 -70.5q38 -17 60 -47.5t22 -65.5v-172q0 -46 -30 -75t-78 -29t-77.5 28.5t-29.5 75.5q0 46 27.5 73.5t73.5 27.5q8 0 20 -2v73q0 30 -23.5 53t-64.5 30q8 57 38 105
t75.5 76t98.5 28h109q75 0 121.5 -45.5zM176 59.5q13 12.5 13 34.5q0 21 -13 33.5t-34 12.5q-22 0 -34.5 -12.5t-12.5 -33.5q0 -22 12.5 -34.5t34.5 -12.5q21 0 34 12.5z" />
    <glyph glyph-name="uni0E27" unicode="&#xe27;" horiz-adv-x="541" 
d="M421 512q46 -46 46 -121v-295q0 -48 -30 -77t-80 -29t-80 29t-30 77q0 47 29 75t77 28q9 0 21 -2v194q0 38 -20.5 61.5t-54.5 23.5h-91q-38 0 -61.5 -29.5t-23.5 -78.5h-93q0 86 49 138t129 52h91q76 0 122 -46zM391.5 61q12.5 13 12.5 35q0 21 -12.5 34t-34.5 13
t-34.5 -13t-12.5 -34q0 -22 12.5 -35t34.5 -13t34.5 13z" />
    <glyph glyph-name="uni0E28" unicode="&#xe28;" horiz-adv-x="638" 
d="M545 546.5q-18 -22.5 -47 -36.5q65 -46 65 -140v-370h-92v370q0 48 -27 77t-71 29h-106q-47 0 -76 -29t-29 -77v-236h2l53 129q19 45 43 64.5t60 19.5q47 0 75.5 -27t28.5 -72q0 -44 -28 -71.5t-74 -27.5q-21 0 -39.5 8.5t-29.5 22.5l-83 -180h-96v370q0 85 53.5 136.5
t139.5 51.5h106q51 0 73 10t33 38l3 9h92l-2 -10q-9 -36 -27 -58.5zM287 281.5q-13 -12.5 -13 -33.5t13 -34t34 -13t34 13t13 34t-13 33.5t-34 12.5t-34 -12.5z" />
    <glyph glyph-name="uni0E29" unicode="&#xe29;" horiz-adv-x="709" 
d="M700 361l-2 -12q-17 -114 -105 -139v-66q0 -66 -36 -105t-102 -39h-230q-33 0 -52 18.5t-19 50.5v283q-14 -2 -22 -2q-47 0 -76 28.5t-29 75.5q0 48 30 77t80 29t80 -29t30 -77v-372h197q31 0 45 16.5t14 48.5v56h-120q-44 0 -71.5 26.5t-27.5 69.5q0 42 26.5 68t69.5 26
q42 0 68 -25t26 -66q0 -15 -5 -28h34v277h90v-268q31 17 39 66l2 12h66zM102.5 420q12.5 -13 34.5 -13t34.5 13t12.5 34q0 22 -12.5 35t-34.5 13t-34.5 -13t-12.5 -35q0 -21 12.5 -34zM411 268q12 12 12 31t-12 30.5t-31 11.5t-30.5 -11.5t-11.5 -30.5t11.5 -31t30.5 -12
t31 12z" />
    <glyph glyph-name="uni0E2A" unicode="&#xe2a;" horiz-adv-x="594" 
d="M465 509q26 -20 40.5 -50t14.5 -67v-392h-94v63q-4 94 -48.5 148.5t-117.5 54.5q-43 0 -68.5 -20t-27.5 -57q11 3 24 3q45 0 72.5 -27t27.5 -72q0 -46 -29.5 -74.5t-78.5 -28.5t-78.5 28.5t-29.5 74.5v79q0 82 49 128t137 46q55 0 99 -22.5t70 -63.5v131q0 38 -21 61.5
t-55 23.5h-111q-44 0 -70.5 -25t-26.5 -65h-91q0 77 51.5 124.5t136.5 47.5h119q40 0 58.5 10.5t28.5 37.5l4 9h93l-2 -10q-18 -71 -76 -96zM214 127q-13 13 -34 13t-34 -13t-13 -34t13 -34t34 -13t34 13t13 34t-13 34z" />
    <glyph glyph-name="uni0E2B" unicode="&#xe2b;" horiz-adv-x="651" 
d="M575 293v-293h-93v292q0 13 -4 19t-13 6l-218 -317h-93v352q-14 -2 -22 -2q-47 0 -76 28.5t-29 75.5q0 48 30 77t80 29t80 -29t30 -77v-330l174 253q-19 13 -29.5 34.5t-10.5 44.5q0 47 29.5 75.5t78.5 28.5t78.5 -28.5t29.5 -75.5q0 -28 -13.5 -51t-37.5 -36
q29 -23 29 -76zM523 422q13 13 13 34q0 22 -13 35t-34 13t-34 -13t-13 -35q0 -21 12.5 -34t34.5 -13q21 0 34 13zM171.5 420q12.5 13 12.5 34q0 22 -12.5 35t-34.5 13t-34.5 -13t-12.5 -35q0 -21 12.5 -34t34.5 -13t34.5 13z" />
    <glyph glyph-name="uni0E2C" unicode="&#xe2c;" horiz-adv-x="714" 
d="M732 748l-2 -12q-8 -49 -32 -85.5t-60 -57.5v-521q0 -34 -19.5 -53t-54.5 -19h-43l-123 371l-125 -371h-42q-35 0 -55 19t-20 53v281q-11 -3 -24 -3q-47 0 -76 28.5t-29 75.5q0 48 30 77t79 29t79 -29t30 -77v-338h1l130 382h21q10 0 18.5 -7.5t13.5 -21.5l119 -352h2
v453h-4q-52 0 -83.5 28t-31.5 73t29 73t76 28q46 0 73.5 -27.5t27.5 -73.5v-3q21 23 29 69l3 11h63zM569.5 638q12.5 13 12.5 33t-12.5 32.5t-32.5 12.5t-32.5 -12.5t-12.5 -32.5t12.5 -33t32.5 -13t32.5 13zM102 420q13 -13 34 -13q22 0 35 13t13 34q0 22 -13 35t-35 13
q-21 0 -34 -13t-13 -35q0 -21 13 -34z" />
    <glyph glyph-name="uni0E2D" unicode="&#xe2d;" horiz-adv-x="603" 
d="M483 512q46 -46 46 -122v-246q0 -67 -36 -105.5t-103 -38.5h-235q-33 0 -52 18.5t-19 50.5v184q0 46 29.5 74.5t78.5 28.5t78.5 -28.5t29.5 -74.5q0 -45 -27.5 -72t-73.5 -27q-13 0 -23 3v-78h203q32 0 44.5 16.5t12.5 49.5v246q0 38 -20.5 61.5t-54.5 23.5h-129
q-44 0 -70.5 -25t-26.5 -65h-91q0 78 51 125t137 47h129q76 0 122 -46zM158.5 287q-12.5 -13 -12.5 -34t12.5 -33.5t33.5 -12.5t34 12.5t13 33.5t-13 34t-34 13t-33.5 -13z" />
    <glyph glyph-name="uni0E2E" unicode="&#xe2e;" horiz-adv-x="604" 
d="M518.5 469.5q11.5 -31.5 11.5 -69.5v-256q0 -67 -36 -105.5t-102 -38.5h-238q-32 0 -51 18.5t-19 50.5v156q0 46 29 74t78 28t78 -28t29 -74q0 -44 -27.5 -71t-73.5 -27q-8 0 -22 2v-50h207q32 0 45 16t13 49v246q0 19 -4 39h-2q-41 -84 -136 -84h-114q-62 0 -96 28
t-34 78t36.5 78.5t101.5 28.5h190l28 -1l5 38l2 15h80l-2 -17q-3 -39 -9 -72q21 -20 32.5 -51.5zM401 493q-6 3 -25 3h-183q-27 0 -42.5 -12t-15.5 -33q0 -20 14 -31.5t39 -11.5h110q83 0 103 85zM157 259q-13 -13 -13 -34t13 -33.5t34 -12.5t34 12.5t13 33.5t-13 34t-34 13
t-34 -13z" />
    <glyph glyph-name="uni0E2F" unicode="&#xe2f;" horiz-adv-x="555" 
d="M481 550v-368q0 -182 -169 -182h-41v82h41q76 0 76 100v180q-23 -31 -65 -48.5t-91 -17.5q-61 0 -108.5 19.5t-73.5 54.5t-26 81q0 50 30.5 80t80.5 30q49 0 78.5 -29t29.5 -77q0 -53 -43 -81q16 -4 41 -4q69 0 109.5 48t42.5 132h88zM99 490q-13 -13 -13 -35
q0 -21 13 -34.5t35 -13.5q21 0 34 13.5t13 34.5q0 22 -12.5 35t-34.5 13t-35 -13z" />
    <glyph glyph-name="uni0E30" unicode="&#xe30;" horiz-adv-x="508" 
d="M98 340q-54 37 -54 100q0 46 29.5 74.5t77.5 28.5q47 0 76.5 -28.5t29.5 -74.5q0 -20 -8.5 -37t-23.5 -28q8 -1 26 -1q57 0 92 42.5t41 119.5h85q-5 -111 -64.5 -172t-160.5 -61q-92 0 -146 37zM118 473.5q-13 -12.5 -13 -33.5q0 -20 13 -32.5t33 -12.5t33 12.5t13 32.5
q0 21 -13 33.5t-33 12.5t-33 -12.5zM343 118.5q35 42.5 41 119.5h85q-5 -111 -64.5 -172t-160.5 -61q-92 0 -146 37t-54 100q0 46 29.5 74.5t77.5 28.5q47 0 76.5 -28.5t29.5 -74.5q0 -20 -8.5 -37t-23.5 -28q8 -1 26 -1q57 0 92 42.5zM184 109.5q13 12.5 13 32.5
q0 21 -13 33.5t-33 12.5t-33 -12.5t-13 -33.5q0 -20 13 -32.5t33 -12.5t33 12.5z" />
    <glyph glyph-name="uni0E31" unicode="&#xe31;" 
d="M-315.5 667.5q-55.5 34.5 -55.5 95.5q0 44 28 70.5t74 26.5t73.5 -26t27.5 -70q0 -17 -8 -33t-22 -25l1 -1q13 -3 39 -3q65 0 101 39.5t37 112.5h82q-1 -104 -61.5 -162.5t-164.5 -58.5q-96 0 -151.5 34.5zM-237 730.5q12 12.5 12 32.5t-12 32.5t-32 12.5t-32.5 -12.5
t-12.5 -32.5t12.5 -32.5t32.5 -12.5t32 12.5z" />
    <glyph glyph-name="uni0E32" unicode="&#xe32;" horiz-adv-x="526" 
d="M359 391q0 38 -21 61.5t-55 23.5h-75q-39 0 -63 -30t-24 -79h-91q0 86 49 138.5t129 52.5h75q76 0 122.5 -46t46.5 -121v-391h-93v391z" />
    <glyph glyph-name="uni0E33" unicode="&#xe33;" horiz-adv-x="526" 
d="M-215 665.5q-32 30.5 -32 81.5q0 50 32 81t84 31t84 -31t32 -81q0 -51 -32 -81.5t-84 -30.5t-84 30.5zM-92 708.5q15 14.5 15 38.5q0 23 -15 37.5t-39 14.5t-39 -14.5t-15 -37.5q0 -24 15 -38.5t39 -14.5t39 14.5zM359 391q0 38 -21 61.5t-55 23.5h-75q-39 0 -63 -30
t-24 -79h-91q0 86 49 138.5t129 52.5h75q76 0 122.5 -46t46.5 -121v-391h-93v391z" />
    <glyph glyph-name="uni0E34" unicode="&#xe34;" 
d="M-288 670q-94 10 -239 10q16 86 78 136t151 50q67 0 118 -29.5t78.5 -83.5t27.5 -126q-120 33 -214 43zM-206.5 776q-37.5 26 -95.5 26q-45 0 -77.5 -17.5t-47.5 -50.5q67 2 137.5 -5.5t128.5 -22.5q-8 44 -45.5 70z" />
    <glyph glyph-name="uni0E35" unicode="&#xe35;" 
d="M-74 905v-278q-120 33 -214 43t-239 10q16 86 76 136t148 50q45 0 81.5 -14.5t60.5 -40.5v94h87zM-289.5 728.5q70.5 -7.5 128.5 -22.5q-8 44 -45.5 70t-95.5 26q-45 0 -77.5 -17.5t-47.5 -50.5q67 2 137.5 -5.5z" />
    <glyph glyph-name="uni0E36" unicode="&#xe36;" 
d="M-50 774.5q-19 -23.5 -52 -30.5q29 -49 28 -117q-120 33 -213.5 43t-237.5 10q15 86 75.5 136t149.5 50q50 0 82 -16q6 34 30.5 54t61.5 20q43 0 69 -25.5t26 -66.5q0 -34 -19 -57.5zM-95.5 801q11.5 12 11.5 31t-11.5 30.5t-30.5 11.5t-30.5 -11.5t-11.5 -30.5t11.5 -31
t30.5 -12t30.5 12zM-290.5 728.5q69.5 -7.5 128.5 -22.5q-8 44 -46 70t-94 26q-45 0 -77.5 -17.5t-47.5 -50.5q67 2 136.5 -5.5z" />
    <glyph glyph-name="uni0E37" unicode="&#xe37;" 
d="M-74 905v-277q-120 32 -214.5 42t-238.5 10q17 86 73 134.5t141 48.5q17 0 25 -2v44h79v-64q34 -17 54 -40v104h81zM-289.5 728.5q70.5 -7.5 128.5 -22.5q-8 44 -48.5 70t-98.5 26q-88 0 -119 -68q67 2 137.5 -5.5z" />
    <glyph glyph-name="uni0E38" unicode="&#xe38;" 
d="M-103 -95q29 -28 29 -74v-193h-92v95q-12 -2 -18 -2q-46 0 -74 27.5t-28 72.5q0 46 29 74t78 28q47 0 76 -28zM-214 -202.5q13 -12.5 34 -12.5t34 12.5t13 33.5t-13 34t-34 13t-34 -13t-13 -34t13 -33.5z" />
    <glyph glyph-name="uni0E39" unicode="&#xe39;" 
d="M-74 -70v-214q0 -36 -21 -56t-58 -20h-142q-34 0 -34 32v67q-14 -2 -21 -2q-45 0 -72.5 26.5t-27.5 70.5t28.5 71.5t74.5 27.5t74 -27.5t28 -71.5v-126h68q19 0 19 21v201h84zM-380.5 -199q12.5 -12 33.5 -12q20 0 32.5 12t12.5 33q0 20 -12.5 32.5t-32.5 12.5
q-21 0 -33.5 -12.5t-12.5 -32.5q0 -21 12.5 -33z" />
    <glyph glyph-name="uni0E3A" unicode="&#xe3a;" 
d="M-168 -178.5q-18 17.5 -18 46.5t18 47t47 18t47 -18t18 -47t-18 -46.5t-47 -17.5t-47 17.5z" />
    <glyph glyph-name="uni0E3F" unicode="&#xe3f;" horiz-adv-x="671" 
d="M603.5 316.5q29.5 -37.5 29.5 -86.5v-50q0 -82 -54.5 -131t-147.5 -49h-57v-107h-93v107h-131q-34 0 -55 20.5t-21 54.5v625h207v107h93v-107h13q91 0 146.5 -43.5t55.5 -115.5v-52q0 -36 -16.5 -68t-46.5 -52v-1q48 -14 77.5 -51.5zM169 393h232q42 0 67.5 26.5
t25.5 70.5v46q0 36 -30 58t-78 22h-217v-223zM538 230q0 37 -27 60t-71 23h-271v-229h252q54 0 85.5 27t31.5 72v47z" />
    <glyph glyph-name="uni0E40" unicode="&#xe40;" horiz-adv-x="321" 
d="M266 171.5q29 -28.5 29 -75.5t-30.5 -76t-80.5 -29t-80 29t-30 76v454h93v-352q14 2 22 2q48 0 77 -28.5zM219 62q13 13 13 34q0 22 -13 34.5t-35 12.5q-21 0 -34 -12.5t-13 -34.5q0 -21 13 -34t34 -13q22 0 35 13z" />
    <glyph glyph-name="uni0E41" unicode="&#xe41;" horiz-adv-x="604" 
d="M266 171.5q29 -28.5 29 -75.5t-30.5 -76t-80.5 -29t-80 29t-30 76v455h93v-353q14 2 22 2q48 0 77 -28.5zM548 171.5q29 -28.5 29 -75.5t-30 -76t-80 -29q-49 0 -79.5 29t-30.5 76v455h93v-353q14 2 22 2q47 0 76 -28.5zM219 62q13 13 13 34q0 22 -13 34.5t-35 12.5
q-21 0 -34 -12.5t-13 -34.5q0 -21 13 -34t34 -13q22 0 35 13zM501.5 62q12.5 13 12.5 34q0 22 -12.5 34.5t-34.5 12.5t-34.5 -12.5t-12.5 -34.5q0 -21 12.5 -34t34.5 -13t34.5 13z" />
    <glyph glyph-name="uni0E42" unicode="&#xe42;" horiz-adv-x="407" 
d="M88.5 845.5q-19.5 -19.5 -21.5 -54.5q65 -22 114 -49t72 -54v-490q12 2 21 2q48 0 77 -28.5t29 -75.5t-30.5 -76t-80.5 -29q-49 0 -79.5 29t-30.5 76v563q-29 24 -77 46.5t-107 38.5q0 96 43.5 148t123.5 52q26 0 46 -6t47 -17q21 -10 37.5 -15t34.5 -5q47 0 81 36v-82
q-15 -15 -36.5 -23.5t-44.5 -8.5t-41.5 5.5t-44.5 16.5q-23 10 -41 15t-38 5q-34 0 -53.5 -19.5zM304 130.5q-13 12.5 -35 12.5q-21 0 -34 -12.5t-13 -34.5q0 -21 13 -34t34 -13q22 0 35 13t13 34q0 22 -13 34.5z" />
    <glyph glyph-name="uni0E43" unicode="&#xe43;" horiz-adv-x="422" 
d="M367 171.5q29 -28.5 29 -75.5t-30.5 -76t-80.5 -29q-49 0 -79.5 29t-30.5 76v466q0 21 10 38.5t31 44.5q27 34 40.5 60t13.5 62v28q0 38 -22.5 62t-59.5 24h-31q-65 0 -86 -46l1 -1q14 7 31 7q41 0 66.5 -25.5t25.5 -68.5q0 -44 -28.5 -71.5t-75.5 -27.5t-76 29.5
t-29 77.5v36q0 73 47 116.5t124 43.5h36q73 0 117.5 -43t44.5 -114v-28q0 -43 -14 -72.5t-39 -64.5q-18 -24 -26 -40t-8 -34v-357q14 2 22 2q48 0 77 -28.5zM58.5 779q-12.5 -12 -12.5 -32t12.5 -32.5t32.5 -12.5t32.5 12.5t12.5 32.5t-12.5 32t-32.5 12t-32.5 -12zM320 62
q13 13 13 34q0 22 -13 34.5t-35 12.5q-21 0 -34 -12.5t-13 -34.5q0 -21 13 -34t34 -13q22 0 35 13z" />
    <glyph glyph-name="uni0E44" unicode="&#xe44;" horiz-adv-x="440" 
d="M384 171.5q29 -28.5 29 -75.5t-30 -76t-80 -29q-49 0 -79.5 29t-30.5 76v743l-106 -142h-16q-13 0 -20.5 6t-15.5 19l-124 217h85l80 -146l113 151h16q81 0 81 -77v-669q14 2 22 2q47 0 76 -28.5zM337.5 62q12.5 13 12.5 34q0 22 -12.5 34.5t-34.5 12.5t-34.5 -12.5
t-12.5 -34.5q0 -21 12.5 -34t34.5 -13t34.5 13z" />
    <glyph glyph-name="uni0E45" unicode="&#xe45;" horiz-adv-x="526" 
d="M359 391q0 38 -21 61.5t-55 23.5h-75q-39 0 -63 -30t-24 -79h-91q0 86 49 138.5t129 52.5h75q76 0 122.5 -46t46.5 -121v-591h-93v591z" />
    <glyph glyph-name="uni0E46" unicode="&#xe46;" horiz-adv-x="561" 
d="M457.5 520.5q29.5 -37.5 29.5 -110.5v-476q0 -93 -39.5 -137.5t-122.5 -44.5h-42v82h42q35 0 51.5 24t16.5 76v478q0 67 -27 67h-10l-78 -79l-79 80h-11q-23 0 -39 -21.5t-20 -60.5q12 4 29 4q46 0 75 -28.5t29 -74.5q0 -47 -29.5 -76t-78.5 -29q-50 0 -80 31.5t-30 85.5
v30q0 103 39 160t110 57h19l67 -71l66 71h27q56 0 85.5 -37.5zM188 333q-13 13 -34 13q-22 0 -35 -13t-13 -34q0 -22 13 -35t35 -13q21 0 34 13t13 35q0 21 -13 34z" />
    <glyph glyph-name="uni0E47" unicode="&#xe47;" 
d="M-102.5 775.5q23.5 -22.5 23.5 -58.5q0 -38 -26.5 -60.5t-69.5 -22.5q-47 0 -84 16t-59 46l-30 -58h-21q-56 0 -89 32.5t-33 88.5q0 64 41.5 96.5t122.5 32.5h109q59 0 59 71h75q0 -68 -32 -100t-96 -32h-115q-46 0 -67 -17t-21 -52q0 -25 11.5 -41t28.5 -16h4l41 77h33
q7 -32 19.5 -50t33.5 -25q-2 10 -2 16q0 35 22.5 57t59.5 22q38 0 61.5 -22.5zM-138 691q10 10 10 26t-10 26t-26 10t-26 -10t-10 -26t9.5 -26t26.5 -10q16 0 26 10z" />
    <glyph glyph-name="uni0E48" unicode="&#xe48;" 
d="M-166 843h92v-205h-92v205z" />
    <glyph glyph-name="uni0E49" unicode="&#xe49;" 
d="M4 867q-8 -112 -75.5 -173t-184.5 -61q-82 0 -129 10v42q77 3 103 34q-12 -2 -18 -2q-38 0 -61.5 22t-23.5 58q0 39 25.5 63t66.5 24t66.5 -24t25.5 -63q0 -27 -8.5 -53t-23.5 -46v-1q70 5 109.5 48.5t47.5 121.5h80zM-321.5 770q10.5 -10 27.5 -10t28 10t11 27t-11 27.5
t-28 10.5t-27.5 -10.5t-10.5 -27.5t10.5 -27z" />
    <glyph glyph-name="uni0E4A" unicode="&#xe4a;" 
d="M-3 855q0 -113 -33 -165t-108 -52h-56l-14 33q13 21 20 44.5t7 44.5q0 26 -6 42.5t-15 16.5h-2l-59 -67l-64 68h-8q-41 0 -61 -29q4 1 13 1q38 0 60 -21t22 -56q0 -38 -23.5 -60.5t-62.5 -22.5t-63 26t-24 67q0 70 41.5 112t109.5 42h13l47 -55l48 55h16q38 0 62 -32
t24 -84q0 -17 -4 -35t-11 -30l1 -1q34 1 49 40t15 118h66zM-367 741q-10 10 -27 10t-27 -10t-10 -26t10 -26.5t27 -10.5q16 0 26.5 10.5t10.5 26.5t-10 26z" />
    <glyph glyph-name="uni0E4B" unicode="&#xe4b;" 
d="M-161 729h-112v71h112v91h82v-91h112v-71h-112v-91h-82v91z" />
    <glyph glyph-name="uni0E4C" unicode="&#xe4c;" 
d="M-8 896q-6 -64 -42 -100t-95 -36h-32q7 -16 7 -31q0 -43 -28 -69.5t-74 -26.5t-74.5 27t-28.5 71q0 45 28 72t75 27h118q26 0 43.5 17.5t22.5 48.5h80zM-239.5 699q12.5 12 12.5 32t-12.5 32.5t-32.5 12.5t-32.5 -12.5t-12.5 -32.5t12.5 -32t32.5 -12t32.5 12z" />
    <glyph glyph-name="uni0E4D" unicode="&#xe4d;" 
d="M-215 665.5q-32 30.5 -32 81.5q0 50 32 81t84 31t84 -31t32 -81q0 -51 -32 -81.5t-84 -30.5t-84 30.5zM-92 708.5q15 14.5 15 38.5q0 23 -15 37.5t-39 14.5t-39 -14.5t-15 -37.5q0 -24 15 -38.5t39 -14.5t39 14.5z" />
    <glyph glyph-name="uni0E4E" unicode="&#xe4e;" 
d="M-195 914q-15 -10 -15 -31q0 -22 19 -35.5t60 -18.5v-54q-46 12 -96 12q-69 0 -69 -47q0 -22 16.5 -33.5t47.5 -11.5q48 0 79 18v-59q-31 -21 -88 -21q-63 0 -98 27.5t-35 75.5q0 88 110 99q-24 21 -24 53q0 46 35 71.5t100 25.5q24 0 49.5 -4.5t43.5 -12.5v-58
q-48 14 -88 14q-32 0 -47 -10z" />
    <glyph glyph-name="uni0E4F" unicode="&#xe4f;" horiz-adv-x="669" 
d="M185.5 27.5q-64.5 35.5 -100 99.5t-35.5 148q0 85 35.5 150t100 100.5t149.5 35.5q84 0 148.5 -35.5t100 -100.5t35.5 -150q0 -84 -35.5 -148t-100 -99.5t-148.5 -35.5q-85 0 -149.5 35.5zM445 90q48 26 74 74t26 111q0 64 -26 112.5t-74 75t-110 26.5q-63 0 -111 -26.5
t-74 -75t-26 -112.5q0 -63 26 -111t74 -74t111 -26q62 0 110 26zM227.5 169.5q-40.5 40.5 -40.5 105.5t40.5 105.5t107.5 40.5t108 -40.5t41 -105.5t-41 -105.5t-108 -40.5t-107.5 40.5zM394 217q22 22 22 58t-22 58t-59 22q-36 0 -58 -22t-22 -58t22 -58t58 -22q37 0 59 22
z" />
    <glyph glyph-name="uni0E50" unicode="&#xe50;" horiz-adv-x="639" 
d="M171 22q-56 30 -86.5 84t-30.5 125v38q0 71 30.5 125t86.5 83.5t129 29.5h40q73 0 128.5 -29.5t86 -83.5t30.5 -125v-38q0 -71 -30.5 -125t-86 -84t-128.5 -30h-40q-73 0 -129 30zM339 73q68 0 110.5 43.5t42.5 114.5v38q0 70 -42.5 113.5t-110.5 43.5h-38
q-69 0 -111.5 -43.5t-42.5 -113.5v-38q0 -71 42.5 -114.5t111.5 -43.5h38z" />
    <glyph glyph-name="uni0E51" unicode="&#xe51;" horiz-adv-x="635" 
d="M280 29h37q80 0 126 53t46 142v44q0 73 -42 115.5t-112 42.5h-38q-71 0 -114.5 -37.5t-43.5 -103.5v-26q0 -43 22 -68t61 -27v1q-20 20 -20 50q0 43 29 69t76 26q49 0 78.5 -28t29.5 -73q0 -55 -40 -86t-111 -31q-104 0 -159 43t-55 125v25q0 68 30.5 118t86.5 77t129 27
h40q73 0 128.5 -29t86 -83t30.5 -127v-44q0 -83 -32 -145t-91.5 -96t-140.5 -34h-37v80zM341 173q13 13 13 34t-13 33.5t-34 12.5t-34 -12.5t-13 -33.5t13 -34t34 -13t34 13z" />
    <glyph glyph-name="uni0E52" unicode="&#xe52;" horiz-adv-x="740" 
d="M644.5 465q31.5 -39 31.5 -114v-167q0 -84 -55 -134t-148 -50h-196q-92 0 -146.5 50t-54.5 133v270q0 75 -19.5 118.5t-64.5 70.5l59 68q64 -42 91 -101t27 -156v-263q0 -50 29.5 -79.5t78.5 -29.5h195q52 0 82.5 29t30.5 78v163q0 73 -33 73h-7l-53 -83h-26
q-11 42 -31.5 65.5t-46.5 23.5h-19q-26 0 -39.5 -18.5t-13.5 -50.5v-12q12 3 26 3q45 0 72.5 -27.5t27.5 -71.5q0 -46 -29 -74t-77 -28q-47 0 -76.5 28t-29.5 74v92q0 77 34.5 119.5t95.5 42.5h22q33 0 59.5 -18.5t42.5 -52.5l44 68h25q60 0 91.5 -39zM370 286.5
q-13 12.5 -34 12.5t-34 -12.5t-13 -33.5t13 -34t34 -13t34 13t13 34t-13 33.5z" />
    <glyph glyph-name="uni0E53" unicode="&#xe53;" horiz-adv-x="663" 
d="M143.5 20q-42.5 30 -66 85t-23.5 126v30q0 73 21 129t59 86.5t88 30.5h22l93 -97l91 97h22q68 0 105.5 -42t37.5 -118v-347h-93v353q0 33 -11.5 51.5t-31.5 18.5h-9l-111 -113l-111 110h-8q-32 0 -52.5 -43.5t-20.5 -115.5v-30q0 -65 18 -98l1 -1q6 28 30 46.5t56 18.5
q48 0 77.5 -28.5t29.5 -75.5q0 -46 -31.5 -74.5t-83.5 -28.5q-56 0 -98.5 30zM283 59q13 13 13 34t-13 34.5t-34 13.5t-34 -13.5t-13 -34.5t13 -34t34 -13t34 13z" />
    <glyph glyph-name="uni0E54" unicode="&#xe54;" horiz-adv-x="631" 
d="M516 104.5q38 -15.5 104 -35.5l-20 -77q-42 15 -69.5 20t-58.5 5q-29 0 -87 -12q-23 -5 -49 -9t-48 -4q-115 0 -174.5 60.5t-59.5 178.5v30q0 111 66.5 174.5t181.5 63.5h92q70 0 103 49t33 152h88q0 -145 -54.5 -213.5t-169.5 -68.5h-92q-72 0 -113.5 -42t-41.5 -115
v-30q0 -81 34.5 -120t106.5 -39q29 0 77 8q42 6 62 6v1q-59 40 -84.5 77t-25.5 83q0 48 30 76.5t78 28.5q49 0 78.5 -28.5t29.5 -74.5q0 -42 -25 -68.5t-66 -29.5q36 -31 74 -46.5zM391 283q-13 -13 -13 -34t13 -34t34 -13t34 13t13 34t-13 34t-34 13t-34 -13z" />
    <glyph glyph-name="uni0E55" unicode="&#xe55;" horiz-adv-x="631" 
d="M516 104.5q38 -15.5 104 -35.5l-20 -77q-42 15 -69.5 20t-58.5 5q-29 0 -87 -12q-23 -5 -49 -9t-48 -4q-115 0 -174.5 60.5t-59.5 178.5v30q0 85 39 142.5t110 80.5q-28 30 -28 74q0 49 32 79.5t84 30.5t84 -30.5t32 -79.5q0 -34 -17 -59h4q70 0 103 49t33 152h88
q0 -145 -54.5 -213.5t-169.5 -68.5h-92q-72 0 -113.5 -42t-41.5 -115v-30q0 -81 34.5 -120t106.5 -39q29 0 77 8q42 6 62 6v1q-59 40 -84.5 77t-25.5 83q0 48 30 76.5t78 28.5q49 0 78.5 -28.5t29.5 -74.5q0 -42 -25 -68.5t-66 -29.5q36 -31 74 -46.5zM254 594
q-14 -14 -14 -36q0 -23 14 -37t37 -14t36.5 14t13.5 37t-13.5 36.5t-36.5 13.5t-37 -14zM391 283q-13 -13 -13 -34t13 -34t34 -13t34 13t13 34t-13 34t-34 13t-34 -13z" />
    <glyph glyph-name="uni0E56" unicode="&#xe56;" horiz-adv-x="643" 
d="M523 443.5q66 -63.5 66 -172.5v-39q0 -74 -31 -128t-87 -83t-130 -29h-40q-66 0 -119 22t-83 61.5t-30 90.5q0 48 30 77.5t79 29.5t78 -28.5t29 -75.5q0 -30 -14 -52t-39 -33q31 -11 69 -11h40q71 0 112.5 42t41.5 118v38q0 71 -40.5 113t-108.5 42h-40q-42 0 -83 -18
t-68 -48h-55q-14 101 -44.5 166.5t-94.5 130.5l66 53q54 -53 88 -113.5t53 -134.5q29 21 67 33t74 12h37q111 0 177 -63.5zM144 203q-13 -13 -13 -34t13 -34t34 -13t34 13t13 34t-13 34t-34 13t-34 -13z" />
    <glyph glyph-name="uni0E57" unicode="&#xe57;" horiz-adv-x="836" 
d="M143.5 20q-42.5 30 -66 85t-23.5 126v30q0 73 21 129t59 86.5t88 30.5h22l85 -97l83 97h22q67 0 104.5 -42t37.5 -118v-265h51q22 0 34.5 18t12.5 49v551h92v-551q0 -70 -35.5 -109.5t-99.5 -39.5h-147v353q0 33 -11.5 51.5t-31.5 18.5h-9l-103 -113l-103 110h-8
q-32 0 -52.5 -43.5t-20.5 -115.5v-30q0 -65 18 -98l1 -1q6 28 30 46.5t56 18.5q48 0 77.5 -28.5t29.5 -75.5q0 -46 -31.5 -74.5t-83.5 -28.5q-56 0 -98.5 30zM283 59q13 13 13 34t-13 34.5t-34 13.5t-34 -13.5t-13 -34.5t13 -34t34 -13t34 13z" />
    <glyph glyph-name="uni0E58" unicode="&#xe58;" horiz-adv-x="691" 
d="M607.5 309.5q29.5 -29.5 29.5 -78.5v-20q0 -65 -21 -114.5t-60 -77t-89 -27.5h-24q-51 0 -92.5 32t-64.5 88l-55 -119q-82 12 -129.5 75t-47.5 159v36q0 71 29.5 124.5t82.5 82.5t123 29h117q53 0 83 19.5t43 62.5t13 119h88q0 -107 -21.5 -168t-70.5 -88t-135 -27h-117
q-65 0 -103.5 -42t-38.5 -112v-39q0 -48 15.5 -85t42.5 -52l74 165h36q10 -86 43.5 -133.5t84.5 -47.5h25q30 0 49.5 17.5t28.5 48.5q-12 -2 -22 -2q-46 0 -74 28t-28 73q0 47 29 75t78 28t78.5 -29.5zM495.5 202q12.5 -13 33.5 -13t34.5 13t13.5 34t-13.5 34t-34.5 13
t-33.5 -13t-12.5 -34t12.5 -34z" />
    <glyph glyph-name="uni0E59" unicode="&#xe59;" horiz-adv-x="731" 
d="M727 700v-90q0 -105 -10.5 -168.5t-36 -95t-69.5 -31.5h-10q-37 0 -59.5 21.5t-48.5 62.5q-15 25 -26 37.5t-25 12.5h-11q-12 0 -23 -11t-15 -26q9 -86 61.5 -156t134.5 -117l-48 -69q-85 47 -144 122t-80 167q-7 30 -23 44t-43 14h-20q-37 0 -59.5 -40t-22.5 -108v-28
q0 -63 22 -105q9 29 32.5 45t56.5 16q49 0 78.5 -28.5t29.5 -74.5q0 -47 -32.5 -75.5t-83.5 -28.5q-56 0 -100.5 31.5t-69.5 88.5t-25 130v29q0 105 46 167.5t123 62.5h28q51 0 84 -31q15 29 37.5 45.5t49.5 16.5h14q41 0 63.5 -22t46.5 -63q13 -24 23 -36t23 -12h7
q22 0 30 50t8 163v90h87zM225.5 128q-13.5 -13 -13.5 -34t13.5 -34t34.5 -13t33.5 13t12.5 34t-12.5 34t-33.5 13t-34.5 -13z" />
    <glyph glyph-name="uni0E5A" unicode="&#xe5a;" horiz-adv-x="773" 
d="M699 550v-550h-92v382q-23 -27 -57 -46.5t-69 -24.5v-129q0 -182 -169 -182h-41v82h41q76 0 76 100v180q-23 -31 -65 -48.5t-91 -17.5q-61 0 -108.5 19.5t-73.5 54.5t-26 81q0 50 30.5 80t80.5 30q49 0 78.5 -29t29.5 -77q0 -53 -43 -81q16 -4 41 -4q69 0 109.5 48
t42.5 132h88v-160q56 8 91 51.5t37 108.5h90zM99 490q-13 -13 -13 -35q0 -21 13 -34.5t35 -13.5q21 0 34 13.5t13 34.5q0 22 -12.5 35t-34.5 13t-35 -13z" />
    <glyph glyph-name="uni0E5B" unicode="&#xe5b;" horiz-adv-x="1202" 
d="M1178 321v-58q-23 -13 -56 -13q-20 0 -37 6t-27 16q-7 -25 -21 -49t-30 -37h-32q-2 34 -10 63.5t-19 43.5q-2 -36 -14 -76.5t-29 -68.5h-44q-1 43 -11 86t-25 68q-2 -44 -16 -99.5t-33 -99.5h-54q0 64 -13 123.5t-35 93.5q1 -151 -85 -235t-240 -84q-93 0 -161.5 36
t-105 102.5t-36.5 156.5q0 81 33 142.5t93.5 95.5t139.5 34q72 0 126.5 -29t84.5 -82t30 -123q0 -86 -48.5 -136.5t-131.5 -50.5q-78 0 -125.5 39.5t-47.5 103.5q0 49 30 79t79 30t78.5 -29t29.5 -78q0 -27 -12.5 -47.5t-34.5 -32.5q5 -1 16 -1q43 0 67.5 32.5t24.5 90.5
q0 73 -45 115.5t-120 42.5q-84 0 -133.5 -53t-49.5 -143q0 -103 58 -161t161 -58q122 0 190 68.5t68 189.5q0 33 -5.5 72t-15.5 71h55q44 -44 78.5 -105t44.5 -115q7 34 7 82q0 54 -8 87h39q33 -30 58.5 -74.5t32.5 -82.5q8 34 8 74q0 28 -5 55h33q26 -22 48 -55.5t31 -65.5
q6 9 9.5 28t3.5 41v12h41q8 -27 23 -39t41 -12q31 0 54 13zM271 256q14 -14 36 -14q23 0 36.5 14t13.5 36q0 23 -13.5 37t-36.5 14t-36.5 -14t-13.5 -37q0 -22 14 -36z" />
    <glyph glyph-name="uni1E0C" unicode="&#x1e0c;" horiz-adv-x="683" 
d="M94.5 20q-20.5 20 -20.5 55v625h305q76 0 133.5 -29t89 -82.5t31.5 -122.5v-212q0 -125 -63.5 -189.5t-186.5 -64.5h-233q-35 0 -55.5 20zM380 85q78 0 118 43t40 128v208q0 68 -44.5 109.5t-117.5 41.5h-207v-530h211zM306 -177.5q-18 17.5 -18 45.5t17.5 46t46.5 18
t46.5 -18t17.5 -46t-18 -45.5t-46 -17.5t-46 17.5z" />
    <glyph glyph-name="uni1E0D" unicode="&#x1e0d;" horiz-adv-x="587" 
d="M100.5 45q-50.5 53 -50.5 140v118q0 60 24 106.5t67.5 72t100.5 25.5h68q32 0 63 -15t50 -40v248h94v-700h-89v71q-22 -35 -58 -57t-72 -22h-65q-82 0 -132.5 53zM302 74q47 0 82 38.5t39 91.5v113q-7 49 -36.5 78.5t-70.5 29.5h-67q-47 0 -76.5 -34.5t-29.5 -91.5v-111
q0 -51 27.5 -82.5t69.5 -31.5h62zM243 -177.5q-18 17.5 -18 45.5t17.5 46t46.5 18t46.5 -18t17.5 -46t-18 -45.5t-46 -17.5t-46 17.5z" />
    <glyph glyph-name="uni1E0E" unicode="&#x1e0e;" horiz-adv-x="683" 
d="M94.5 20q-20.5 20 -20.5 55v625h305q76 0 133.5 -29t89 -82.5t31.5 -122.5v-212q0 -125 -63.5 -189.5t-186.5 -64.5h-233q-35 0 -55.5 20zM380 85q78 0 118 43t40 128v208q0 68 -44.5 109.5t-117.5 41.5h-207v-530h211zM214 -77h277v-70h-277v70z" />
    <glyph glyph-name="uni1E0F" unicode="&#x1e0f;" horiz-adv-x="587" 
d="M100.5 45q-50.5 53 -50.5 140v118q0 60 24 106.5t67.5 72t100.5 25.5h68q32 0 63 -15t50 -40v248h94v-700h-89v71q-22 -35 -58 -57t-72 -22h-65q-82 0 -132.5 53zM302 74q47 0 82 38.5t39 91.5v113q-7 49 -36.5 78.5t-70.5 29.5h-67q-47 0 -76.5 -34.5t-29.5 -91.5v-111
q0 -51 27.5 -82.5t69.5 -31.5h62zM151 -77h277v-70h-277v70z" />
    <glyph glyph-name="uni1E20" unicode="&#x1e20;" horiz-adv-x="693" 
d="M167.5 24q-54.5 32 -84 90.5t-29.5 135.5v200q0 77 30.5 135.5t85.5 90.5t127 32h108q69 0 122 -28.5t82 -81t29 -120.5h-93q0 65 -38.5 105t-101.5 40h-108q-66 0 -107 -48t-41 -127v-196q0 -79 39.5 -127t104.5 -48h112q64 0 104.5 45t40.5 116v48h-194v83h287v-131
q0 -72 -30 -128t-84 -87t-124 -31h-112q-71 0 -125.5 32zM212 859h277v-70h-277v70z" />
    <glyph glyph-name="uni1E21" unicode="&#x1e21;" horiz-adv-x="587" 
d="M125.5 -164q-46.5 39 -51.5 102h93q3 -27 24 -44t52 -17h85q45 0 70.5 31.5t25.5 86.5v67q-22 -27 -55 -44t-63 -17h-72q-54 0 -96 24t-65 68t-23 101v112q0 59 24.5 105t68.5 71t101 25h66q32 0 66 -17.5t53 -44.5v54h88v-504q0 -92 -50.5 -145t-138.5 -53h-85
q-71 0 -117.5 39zM309 82q46 0 78.5 37t36.5 95v105q-4 47 -34 76.5t-72 29.5h-69q-47 0 -76.5 -33.5t-29.5 -88.5v-106q0 -51 27 -83t68 -32h71zM146 658h277v-70h-277v70z" />
    <glyph glyph-name="uni1E24" unicode="&#x1e24;" horiz-adv-x="705" 
d="M74 700h95v-306h366v306h96v-700h-96v310h-366v-310h-95v700zM305 -177.5q-18 17.5 -18 45.5t17.5 46t46.5 18t46.5 -18t17.5 -46t-18 -45.5t-46 -17.5t-46 17.5z" />
    <glyph glyph-name="uni1E25" unicode="&#x1e25;" horiz-adv-x="583" 
d="M70 700h93v-264q23 32 58 51.5t69 19.5h68q72 0 116.5 -48t44.5 -126v-333h-93v333q0 41 -21 66.5t-55 25.5h-64q-43 0 -78 -32.5t-45 -84.5v-308h-93v700zM251 -177.5q-18 17.5 -18 45.5t17.5 46t46.5 18t46.5 -18t17.5 -46t-18 -45.5t-46 -17.5t-46 17.5z" />
    <glyph glyph-name="uni1E2A" unicode="&#x1e2a;" horiz-adv-x="705" 
d="M74 700h95v-306h366v306h96v-700h-96v310h-366v-310h-95v700zM236 -175q-41 38 -41 100v12h74v-12q0 -34 21 -54.5t55 -20.5h12q34 0 55 20.5t21 54.5v12h74v-12q0 -62 -41 -100t-109 -38h-12q-68 0 -109 38z" />
    <glyph glyph-name="uni1E2B" unicode="&#x1e2b;" horiz-adv-x="583" 
d="M70 700h93v-264q23 32 58 51.5t69 19.5h68q72 0 116.5 -48t44.5 -126v-333h-93v333q0 41 -21 66.5t-55 25.5h-64q-43 0 -78 -32.5t-45 -84.5v-308h-93v700zM182 -175q-41 38 -41 100v12h74v-12q0 -34 21 -54.5t55 -20.5h12q34 0 55 20.5t21 54.5v12h74v-12
q0 -62 -41 -100t-109 -38h-12q-68 0 -109 38z" />
    <glyph glyph-name="uni1E36" unicode="&#x1e36;" horiz-adv-x="569" 
d="M94.5 20q-20.5 20 -20.5 54v626h95v-616h380v-84h-399q-35 0 -55.5 20zM269 -177.5q-18 17.5 -18 45.5t17.5 46t46.5 18t46.5 -18t17.5 -46t-18 -45.5t-46 -17.5t-46 17.5z" />
    <glyph glyph-name="uni1E37" unicode="&#x1e37;" horiz-adv-x="277" 
d="M105 33.5q-35 33.5 -35 108.5v558h93v-555q0 -34 14 -49t46 -15h40v-81h-44q-79 0 -114 33.5zM119 -177.5q-18 17.5 -18 45.5t17.5 46t46.5 18t46.5 -18t17.5 -46t-18 -45.5t-46 -17.5t-46 17.5z" />
    <glyph glyph-name="uni1E38" unicode="&#x1e38;" horiz-adv-x="569" 
d="M94.5 20q-20.5 20 -20.5 54v626h95v-616h380v-84h-399q-35 0 -55.5 20zM269 -177.5q-18 17.5 -18 45.5t17.5 46t46.5 18t46.5 -18t17.5 -46t-18 -45.5t-46 -17.5t-46 17.5zM-16 859h277v-70h-277v70z" />
    <glyph glyph-name="uni1E39" unicode="&#x1e39;" horiz-adv-x="277" 
d="M105 33.5q-35 33.5 -35 108.5v558h93v-555q0 -34 14 -49t46 -15h40v-81h-44q-79 0 -114 33.5zM119 -177.5q-18 17.5 -18 45.5t17.5 46t46.5 18t46.5 -18t17.5 -46t-18 -45.5t-46 -17.5t-46 17.5zM-21 859h277v-70h-277v70z" />
    <glyph glyph-name="uni1E3A" unicode="&#x1e3a;" horiz-adv-x="569" 
d="M94.5 20q-20.5 20 -20.5 54v626h95v-616h380v-84h-399q-35 0 -55.5 20zM177 -77h277v-70h-277v70z" />
    <glyph glyph-name="uni1E3B" unicode="&#x1e3b;" horiz-adv-x="277" 
d="M105 33.5q-35 33.5 -35 108.5v558h93v-555q0 -34 14 -49t46 -15h40v-81h-44q-79 0 -114 33.5zM27 -77h277v-70h-277v70z" />
    <glyph glyph-name="uni1E42" unicode="&#x1e42;" horiz-adv-x="804" 
d="M74 700h88l243 -449l237 449h88v-700h-93v522l-184 -344q-12 -22 -22.5 -31t-24.5 -9h-27l-211 384v-522h-94v700zM357 -177.5q-18 17.5 -18 45.5t17.5 46t46.5 18t46.5 -18t17.5 -46t-18 -45.5t-46 -17.5t-46 17.5z" />
    <glyph glyph-name="uni1E43" unicode="&#x1e43;" horiz-adv-x="840" 
d="M735 462.5q41 -44.5 41 -121.5v-341h-93v342q0 38 -18 60.5t-47 22.5h-52q-38 0 -63.5 -26.5t-32.5 -72.5v-326h-94v338q0 41 -16.5 64t-44.5 23h-51q-38 0 -66 -32.5t-35 -85.5v-307h-93v499h89v-67q20 35 49.5 55t60.5 20h58q40 0 69.5 -20t46.5 -57q22 38 54 57.5
t69 19.5h59q69 0 110 -44.5zM377 -177.5q-18 17.5 -18 45.5t17.5 46t46.5 18t46.5 -18t17.5 -46t-18 -45.5t-46 -17.5t-46 17.5z" />
    <glyph glyph-name="uni1E44" unicode="&#x1e44;" horiz-adv-x="699" 
d="M74 700h88l370 -547v547h93v-700h-87l-371 545v-545h-93v700zM303.5 792q-17.5 18 -17.5 46t17.5 45.5t46.5 17.5t46.5 -17.5t17.5 -45.5t-17.5 -46t-46.5 -18t-46.5 18z" />
    <glyph glyph-name="uni1E45" unicode="&#x1e45;" horiz-adv-x="581" 
d="M70 499h89v-69q22 34 58.5 55.5t72.5 21.5h66q72 0 116.5 -48t44.5 -126v-333h-93v333q0 41 -21 66.5t-55 25.5h-62q-43 0 -78 -33t-45 -86v-306h-93v499zM251.5 591q-17.5 18 -17.5 46t17.5 45.5t46.5 17.5t46.5 -17.5t17.5 -45.5t-17.5 -46t-46.5 -18t-46.5 18z" />
    <glyph glyph-name="uni1E46" unicode="&#x1e46;" horiz-adv-x="699" 
d="M74 700h88l370 -547v547h93v-700h-87l-371 545v-545h-93v700zM304 -177.5q-18 17.5 -18 45.5t17.5 46t46.5 18t46.5 -18t17.5 -46t-18 -45.5t-46 -17.5t-46 17.5z" />
    <glyph glyph-name="uni1E47" unicode="&#x1e47;" horiz-adv-x="581" 
d="M70 499h89v-69q22 34 58.5 55.5t72.5 21.5h66q72 0 116.5 -48t44.5 -126v-333h-93v333q0 41 -21 66.5t-55 25.5h-62q-43 0 -78 -33t-45 -86v-306h-93v499zM246 -177.5q-18 17.5 -18 45.5t17.5 46t46.5 18t46.5 -18t17.5 -46t-18 -45.5t-46 -17.5t-46 17.5z" />
    <glyph glyph-name="uni1E48" unicode="&#x1e48;" horiz-adv-x="699" 
d="M74 700h88l370 -547v547h93v-700h-87l-371 545v-545h-93v700zM212 -77h277v-70h-277v70z" />
    <glyph glyph-name="uni1E49" unicode="&#x1e49;" horiz-adv-x="581" 
d="M70 499h89v-69q22 34 58.5 55.5t72.5 21.5h66q72 0 116.5 -48t44.5 -126v-333h-93v333q0 41 -21 66.5t-55 25.5h-62q-43 0 -78 -33t-45 -86v-306h-93v499zM154 -77h277v-70h-277v70z" />
    <glyph glyph-name="uni1E5A" unicode="&#x1e5a;" horiz-adv-x="659" 
d="M74 700h351q81 0 130.5 -45.5t49.5 -119.5v-72q0 -52 -32.5 -92t-88.5 -58v-1q59 -35 88 -128l55 -184h-98l-54 180q-14 47 -44.5 74t-69.5 27h-192v-281h-95v700zM399 365q50 0 80.5 27t30.5 71v73q0 36 -24 58t-63 22h-254v-251h230zM295 -177.5q-18 17.5 -18 45.5
t17.5 46t46.5 18t46.5 -18t17.5 -46t-18 -45.5t-46 -17.5t-46 17.5z" />
    <glyph glyph-name="uni1E5B" unicode="&#x1e5b;" horiz-adv-x="364" 
d="M70 499h89v-73q20 33 58.5 54t80.5 21h52v-83h-52q-61 0 -98 -37.5t-37 -98.5v-282h-93v499zM71 -177.5q-18 17.5 -18 45.5t17.5 46t46.5 18t46.5 -18t17.5 -46t-18 -45.5t-46 -17.5t-46 17.5z" />
    <glyph glyph-name="uni1E5C" unicode="&#x1e5c;" horiz-adv-x="659" 
d="M74 700h351q81 0 130.5 -45.5t49.5 -119.5v-72q0 -52 -32.5 -92t-88.5 -58v-1q59 -35 88 -128l55 -184h-98l-54 180q-14 47 -44.5 74t-69.5 27h-192v-281h-95v700zM399 365q50 0 80.5 27t30.5 71v73q0 36 -24 58t-63 22h-254v-251h230zM295 -177.5q-18 17.5 -18 45.5
t17.5 46t46.5 18t46.5 -18t17.5 -46t-18 -45.5t-46 -17.5t-46 17.5zM188 859h277v-70h-277v70z" />
    <glyph glyph-name="uni1E5D" unicode="&#x1e5d;" horiz-adv-x="364" 
d="M70 499h89v-73q20 33 58.5 54t80.5 21h52v-83h-52q-61 0 -98 -37.5t-37 -98.5v-282h-93v499zM71 -177.5q-18 17.5 -18 45.5t17.5 46t46.5 18t46.5 -18t17.5 -46t-18 -45.5t-46 -17.5t-46 17.5zM67 658h277v-70h-277v70z" />
    <glyph glyph-name="uni1E5E" unicode="&#x1e5e;" horiz-adv-x="659" 
d="M74 700h351q81 0 130.5 -45.5t49.5 -119.5v-72q0 -52 -32.5 -92t-88.5 -58v-1q59 -35 88 -128l55 -184h-98l-54 180q-14 47 -44.5 74t-69.5 27h-192v-281h-95v700zM399 365q50 0 80.5 27t30.5 71v73q0 36 -24 58t-63 22h-254v-251h230zM203 -77h277v-70h-277v70z" />
    <glyph glyph-name="uni1E5F" unicode="&#x1e5f;" horiz-adv-x="364" 
d="M70 499h89v-73q20 33 58.5 54t80.5 21h52v-83h-52q-61 0 -98 -37.5t-37 -98.5v-282h-93v499zM-21 -77h277v-70h-277v70z" />
    <glyph glyph-name="uni1E60" unicode="&#x1e60;" horiz-adv-x="637" 
d="M108 50q-58 58 -58 156h93q0 -59 33.5 -94t88.5 -35h111q55 0 88 23.5t33 62.5v54q0 31 -23.5 52t-66.5 28l-182 30q-80 13 -123.5 55t-43.5 105v55q0 75 57.5 120.5t151.5 45.5h113q59 0 104.5 -24.5t70.5 -69t25 -102.5h-94q0 50 -29 80.5t-77 30.5h-113
q-51 0 -82.5 -22.5t-31.5 -61.5v-45q0 -32 22.5 -53t64.5 -29l180 -31q83 -14 127.5 -54.5t44.5 -101.5v-65q0 -76 -58.5 -122t-155.5 -46h-115q-97 0 -155 58zM274.5 792q-17.5 18 -17.5 46t17.5 45.5t46.5 17.5t46.5 -17.5t17.5 -45.5t-17.5 -46t-46.5 -18t-46.5 18z" />
    <glyph glyph-name="uni1E61" unicode="&#x1e61;" horiz-adv-x="530" 
d="M94 36.5q-49 44.5 -49 117.5h91q0 -37 24 -60t64 -23h88q38 0 61 14.5t23 38.5v29q0 16 -13.5 28.5t-34.5 16.5l-173 30q-55 10 -88 41.5t-33 73.5v33q0 59 47 95t126 36h84q75 0 120.5 -41t45.5 -109h-91q-1 32 -21.5 51.5t-53.5 19.5h-83q-37 0 -58.5 -15t-21.5 -40
v-25q0 -16 14 -28t36 -17l175 -31q52 -9 84.5 -40t32.5 -72v-39q0 -58 -49 -93.5t-129 -35.5h-88q-81 0 -130 44.5zM219.5 591q-17.5 18 -17.5 46t17.5 45.5t46.5 17.5t46.5 -17.5t17.5 -45.5t-17.5 -46t-46.5 -18t-46.5 18z" />
    <glyph glyph-name="uni1E62" unicode="&#x1e62;" horiz-adv-x="637" 
d="M108 50q-58 58 -58 156h93q0 -59 33.5 -94t88.5 -35h111q55 0 88 23.5t33 62.5v54q0 31 -23.5 52t-66.5 28l-182 30q-80 13 -123.5 55t-43.5 105v55q0 75 57.5 120.5t151.5 45.5h113q59 0 104.5 -24.5t70.5 -69t25 -102.5h-94q0 50 -29 80.5t-77 30.5h-113
q-51 0 -82.5 -22.5t-31.5 -61.5v-45q0 -32 22.5 -53t64.5 -29l180 -31q83 -14 127.5 -54.5t44.5 -101.5v-65q0 -76 -58.5 -122t-155.5 -46h-115q-97 0 -155 58zM286 -177.5q-18 17.5 -18 45.5t17.5 46t46.5 18t46.5 -18t17.5 -46t-18 -45.5t-46 -17.5t-46 17.5z" />
    <glyph glyph-name="uni1E63" unicode="&#x1e63;" horiz-adv-x="530" 
d="M94 36.5q-49 44.5 -49 117.5h91q0 -37 24 -60t64 -23h88q38 0 61 14.5t23 38.5v29q0 16 -13.5 28.5t-34.5 16.5l-173 30q-55 10 -88 41.5t-33 73.5v33q0 59 47 95t126 36h84q75 0 120.5 -41t45.5 -109h-91q-1 32 -21.5 51.5t-53.5 19.5h-83q-37 0 -58.5 -15t-21.5 -40
v-25q0 -16 14 -28t36 -17l175 -31q52 -9 84.5 -40t32.5 -72v-39q0 -58 -49 -93.5t-129 -35.5h-88q-81 0 -130 44.5zM231 -177.5q-18 17.5 -18 45.5t17.5 46t46.5 18t46.5 -18t17.5 -46t-18 -45.5t-46 -17.5t-46 17.5z" />
    <glyph glyph-name="uni1E6C" unicode="&#x1e6c;" horiz-adv-x="587" 
d="M246 617h-222v83h539v-83h-222v-617h-95v617zM246 -177.5q-18 17.5 -18 45.5t17.5 46t46.5 18t46.5 -18t17.5 -46t-18 -45.5t-46 -17.5t-46 17.5z" />
    <glyph glyph-name="uni1E6D" unicode="&#x1e6d;" horiz-adv-x="391" 
d="M154.5 36q-36.5 36 -36.5 116v266h-88v81h89v151h92v-151h130v-81h-130v-264q0 -39 15.5 -56t50.5 -17h64v-81h-68q-82 0 -118.5 36zM191 -177.5q-18 17.5 -18 45.5t17.5 46t46.5 18t46.5 -18t17.5 -46t-18 -45.5t-46 -17.5t-46 17.5z" />
    <glyph glyph-name="uni1E6E" unicode="&#x1e6e;" horiz-adv-x="587" 
d="M246 617h-222v83h539v-83h-222v-617h-95v617zM154 -77h277v-70h-277v70z" />
    <glyph glyph-name="uni1E6F" unicode="&#x1e6f;" horiz-adv-x="391" 
d="M154.5 36q-36.5 36 -36.5 116v266h-88v81h89v151h92v-151h130v-81h-130v-264q0 -39 15.5 -56t50.5 -17h64v-81h-68q-82 0 -118.5 36zM99 -77h277v-70h-277v70z" />
    <glyph glyph-name="Wgrave" unicode="&#x1e80;" horiz-adv-x="855" 
d="M173.5 16q-18.5 16 -24.5 53l-121 631h95l102 -568h1l166 531h37q20 0 33.5 -11.5t21.5 -37.5l145 -482h1l102 568h95l-121 -631q-7 -35 -24.5 -52t-48.5 -17h-40l-163 536h-1l-167 -536h-40q-30 0 -48.5 16zM279 938h105l88 -161h-87z" />
    <glyph glyph-name="wgrave" unicode="&#x1e81;" horiz-adv-x="732" 
d="M706 499l-105 -434q-8 -34 -25 -49.5t-44 -15.5h-43l-121 357l-124 -357h-43q-27 0 -44 15.5t-25 49.5l-106 434h98l82 -384l127 371h35q18 0 29 -8.5t17 -26.5l112 -337l82 385h98zM218 737h105l88 -161h-87z" />
    <glyph glyph-name="Wacute" unicode="&#x1e82;" horiz-adv-x="855" 
d="M173.5 16q-18.5 16 -24.5 53l-121 631h95l102 -568h1l166 531h37q20 0 33.5 -11.5t21.5 -37.5l145 -482h1l102 568h95l-121 -631q-7 -35 -24.5 -52t-48.5 -17h-40l-163 536h-1l-167 -536h-40q-30 0 -48.5 16zM473 938h105l-106 -161h-87z" />
    <glyph glyph-name="wacute" unicode="&#x1e83;" horiz-adv-x="732" 
d="M706 499l-105 -434q-8 -34 -25 -49.5t-44 -15.5h-43l-121 357l-124 -357h-43q-27 0 -44 15.5t-25 49.5l-106 434h98l82 -384l127 371h35q18 0 29 -8.5t17 -26.5l112 -337l82 385h98zM412 737h105l-106 -161h-87z" />
    <glyph glyph-name="Wdieresis" unicode="&#x1e84;" horiz-adv-x="855" 
d="M173.5 16q-18.5 16 -24.5 53l-121 631h95l102 -568h1l166 531h37q20 0 33.5 -11.5t21.5 -37.5l145 -482h1l102 568h95l-121 -631q-7 -35 -24.5 -52t-48.5 -17h-40l-163 536h-1l-167 -536h-40q-30 0 -48.5 16zM279 793.5q-16 15.5 -16 40.5t16 40.5t41 15.5t40.5 -15.5
t15.5 -40.5t-15.5 -40.5t-40.5 -15.5t-41 15.5zM494.5 793.5q-15.5 15.5 -15.5 40.5t15.5 40.5t40.5 15.5t41 -15.5t16 -40.5t-16 -40.5t-41 -15.5t-40.5 15.5z" />
    <glyph glyph-name="wdieresis" unicode="&#x1e85;" horiz-adv-x="732" 
d="M706 499l-105 -434q-8 -34 -25 -49.5t-44 -15.5h-43l-121 357l-124 -357h-43q-27 0 -44 15.5t-25 49.5l-106 434h98l82 -384l127 371h35q18 0 29 -8.5t17 -26.5l112 -337l82 385h98zM218 592.5q-16 15.5 -16 40.5t16 40.5t41 15.5t40.5 -15.5t15.5 -40.5t-15.5 -40.5
t-40.5 -15.5t-41 15.5zM433.5 592.5q-15.5 15.5 -15.5 40.5t15.5 40.5t40.5 15.5t41 -15.5t16 -40.5t-16 -40.5t-41 -15.5t-40.5 15.5z" />
    <glyph glyph-name="uni1E8E" unicode="&#x1e8e;" horiz-adv-x="632" 
d="M268 270l-258 430h103l203 -343l203 343h103l-258 -430v-270h-96v270zM269.5 792q-17.5 18 -17.5 46t17.5 45.5t46.5 17.5t46.5 -17.5t17.5 -45.5t-17.5 -46t-46.5 -18t-46.5 18z" />
    <glyph glyph-name="uni1E8F" unicode="&#x1e8f;" horiz-adv-x="581" 
d="M124.5 -164q-46.5 39 -51.5 102h93q3 -27 24 -44t52 -17h79q45 0 70.5 31.5t25.5 86.5v83q-23 -35 -57 -56t-68 -21h-65q-73 0 -118 49t-45 129v320h93v-322q0 -42 21.5 -68t55.5 -26h61q42 0 76.5 34t45.5 86v296h94v-504q0 -92 -51 -145t-139 -53h-79q-71 0 -117.5 39z
M243.5 591q-17.5 18 -17.5 46t17.5 45.5t46.5 17.5t46.5 -17.5t17.5 -45.5t-17.5 -46t-46.5 -18t-46.5 18z" />
    <glyph glyph-name="uni1E92" unicode="&#x1e92;" horiz-adv-x="587" 
d="M34 45l388 574h-370v81h501v-45l-388 -574h378v-81h-509v45zM248 -177.5q-18 17.5 -18 45.5t17.5 46t46.5 18t46.5 -18t17.5 -46t-18 -45.5t-46 -17.5t-46 17.5z" />
    <glyph glyph-name="uni1E93" unicode="&#x1e93;" horiz-adv-x="481" 
d="M30 44l287 376h-275v79h409v-44l-287 -376h282v-79h-416v44zM196 -177.5q-18 17.5 -18 45.5t17.5 46t46.5 18t46.5 -18t17.5 -46t-18 -45.5t-46 -17.5t-46 17.5z" />
    <glyph glyph-name="uni1E97" unicode="&#x1e97;" horiz-adv-x="391" 
d="M154.5 36q-36.5 36 -36.5 116v266h-88v81h89v151h92v-151h130v-81h-130v-264q0 -39 15.5 -56t50.5 -17h64v-81h-68q-82 0 -118.5 36zM28 743.5q-16 15.5 -16 40.5t16 40.5t41 15.5t40.5 -15.5t15.5 -40.5t-15.5 -40.5t-40.5 -15.5t-41 15.5zM243.5 743.5
q-15.5 15.5 -15.5 40.5t15.5 40.5t40.5 15.5t41 -15.5t16 -40.5t-16 -40.5t-41 -15.5t-40.5 15.5z" />
    <glyph glyph-name="uni1E9E" unicode="&#x1e9e;" horiz-adv-x="662" 
d="M286 35.5q-45 43.5 -45 113.5h88q0 -34 21 -55t55 -21h51q35 0 56.5 26.5t21.5 69.5v31q0 41 -17 65t-54 37l-135 46v57l132 213h-175q-59 0 -92.5 -33.5t-33.5 -89.5v-495h-93v495q0 93 59 149t160 56h282v-71l-141 -229l85 -31q59 -22 87 -63t28 -106v-31
q0 -80 -46.5 -128.5t-123.5 -48.5h-51q-74 0 -119 43.5z" />
    <glyph glyph-name="uni1EA0" unicode="&#x1ea0;" horiz-adv-x="658" 
d="M475 184h-292l-68 -184h-99l271 700h43q43 0 61 -47l251 -653h-98zM211 264h236l-117 316h-1zM284 -177.5q-18 17.5 -18 45.5t17.5 46t46.5 18t46.5 -18t17.5 -46t-18 -45.5t-46 -17.5t-46 17.5z" />
    <glyph glyph-name="uni1EA1" unicode="&#x1ea1;" horiz-adv-x="565" 
d="M99 30.5q-45 38.5 -45 102.5v33q0 63 47 101.5t123 38.5h63q30 0 64 -9t58 -25v73q0 37 -23 59.5t-60 22.5h-82q-38 0 -61 -18t-23 -47h-92q0 65 48.5 105t127.5 40h82q79 0 127 -44.5t48 -117.5v-345h-87v67q-23 -34 -60 -54.5t-75 -20.5h-60q-75 0 -120 38.5zM284 69
q44 0 78 25.5t47 68.5v30q-19 17 -52 27t-68 10h-64q-35 0 -57 -18t-22 -48v-30q0 -30 21.5 -47.5t57.5 -17.5h59zM247 -182.5q-18 17.5 -18 45.5t17.5 46t46.5 18t46.5 -18t17.5 -46t-18 -45.5t-46 -17.5t-46 17.5z" />
    <glyph glyph-name="uni1EA2" unicode="&#x1ea2;" horiz-adv-x="658" 
d="M475 184h-292l-68 -184h-99l271 700h43q43 0 61 -47l251 -653h-98zM211 264h236l-117 316h-1zM288 782q0 21 12.5 34.5t37.5 28.5q19 12 28 20.5t9 20.5v12q0 31 -35 31h-19q-41 0 -41 -41h-69q0 104 110 104h19q53 0 80 -24t27 -70v-12q0 -25 -13.5 -40t-38.5 -33
q-16 -10 -23.5 -17.5t-7.5 -16.5v-15h-76v18z" />
    <glyph glyph-name="uni1EA3" unicode="&#x1ea3;" horiz-adv-x="565" 
d="M99 30.5q-45 38.5 -45 102.5v33q0 63 47 101.5t123 38.5h63q30 0 64 -9t58 -25v73q0 37 -23 59.5t-60 22.5h-82q-38 0 -61 -18t-23 -47h-92q0 65 48.5 105t127.5 40h82q79 0 127 -44.5t48 -117.5v-345h-87v67q-23 -34 -60 -54.5t-75 -20.5h-60q-75 0 -120 38.5zM284 69
q44 0 78 25.5t47 68.5v30q-19 17 -52 27t-68 10h-64q-35 0 -57 -18t-22 -48v-30q0 -30 21.5 -47.5t57.5 -17.5h59zM246 581q0 21 12.5 34.5t37.5 28.5q19 12 28 20.5t9 20.5v12q0 31 -35 31h-19q-41 0 -41 -41h-69q0 104 110 104h19q53 0 80 -24t27 -70v-12q0 -25 -13.5 -40
t-38.5 -33q-16 -10 -23.5 -17.5t-7.5 -16.5v-15h-76v18z" />
    <glyph glyph-name="uni1EA4" unicode="&#x1ea4;" horiz-adv-x="658" 
d="M475 184h-292l-68 -184h-99l271 700h43q43 0 61 -47l251 -653h-98zM211 264h236l-117 316h-1zM509 1062h88l-84 -128h-74zM296 947h67l133 -170h-85l-81 107l-81 -107h-85z" />
    <glyph glyph-name="uni1EA5" unicode="&#x1ea5;" horiz-adv-x="565" 
d="M99 30.5q-45 38.5 -45 102.5v33q0 63 47 101.5t123 38.5h63q30 0 64 -9t58 -25v73q0 37 -23 59.5t-60 22.5h-82q-38 0 -61 -18t-23 -47h-92q0 65 48.5 105t127.5 40h82q79 0 127 -44.5t48 -117.5v-345h-87v67q-23 -34 -60 -54.5t-75 -20.5h-60q-75 0 -120 38.5zM284 69
q44 0 78 25.5t47 68.5v30q-19 17 -52 27t-68 10h-64q-35 0 -57 -18t-22 -48v-30q0 -30 21.5 -47.5t57.5 -17.5h59zM467 861h88l-84 -128h-74zM254 746h67l133 -170h-85l-81 107l-81 -107h-85z" />
    <glyph glyph-name="uni1EA6" unicode="&#x1ea6;" horiz-adv-x="658" 
d="M475 184h-292l-68 -184h-99l271 700h43q43 0 61 -47l251 -653h-98zM211 264h236l-117 316h-1zM387 1062h88l70 -128h-74zM296 947h67l133 -170h-85l-81 107l-81 -107h-85z" />
    <glyph glyph-name="uni1EA7" unicode="&#x1ea7;" horiz-adv-x="565" 
d="M99 30.5q-45 38.5 -45 102.5v33q0 63 47 101.5t123 38.5h63q30 0 64 -9t58 -25v73q0 37 -23 59.5t-60 22.5h-82q-38 0 -61 -18t-23 -47h-92q0 65 48.5 105t127.5 40h82q79 0 127 -44.5t48 -117.5v-345h-87v67q-23 -34 -60 -54.5t-75 -20.5h-60q-75 0 -120 38.5zM284 69
q44 0 78 25.5t47 68.5v30q-19 17 -52 27t-68 10h-64q-35 0 -57 -18t-22 -48v-30q0 -30 21.5 -47.5t57.5 -17.5h59zM345 861h88l70 -128h-74zM254 746h67l133 -170h-85l-81 107l-81 -107h-85z" />
    <glyph glyph-name="uni1EA8" unicode="&#x1ea8;" horiz-adv-x="658" 
d="M475 184h-292l-68 -184h-99l271 700h43q43 0 61 -47l251 -653h-98zM211 264h236l-117 316h-1zM450 929q0 17 10.5 27.5t31.5 24.5q16 9 24 17t8 17v10q0 13 -7.5 19.5t-21.5 6.5h-16q-16 0 -24.5 -8.5t-8.5 -24.5h-60q0 43 23.5 65.5t69.5 22.5h16q45 0 68 -20.5
t23 -60.5v-10q0 -22 -12 -35t-33 -27q-14 -10 -19.5 -15t-5.5 -12v-9h-66v12zM296 947h67l133 -170h-85l-81 107l-81 -107h-85z" />
    <glyph glyph-name="uni1EA9" unicode="&#x1ea9;" horiz-adv-x="565" 
d="M99 30.5q-45 38.5 -45 102.5v33q0 63 47 101.5t123 38.5h63q30 0 64 -9t58 -25v73q0 37 -23 59.5t-60 22.5h-82q-38 0 -61 -18t-23 -47h-92q0 65 48.5 105t127.5 40h82q79 0 127 -44.5t48 -117.5v-345h-87v67q-23 -34 -60 -54.5t-75 -20.5h-60q-75 0 -120 38.5zM284 69
q44 0 78 25.5t47 68.5v30q-19 17 -52 27t-68 10h-64q-35 0 -57 -18t-22 -48v-30q0 -30 21.5 -47.5t57.5 -17.5h59zM408 728q0 17 10.5 27.5t31.5 24.5q16 9 24 17t8 17v10q0 13 -7.5 19.5t-21.5 6.5h-16q-16 0 -24.5 -8.5t-8.5 -24.5h-60q0 43 23.5 65.5t69.5 22.5h16
q45 0 68 -20.5t23 -60.5v-10q0 -22 -12 -35t-33 -27q-14 -10 -19.5 -15t-5.5 -12v-9h-66v12zM254 746h67l133 -170h-85l-81 107l-81 -107h-85z" />
    <glyph glyph-name="uni1EAA" unicode="&#x1eaa;" horiz-adv-x="658" 
d="M475 184h-292l-68 -184h-99l271 700h43q43 0 61 -47l251 -653h-98zM211 264h236l-117 316h-1zM353 989.5q-15 8.5 -33 24.5q-12 11 -20.5 16.5t-17.5 5.5h-8q-13 0 -21.5 -12t-9.5 -31h-63q1 45 26.5 72.5t65.5 27.5h8q21 0 37.5 -9.5t33.5 -25.5q22 -20 34 -20h8
q12 0 20 12t9 32h62q0 -45 -24.5 -73t-63.5 -28h-8q-20 0 -35 8.5zM296 947h67l133 -170h-85l-81 107l-81 -107h-85z" />
    <glyph glyph-name="uni1EAB" unicode="&#x1eab;" horiz-adv-x="565" 
d="M99 30.5q-45 38.5 -45 102.5v33q0 63 47 101.5t123 38.5h63q30 0 64 -9t58 -25v73q0 37 -23 59.5t-60 22.5h-82q-38 0 -61 -18t-23 -47h-92q0 65 48.5 105t127.5 40h82q79 0 127 -44.5t48 -117.5v-345h-87v67q-23 -34 -60 -54.5t-75 -20.5h-60q-75 0 -120 38.5zM284 69
q44 0 78 25.5t47 68.5v30q-19 17 -52 27t-68 10h-64q-35 0 -57 -18t-22 -48v-30q0 -30 21.5 -47.5t57.5 -17.5h59zM311 788.5q-15 8.5 -33 24.5q-12 11 -20.5 16.5t-17.5 5.5h-8q-13 0 -21.5 -12t-9.5 -31h-63q1 45 26.5 72.5t65.5 27.5h8q21 0 37.5 -9.5t33.5 -25.5
q22 -20 34 -20h8q12 0 20 12t9 32h62q0 -45 -24.5 -73t-63.5 -28h-8q-20 0 -35 8.5zM254 746h67l133 -170h-85l-81 107l-81 -107h-85z" />
    <glyph glyph-name="uni1EAC" unicode="&#x1eac;" horiz-adv-x="658" 
d="M475 184h-292l-68 -184h-99l271 700h43q43 0 61 -47l251 -653h-98zM211 264h236l-117 316h-1zM284 -177.5q-18 17.5 -18 45.5t17.5 46t46.5 18t46.5 -18t17.5 -46t-18 -45.5t-46 -17.5t-46 17.5zM296 947h67l133 -170h-85l-81 107l-81 -107h-85z" />
    <glyph glyph-name="uni1EAD" unicode="&#x1ead;" horiz-adv-x="565" 
d="M99 30.5q-45 38.5 -45 102.5v33q0 63 47 101.5t123 38.5h63q30 0 64 -9t58 -25v73q0 37 -23 59.5t-60 22.5h-82q-38 0 -61 -18t-23 -47h-92q0 65 48.5 105t127.5 40h82q79 0 127 -44.5t48 -117.5v-345h-87v67q-23 -34 -60 -54.5t-75 -20.5h-60q-75 0 -120 38.5zM284 69
q44 0 78 25.5t47 68.5v30q-19 17 -52 27t-68 10h-64q-35 0 -57 -18t-22 -48v-30q0 -30 21.5 -47.5t57.5 -17.5h59zM247 -182.5q-18 17.5 -18 45.5t17.5 46t46.5 18t46.5 -18t17.5 -46t-18 -45.5t-46 -17.5t-46 17.5zM254 746h67l133 -170h-85l-81 107l-81 -107h-85z" />
    <glyph glyph-name="uni1EAE" unicode="&#x1eae;" horiz-adv-x="658" 
d="M475 184h-292l-68 -184h-99l271 700h43q43 0 61 -47l251 -653h-98zM211 264h236l-117 316h-1zM361 1095h89l-84 -127h-75zM215 807q-41 38 -41 100v12h74v-12q0 -34 21 -54.5t55 -20.5h12q34 0 55 20.5t21 54.5v12h74v-12q0 -62 -41 -100t-109 -38h-12q-68 0 -109 38z
" />
    <glyph glyph-name="uni1EAF" unicode="&#x1eaf;" horiz-adv-x="565" 
d="M99 30.5q-45 38.5 -45 102.5v33q0 63 47 101.5t123 38.5h63q30 0 64 -9t58 -25v73q0 37 -23 59.5t-60 22.5h-82q-38 0 -61 -18t-23 -47h-92q0 65 48.5 105t127.5 40h82q79 0 127 -44.5t48 -117.5v-345h-87v67q-23 -34 -60 -54.5t-75 -20.5h-60q-75 0 -120 38.5zM284 69
q44 0 78 25.5t47 68.5v30q-19 17 -52 27t-68 10h-64q-35 0 -57 -18t-22 -48v-30q0 -30 21.5 -47.5t57.5 -17.5h59zM319 894h89l-84 -127h-75zM173 606q-41 38 -41 100v12h74v-12q0 -34 21 -54.5t55 -20.5h12q34 0 55 20.5t21 54.5v12h74v-12q0 -62 -41 -100t-109 -38h-12
q-68 0 -109 38z" />
    <glyph glyph-name="uni1EB0" unicode="&#x1eb0;" horiz-adv-x="658" 
d="M475 184h-292l-68 -184h-99l271 700h43q43 0 61 -47l251 -653h-98zM211 264h236l-117 316h-1zM211 1095h89l70 -127h-75zM215 807q-41 38 -41 100v12h74v-12q0 -34 21 -54.5t55 -20.5h12q34 0 55 20.5t21 54.5v12h74v-12q0 -62 -41 -100t-109 -38h-12q-68 0 -109 38z" />
    <glyph glyph-name="uni1EB1" unicode="&#x1eb1;" horiz-adv-x="565" 
d="M99 30.5q-45 38.5 -45 102.5v33q0 63 47 101.5t123 38.5h63q30 0 64 -9t58 -25v73q0 37 -23 59.5t-60 22.5h-82q-38 0 -61 -18t-23 -47h-92q0 65 48.5 105t127.5 40h82q79 0 127 -44.5t48 -117.5v-345h-87v67q-23 -34 -60 -54.5t-75 -20.5h-60q-75 0 -120 38.5zM284 69
q44 0 78 25.5t47 68.5v30q-19 17 -52 27t-68 10h-64q-35 0 -57 -18t-22 -48v-30q0 -30 21.5 -47.5t57.5 -17.5h59zM169 894h89l70 -127h-75zM173 606q-41 38 -41 100v12h74v-12q0 -34 21 -54.5t55 -20.5h12q34 0 55 20.5t21 54.5v12h74v-12q0 -62 -41 -100t-109 -38h-12
q-68 0 -109 38z" />
    <glyph glyph-name="uni1EB2" unicode="&#x1eb2;" horiz-adv-x="658" 
d="M475 184h-292l-68 -184h-99l271 700h43q43 0 61 -47l251 -653h-98zM211 264h236l-117 316h-1zM296 962q0 17 11 28.5t31 23.5q15 10 23 17.5t8 16.5v11q0 25 -28 25h-16q-33 0 -33 -33h-60q0 88 93 88h16q91 0 91 -80v-11q0 -21 -11.5 -34t-32.5 -27q-13 -9 -19.5 -15
t-6.5 -13v-9h-66v12zM215 807q-41 38 -41 100v12h74v-12q0 -34 21 -54.5t55 -20.5h12q34 0 55 20.5t21 54.5v12h74v-12q0 -62 -41 -100t-109 -38h-12q-68 0 -109 38z" />
    <glyph glyph-name="uni1EB3" unicode="&#x1eb3;" horiz-adv-x="565" 
d="M99 30.5q-45 38.5 -45 102.5v33q0 63 47 101.5t123 38.5h63q30 0 64 -9t58 -25v73q0 37 -23 59.5t-60 22.5h-82q-38 0 -61 -18t-23 -47h-92q0 65 48.5 105t127.5 40h82q79 0 127 -44.5t48 -117.5v-345h-87v67q-23 -34 -60 -54.5t-75 -20.5h-60q-75 0 -120 38.5zM284 69
q44 0 78 25.5t47 68.5v30q-19 17 -52 27t-68 10h-64q-35 0 -57 -18t-22 -48v-30q0 -30 21.5 -47.5t57.5 -17.5h59zM254 761q0 17 11 28.5t31 23.5q15 10 23 17.5t8 16.5v11q0 25 -28 25h-16q-33 0 -33 -33h-60q0 88 93 88h16q91 0 91 -80v-11q0 -21 -11.5 -34t-32.5 -27
q-13 -9 -19.5 -15t-6.5 -13v-9h-66v12zM173 606q-41 38 -41 100v12h74v-12q0 -34 21 -54.5t55 -20.5h12q34 0 55 20.5t21 54.5v12h74v-12q0 -62 -41 -100t-109 -38h-12q-68 0 -109 38z" />
    <glyph glyph-name="uni1EB4" unicode="&#x1eb4;" horiz-adv-x="658" 
d="M475 184h-292l-68 -184h-99l271 700h43q43 0 61 -47l251 -653h-98zM211 264h236l-117 316h-1zM353 977q-15 9 -32 25q-13 12 -21 17.5t-17 5.5h-8q-13 0 -21.5 -12.5t-9.5 -31.5h-63q1 45 26.5 73t65.5 28h8q21 0 37.5 -9.5t33.5 -25.5q12 -11 19.5 -16t14.5 -5h8
q12 0 20 12t9 32h62q0 -45 -24.5 -73.5t-63.5 -28.5h-8q-21 0 -36 9zM215 807q-41 38 -41 100v12h74v-12q0 -34 21 -54.5t55 -20.5h12q34 0 55 20.5t21 54.5v12h74v-12q0 -62 -41 -100t-109 -38h-12q-68 0 -109 38z" />
    <glyph glyph-name="uni1EB5" unicode="&#x1eb5;" horiz-adv-x="565" 
d="M99 30.5q-45 38.5 -45 102.5v33q0 63 47 101.5t123 38.5h63q30 0 64 -9t58 -25v73q0 37 -23 59.5t-60 22.5h-82q-38 0 -61 -18t-23 -47h-92q0 65 48.5 105t127.5 40h82q79 0 127 -44.5t48 -117.5v-345h-87v67q-23 -34 -60 -54.5t-75 -20.5h-60q-75 0 -120 38.5zM284 69
q44 0 78 25.5t47 68.5v30q-19 17 -52 27t-68 10h-64q-35 0 -57 -18t-22 -48v-30q0 -30 21.5 -47.5t57.5 -17.5h59zM311 776q-15 9 -32 25q-13 12 -21 17.5t-17 5.5h-8q-13 0 -21.5 -12.5t-9.5 -31.5h-63q1 45 26.5 73t65.5 28h8q21 0 37.5 -9.5t33.5 -25.5q12 -11 19.5 -16
t14.5 -5h8q12 0 20 12t9 32h62q0 -45 -24.5 -73.5t-63.5 -28.5h-8q-21 0 -36 9zM173 606q-41 38 -41 100v12h74v-12q0 -34 21 -54.5t55 -20.5h12q34 0 55 20.5t21 54.5v12h74v-12q0 -62 -41 -100t-109 -38h-12q-68 0 -109 38z" />
    <glyph glyph-name="uni1EB6" unicode="&#x1eb6;" horiz-adv-x="658" 
d="M475 184h-292l-68 -184h-99l271 700h43q43 0 61 -47l251 -653h-98zM211 264h236l-117 316h-1zM284 -177.5q-18 17.5 -18 45.5t17.5 46t46.5 18t46.5 -18t17.5 -46t-18 -45.5t-46 -17.5t-46 17.5zM215 807q-41 38 -41 100v12h74v-12q0 -34 21 -54.5t55 -20.5h12
q34 0 55 20.5t21 54.5v12h74v-12q0 -62 -41 -100t-109 -38h-12q-68 0 -109 38z" />
    <glyph glyph-name="uni1EB7" unicode="&#x1eb7;" horiz-adv-x="565" 
d="M99 30.5q-45 38.5 -45 102.5v33q0 63 47 101.5t123 38.5h63q30 0 64 -9t58 -25v73q0 37 -23 59.5t-60 22.5h-82q-38 0 -61 -18t-23 -47h-92q0 65 48.5 105t127.5 40h82q79 0 127 -44.5t48 -117.5v-345h-87v67q-23 -34 -60 -54.5t-75 -20.5h-60q-75 0 -120 38.5zM284 69
q44 0 78 25.5t47 68.5v30q-19 17 -52 27t-68 10h-64q-35 0 -57 -18t-22 -48v-30q0 -30 21.5 -47.5t57.5 -17.5h59zM247 -182.5q-18 17.5 -18 45.5t17.5 46t46.5 18t46.5 -18t17.5 -46t-18 -45.5t-46 -17.5t-46 17.5zM173 606q-41 38 -41 100v12h74v-12q0 -34 21 -54.5
t55 -20.5h12q34 0 55 20.5t21 54.5v12h74v-12q0 -62 -41 -100t-109 -38h-12q-68 0 -109 38z" />
    <glyph glyph-name="uni1EB8" unicode="&#x1eb8;" horiz-adv-x="609" 
d="M94.5 20q-20.5 20 -20.5 55v625h491v-83h-396v-218h366v-82h-366v-234h396v-83h-415q-35 0 -55.5 20zM282 -177.5q-18 17.5 -18 45.5t17.5 46t46.5 18t46.5 -18t17.5 -46t-18 -45.5t-46 -17.5t-46 17.5z" />
    <glyph glyph-name="uni1EB9" unicode="&#x1eb9;" horiz-adv-x="561" 
d="M103.5 42.5q-53.5 50.5 -53.5 132.5v138q0 88 53.5 141t141.5 53h82q85 0 137 -52t52 -138v-94h-373v-48q0 -46 28 -74t74 -28h77q45 0 73 23.5t28 62.5h91q0 -75 -53 -121t-140 -46h-76q-88 0 -141.5 50.5zM423 297v20q0 50 -26.5 80t-69.5 30h-82q-46 0 -74 -31.5
t-28 -83.5v-15h280zM241 -177.5q-18 17.5 -18 45.5t17.5 46t46.5 18t46.5 -18t17.5 -46t-18 -45.5t-46 -17.5t-46 17.5z" />
    <glyph glyph-name="uni1EBA" unicode="&#x1eba;" horiz-adv-x="609" 
d="M94.5 20q-20.5 20 -20.5 55v625h491v-83h-396v-218h366v-82h-366v-234h396v-83h-415q-35 0 -55.5 20zM281 782q0 21 12.5 34.5t37.5 28.5q19 12 28 20.5t9 20.5v12q0 31 -35 31h-19q-41 0 -41 -41h-69q0 104 110 104h19q53 0 80 -24t27 -70v-12q0 -25 -13.5 -40
t-38.5 -33q-16 -10 -23.5 -17.5t-7.5 -16.5v-15h-76v18z" />
    <glyph glyph-name="uni1EBB" unicode="&#x1ebb;" horiz-adv-x="561" 
d="M103.5 42.5q-53.5 50.5 -53.5 132.5v138q0 88 53.5 141t141.5 53h82q85 0 137 -52t52 -138v-94h-373v-48q0 -46 28 -74t74 -28h77q45 0 73 23.5t28 62.5h91q0 -75 -53 -121t-140 -46h-76q-88 0 -141.5 50.5zM423 297v20q0 50 -26.5 80t-69.5 30h-82q-46 0 -74 -31.5
t-28 -83.5v-15h280zM242 581q0 21 12.5 34.5t37.5 28.5q19 12 28 20.5t9 20.5v12q0 31 -35 31h-19q-41 0 -41 -41h-69q0 104 110 104h19q53 0 80 -24t27 -70v-12q0 -25 -13.5 -40t-38.5 -33q-16 -10 -23.5 -17.5t-7.5 -16.5v-15h-76v18z" />
    <glyph glyph-name="uni1EBC" unicode="&#x1ebc;" horiz-adv-x="609" 
d="M94.5 20q-20.5 20 -20.5 55v625h491v-83h-396v-218h366v-82h-366v-234h396v-83h-415q-35 0 -55.5 20zM345 779q-16 10 -36 29q-15 14 -23.5 20t-18.5 6h-9q-15 0 -24.5 -14t-10.5 -38h-70q1 53 29 85t74 32h8q25 0 43 -11t38 -31q2 -2 10.5 -9t14.5 -10.5t12 -3.5h8
q14 0 23 14.5t10 37.5h71q-2 -53 -29.5 -85t-71.5 -32h-9q-23 0 -39 10z" />
    <glyph glyph-name="uni1EBD" unicode="&#x1ebd;" horiz-adv-x="561" 
d="M103.5 42.5q-53.5 50.5 -53.5 132.5v138q0 88 53.5 141t141.5 53h82q85 0 137 -52t52 -138v-94h-373v-48q0 -46 28 -74t74 -28h77q45 0 73 23.5t28 62.5h91q0 -75 -53 -121t-140 -46h-76q-88 0 -141.5 50.5zM423 297v20q0 50 -26.5 80t-69.5 30h-82q-46 0 -74 -31.5
t-28 -83.5v-15h280zM306 578q-16 10 -36 29q-15 14 -23.5 20t-18.5 6h-9q-15 0 -24.5 -14t-10.5 -38h-70q1 53 29 85t74 32h8q25 0 43 -11t38 -31q2 -2 10.5 -9t14.5 -10.5t12 -3.5h8q14 0 23 14.5t10 37.5h71q-2 -53 -29.5 -85t-71.5 -32h-9q-23 0 -39 10z" />
    <glyph glyph-name="uni1EBE" unicode="&#x1ebe;" horiz-adv-x="609" 
d="M94.5 20q-20.5 20 -20.5 55v625h491v-83h-396v-218h366v-82h-366v-234h396v-83h-415q-35 0 -55.5 20zM502 1062h88l-84 -128h-74zM289 947h67l133 -170h-85l-81 107l-81 -107h-85z" />
    <glyph glyph-name="uni1EBF" unicode="&#x1ebf;" horiz-adv-x="561" 
d="M103.5 42.5q-53.5 50.5 -53.5 132.5v138q0 88 53.5 141t141.5 53h82q85 0 137 -52t52 -138v-94h-373v-48q0 -46 28 -74t74 -28h77q45 0 73 23.5t28 62.5h91q0 -75 -53 -121t-140 -46h-76q-88 0 -141.5 50.5zM423 297v20q0 50 -26.5 80t-69.5 30h-82q-46 0 -74 -31.5
t-28 -83.5v-15h280zM463 861h88l-84 -128h-74zM250 746h67l133 -170h-85l-81 107l-81 -107h-85z" />
    <glyph glyph-name="uni1EC0" unicode="&#x1ec0;" horiz-adv-x="609" 
d="M94.5 20q-20.5 20 -20.5 55v625h491v-83h-396v-218h366v-82h-366v-234h396v-83h-415q-35 0 -55.5 20zM380 1062h88l70 -128h-74zM289 947h67l133 -170h-85l-81 107l-81 -107h-85z" />
    <glyph glyph-name="uni1EC1" unicode="&#x1ec1;" horiz-adv-x="561" 
d="M103.5 42.5q-53.5 50.5 -53.5 132.5v138q0 88 53.5 141t141.5 53h82q85 0 137 -52t52 -138v-94h-373v-48q0 -46 28 -74t74 -28h77q45 0 73 23.5t28 62.5h91q0 -75 -53 -121t-140 -46h-76q-88 0 -141.5 50.5zM423 297v20q0 50 -26.5 80t-69.5 30h-82q-46 0 -74 -31.5
t-28 -83.5v-15h280zM341 861h88l70 -128h-74zM250 746h67l133 -170h-85l-81 107l-81 -107h-85z" />
    <glyph glyph-name="uni1EC2" unicode="&#x1ec2;" horiz-adv-x="609" 
d="M94.5 20q-20.5 20 -20.5 55v625h491v-83h-396v-218h366v-82h-366v-234h396v-83h-415q-35 0 -55.5 20zM443 929q0 17 10.5 27.5t31.5 24.5q16 9 24 17t8 17v10q0 13 -7.5 19.5t-21.5 6.5h-16q-16 0 -24.5 -8.5t-8.5 -24.5h-60q0 43 23.5 65.5t69.5 22.5h16q45 0 68 -20.5
t23 -60.5v-10q0 -22 -12 -35t-33 -27q-14 -10 -19.5 -15t-5.5 -12v-9h-66v12zM289 947h67l133 -170h-85l-81 107l-81 -107h-85z" />
    <glyph glyph-name="uni1EC3" unicode="&#x1ec3;" horiz-adv-x="561" 
d="M103.5 42.5q-53.5 50.5 -53.5 132.5v138q0 88 53.5 141t141.5 53h82q85 0 137 -52t52 -138v-94h-373v-48q0 -46 28 -74t74 -28h77q45 0 73 23.5t28 62.5h91q0 -75 -53 -121t-140 -46h-76q-88 0 -141.5 50.5zM423 297v20q0 50 -26.5 80t-69.5 30h-82q-46 0 -74 -31.5
t-28 -83.5v-15h280zM404 728q0 17 10.5 27.5t31.5 24.5q16 9 24 17t8 17v10q0 13 -7.5 19.5t-21.5 6.5h-16q-16 0 -24.5 -8.5t-8.5 -24.5h-60q0 43 23.5 65.5t69.5 22.5h16q45 0 68 -20.5t23 -60.5v-10q0 -22 -12 -35t-33 -27q-14 -10 -19.5 -15t-5.5 -12v-9h-66v12z
M250 746h67l133 -170h-85l-81 107l-81 -107h-85z" />
    <glyph glyph-name="uni1EC4" unicode="&#x1ec4;" horiz-adv-x="609" 
d="M94.5 20q-20.5 20 -20.5 55v625h491v-83h-396v-218h366v-82h-366v-234h396v-83h-415q-35 0 -55.5 20zM346 989.5q-15 8.5 -33 24.5q-12 11 -20.5 16.5t-17.5 5.5h-8q-13 0 -21.5 -12t-9.5 -31h-63q1 45 26.5 72.5t65.5 27.5h8q21 0 37.5 -9.5t33.5 -25.5q22 -20 34 -20h8
q12 0 20 12t9 32h62q0 -45 -24.5 -73t-63.5 -28h-8q-20 0 -35 8.5zM289 947h67l133 -170h-85l-81 107l-81 -107h-85z" />
    <glyph glyph-name="uni1EC5" unicode="&#x1ec5;" horiz-adv-x="561" 
d="M103.5 42.5q-53.5 50.5 -53.5 132.5v138q0 88 53.5 141t141.5 53h82q85 0 137 -52t52 -138v-94h-373v-48q0 -46 28 -74t74 -28h77q45 0 73 23.5t28 62.5h91q0 -75 -53 -121t-140 -46h-76q-88 0 -141.5 50.5zM423 297v20q0 50 -26.5 80t-69.5 30h-82q-46 0 -74 -31.5
t-28 -83.5v-15h280zM307 788.5q-15 8.5 -33 24.5q-12 11 -20.5 16.5t-17.5 5.5h-8q-13 0 -21.5 -12t-9.5 -31h-63q1 45 26.5 72.5t65.5 27.5h8q21 0 37.5 -9.5t33.5 -25.5q22 -20 34 -20h8q12 0 20 12t9 32h62q0 -45 -24.5 -73t-63.5 -28h-8q-20 0 -35 8.5zM250 746h67
l133 -170h-85l-81 107l-81 -107h-85z" />
    <glyph glyph-name="uni1EC6" unicode="&#x1ec6;" horiz-adv-x="609" 
d="M94.5 20q-20.5 20 -20.5 55v625h491v-83h-396v-218h366v-82h-366v-234h396v-83h-415q-35 0 -55.5 20zM282 -177.5q-18 17.5 -18 45.5t17.5 46t46.5 18t46.5 -18t17.5 -46t-18 -45.5t-46 -17.5t-46 17.5zM289 947h67l133 -170h-85l-81 107l-81 -107h-85z" />
    <glyph glyph-name="uni1EC7" unicode="&#x1ec7;" horiz-adv-x="561" 
d="M103.5 42.5q-53.5 50.5 -53.5 132.5v138q0 88 53.5 141t141.5 53h82q85 0 137 -52t52 -138v-94h-373v-48q0 -46 28 -74t74 -28h77q45 0 73 23.5t28 62.5h91q0 -75 -53 -121t-140 -46h-76q-88 0 -141.5 50.5zM423 297v20q0 50 -26.5 80t-69.5 30h-82q-46 0 -74 -31.5
t-28 -83.5v-15h280zM241 -177.5q-18 17.5 -18 45.5t17.5 46t46.5 18t46.5 -18t17.5 -46t-18 -45.5t-46 -17.5t-46 17.5zM250 746h67l133 -170h-85l-81 107l-81 -107h-85z" />
    <glyph glyph-name="uni1EC8" unicode="&#x1ec8;" horiz-adv-x="263" 
d="M84 700h95v-700h-95v700zM90 782q0 21 12.5 34.5t37.5 28.5q19 12 28 20.5t9 20.5v12q0 31 -35 31h-19q-41 0 -41 -41h-69q0 104 110 104h19q53 0 80 -24t27 -70v-12q0 -25 -13.5 -40t-38.5 -33q-16 -10 -23.5 -17.5t-7.5 -16.5v-15h-76v18z" />
    <glyph glyph-name="uni1EC9" unicode="&#x1ec9;" horiz-adv-x="245" 
d="M76 499h93v-499h-93v499zM83 581q0 21 12.5 34.5t37.5 28.5q19 12 28 20.5t9 20.5v12q0 31 -35 31h-19q-41 0 -41 -41h-69q0 104 110 104h19q53 0 80 -24t27 -70v-12q0 -25 -13.5 -40t-38.5 -33q-16 -10 -23.5 -17.5t-7.5 -16.5v-15h-76v18z" />
    <glyph glyph-name="uni1ECA" unicode="&#x1eca;" horiz-adv-x="263" 
d="M84 700h95v-700h-95v700zM86 -177.5q-18 17.5 -18 45.5t17.5 46t46.5 18t46.5 -18t17.5 -46t-18 -45.5t-46 -17.5t-46 17.5z" />
    <glyph glyph-name="uni1ECB" unicode="&#x1ecb;" horiz-adv-x="269" 
d="M88 582.5q-18 17.5 -18 45.5t18 45.5t47 17.5t46.5 -17.5t17.5 -45.5t-17.5 -45.5t-46.5 -17.5t-47 17.5zM88 499h93v-499h-93v499zM89 -177.5q-18 17.5 -18 45.5t17.5 46t46.5 18t46.5 -18t17.5 -46t-18 -45.5t-46 -17.5t-46 17.5z" />
    <glyph glyph-name="uni1ECC" unicode="&#x1ecc;" horiz-adv-x="705" 
d="M170.5 24q-55.5 32 -86 90t-30.5 135v202q0 77 30.5 135t86.5 90t129 32h106q73 0 128.5 -32t86 -90t30.5 -135v-202q0 -77 -30.5 -135t-86.5 -90t-128 -32h-107q-73 0 -128.5 32zM404 77q68 0 110 47.5t42 126.5v198q0 79 -42 126.5t-110 47.5h-103q-68 0 -110 -47.5
t-42 -126.5v-198q0 -79 41.5 -126.5t109.5 -47.5h104zM307 -177.5q-18 17.5 -18 45.5t17.5 46t46.5 18t46.5 -18t17.5 -46t-18 -45.5t-46 -17.5t-46 17.5z" />
    <glyph glyph-name="uni1ECD" unicode="&#x1ecd;" horiz-adv-x="578" 
d="M103.5 45q-53.5 53 -53.5 139v130q0 87 54 140t143 53h84q89 0 143 -53t54 -140v-130q0 -86 -54.5 -139t-143.5 -53h-85q-88 0 -141.5 53zM329 74q48 0 77 31t29 83v123q0 52 -28.5 83t-75.5 31h-84q-47 0 -75.5 -31t-28.5 -83v-123q0 -52 28 -83t75 -31h83zM243 -177.5
q-18 17.5 -18 45.5t17.5 46t46.5 18t46.5 -18t17.5 -46t-18 -45.5t-46 -17.5t-46 17.5z" />
    </font>
</defs>
</svg>
