<?xml version="1.0" standalone="no"?>
<!DOCTYPE svg PUBLIC "-//W3C//DTD SVG 1.1//EN" "http://www.w3.org/Graphics/SVG/1.1/DTD/svg11.dtd" >
<svg xmlns="http://www.w3.org/2000/svg" xmlns:xlink="http://www.w3.org/1999/xlink" version="1.1">
<metadata>
Created by FontForge 20170731 at Fri Sep  7 16:43:17 2018
 By Aleksey,,,
Copyright 2018 Bai Jamjuree (https://github.com/cadsondemak/Bai-Jamjuree)
</metadata>
<defs>
<font id="BaiJamjuree-SemiBold" horiz-adv-x="0" >
  <font-face 
    font-family="Bai Jamjuree SemiBold"
    font-weight="600"
    font-stretch="normal"
    units-per-em="1000"
    panose-1="0 0 7 0 0 0 0 0 0 0"
    ascent="800"
    descent="-200"
    x-height="499"
    cap-height="700"
    bbox="-674 -537 1399 1219"
    underline-thickness="50"
    underline-position="-150"
    unicode-range="U+000D-FB02"
  />
<missing-glyph horiz-adv-x="509" 
d="M50 712h409v-712h-409v712zM392 66v580h-274v-580h274z" />
    <glyph glyph-name="fi" unicode="fi" horiz-adv-x="585" 
d="M521 0h-115v401h-180v-401h-115v401h-86v99h86v34q0 81 48.5 125.5t136.5 44.5h146v-98h-144q-37 0 -54.5 -17.5t-17.5 -55.5v-33h295v-500z" />
    <glyph glyph-name="fl" unicode="fl" horiz-adv-x="636" 
d="M628 99v-99h-54q-84 0 -122.5 35.5t-38.5 112.5v253h-187v-401h-115v401h-86v99h86v34q0 81 48.5 125.5t136.5 44.5h64v-98h-62q-37 0 -54.5 -17.5t-17.5 -55.5v-35h187v204h115v-549q0 -28 12.5 -41t40.5 -13h47z" />
    <glyph glyph-name="uni0E240E45" unicode="&#xe24;&#xe45;" horiz-adv-x="956" 
d="M839 510q49 -48 49 -127v-583h-114v583q0 34 -18 54.5t-47 20.5h-75q-32 0 -53 -25t-22 -66v-567h-115v580q0 35 -21 56.5t-56 21.5h-108q-31 0 -59.5 -23t-44.5 -61q33 -17 51.5 -49t18.5 -69v-49q3 1 10 1q48 0 77.5 -29t29.5 -78q0 -50 -32 -80.5t-84 -30.5
q-53 0 -84.5 30.5t-31.5 80.5v155q0 33 -20.5 55.5t-57.5 28.5q10 62 42 111.5t80 78t104 28.5h123q38 0 71.5 -16t54.5 -43q21 27 55 43t73 16h74q81 0 130 -48zM192.5 133.5q-12.5 -12.5 -12.5 -32.5q0 -21 12.5 -33.5t33.5 -12.5q20 0 33 12.5t13 33.5q0 20 -13 32.5
t-33 12.5q-21 0 -33.5 -12.5z" />
    <glyph glyph-name="uni0E260E45" unicode="&#xe26;&#xe45;" horiz-adv-x="970" 
d="M852.5 510q49.5 -48 49.5 -127v-583h-115v583q0 34 -17.5 54.5t-46.5 20.5h-75q-32 0 -53 -25t-23 -66v-567h-114v580q0 35 -21.5 56.5t-56.5 21.5h-93q-32 0 -59.5 -23t-42.5 -61q38 -19 59 -48t21 -64v-162q0 -50 -32 -80t-85 -30q-52 0 -83.5 30.5t-31.5 79.5
q0 48 29.5 77.5t78.5 29.5q7 0 10 -1v56q0 30 -23.5 50t-66.5 28q10 62 42 111.5t79.5 78t103.5 28.5h109q39 0 71.5 -16t53.5 -43q21 27 55.5 43t73.5 16h74q80 0 129.5 -48zM181.5 67q12.5 13 12.5 33t-12.5 33t-33.5 13q-20 0 -33 -13t-13 -33t13 -33t33 -13
q21 0 33.5 13z" />
    <glyph glyph-name=".notdef" horiz-adv-x="509" 
d="M50 712h409v-712h-409v712zM392 66v580h-274v-580h274z" />
    <glyph glyph-name=".null" 
 />
    <glyph glyph-name="nonmarkingreturn" unicode="&#xd;" horiz-adv-x="279" 
 />
    <glyph glyph-name="NULL" 
 />
    <glyph glyph-name="NULL" 
 />
    <glyph glyph-name="space" unicode=" " horiz-adv-x="279" 
 />
    <glyph glyph-name="exclam" unicode="!" horiz-adv-x="285" 
d="M85 700h116v-497h-116v497zM90 10q-20 20 -20 53q0 32 20 52t53 20q32 0 52 -20t20 -52q0 -33 -20 -53t-52 -20q-33 0 -53 20z" />
    <glyph glyph-name="quotedbl" unicode="&#x22;" horiz-adv-x="384" 
d="M44 700h115v-234h-115v234zM225 700h115v-234h-115v234z" />
    <glyph glyph-name="numbersign" unicode="#" horiz-adv-x="703" 
d="M160 166h-116v94h116v177h-116v94h116v169h109v-169h165v169h109v-169h116v-94h-116v-177h116v-94h-116v-166h-109v166h-165v-166h-109v166zM434 259v179h-165v-179h165z" />
    <glyph glyph-name="dollar" unicode="$" horiz-adv-x="646" 
d="M560.5 334.5q46.5 -40.5 46.5 -103.5v-65q0 -51 -27.5 -90.5t-78 -61.5t-115.5 -22v-97h-115v97h-3q-104 0 -164 60t-60 164h115q0 -56 29.5 -88.5t81.5 -32.5h111q49 0 79 21.5t30 56.5v44q0 27 -21 45t-60 25l-182 31q-85 14 -130.5 56t-45.5 107v55q0 51 27.5 90
t77.5 60.5t115 21.5v97h115v-97q61 0 108.5 -25.5t73.5 -72.5t26 -108h-114q0 46 -26.5 74.5t-68.5 28.5h-113q-47 0 -75.5 -20.5t-28.5 -55.5v-36q0 -28 20 -46.5t58 -24.5l182 -32q86 -15 132.5 -55.5z" />
    <glyph glyph-name="percent" unicode="%" horiz-adv-x="1021" 
d="M646 722h119l-389 -747h-119zM87.5 304q-43.5 44 -43.5 115v130q0 71 43.5 115t113.5 44h56q71 0 114.5 -44t43.5 -115v-130q0 -71 -43.5 -115t-114.5 -44h-56q-70 0 -113.5 44zM255 352q25 0 40 19.5t15 52.5v120q0 33 -15 52.5t-40 19.5h-52q-25 0 -40 -20t-15 -52
v-120q0 -32 15 -52t40 -20h52zM649.5 36q-43.5 44 -43.5 115v130q0 71 43.5 115t113.5 44h56q71 0 114.5 -44t43.5 -115v-130q0 -71 -43.5 -115t-114.5 -44h-56q-70 0 -113.5 44zM817 84q25 0 40 19.5t15 52.5v120q0 33 -15 52.5t-40 19.5h-52q-25 0 -40 -20t-15 -52v-120
q0 -32 15 -52t40 -20h52z" />
    <glyph glyph-name="ampersand" unicode="&#x26;" horiz-adv-x="680" 
d="M542 0l-57 65q-38 -35 -85.5 -54t-99.5 -19h-44q-98 0 -155 46t-57 126v38q0 48 19.5 81t49.5 55t85 55l-15 19q-51 63 -51 120v21q0 70 49 112.5t130 42.5h38q75 0 120.5 -41.5t45.5 -109.5v-20q0 -33 -13.5 -57.5t-44.5 -49t-88 -58.5l-19 -11l124 -140q21 48 27 109
h99q-6 -105 -55 -189l125 -141h-128zM239 532q0 -36 33 -74l23 -30l18 11q59 38 77.5 56t18.5 42v20q0 26 -17.5 42t-44.5 16h-37q-33 0 -52 -16.5t-19 -46.5v-20zM420 139l-159 181q-59 -33 -81.5 -56.5t-22.5 -60.5v-36q0 -35 27 -56.5t70 -21.5h47q69 0 119 50z" />
    <glyph glyph-name="quotesingle" unicode="'" horiz-adv-x="203" 
d="M44 700h115v-234h-115v234z" />
    <glyph glyph-name="parenleft" unicode="(" horiz-adv-x="330" 
d="M78 9q-34 107 -34 230v20q0 128 34 235t107 206h121q-76 -103 -111.5 -210.5t-35.5 -230.5v-20q0 -114 35.5 -221.5t111.5 -219.5h-121q-73 104 -107 211z" />
    <glyph glyph-name="parenright" unicode=")" horiz-adv-x="330" 
d="M135.5 17q35.5 107 35.5 222v20q0 124 -35.5 231t-111.5 210h121q73 -99 107 -206t34 -235v-20q0 -123 -34 -230t-107 -211h-121q76 112 111.5 219z" />
    <glyph glyph-name="asterisk" unicode="*" horiz-adv-x="449" 
d="M179 526l-96 -63l-39 73l109 57l-109 57l39 73l96 -63v105h90v-105l97 63l39 -73l-109 -57l109 -57l-39 -73l-97 63v-106h-90v106z" />
    <glyph glyph-name="plus" unicode="+" horiz-adv-x="573" 
d="M229 274h-185v100h185v185h115v-185h185v-100h-185v-185h-115v185z" />
    <glyph glyph-name="comma" unicode="," horiz-adv-x="240" 
d="M0 -84l25 21q54 45 54 112v61h115v-61q0 -126 -93 -195l-29 -22z" />
    <glyph glyph-name="hyphen" unicode="-" horiz-adv-x="396" 
d="M44 306h308v-100h-308v100z" />
    <glyph glyph-name="period" unicode="." horiz-adv-x="233" 
d="M64 10q-20 20 -20 53q0 32 20 52t53 20q32 0 52 -20t20 -52q0 -33 -20 -53t-52 -20q-33 0 -53 20z" />
    <glyph glyph-name="slash" unicode="/" horiz-adv-x="540" 
d="M400 722h116l-376 -747h-116z" />
    <glyph glyph-name="zero" unicode="0" horiz-adv-x="665" 
d="M162.5 21.5q-51.5 29.5 -80 84t-28.5 125.5v238q0 71 28.5 125.5t80 84t118.5 29.5h106q66 0 117 -29.5t79 -84t28 -125.5v-238q0 -71 -28 -125.5t-78.5 -84t-117.5 -29.5h-106q-67 0 -118.5 29.5zM385 95q49 0 78.5 37t29.5 97v242q0 60 -29.5 97t-78.5 37h-102
q-50 0 -81 -37t-31 -97v-242q0 -60 31 -97t81 -37h102z" />
    <glyph glyph-name="one" unicode="1" horiz-adv-x="376" 
d="M185 573l-161 -81v109l186 99h92v-700h-117v573z" />
    <glyph glyph-name="two" unicode="2" horiz-adv-x="574" 
d="M39 89q0 58 21.5 100.5t71.5 75.5l248 161q20 13 31.5 33t11.5 41v32q0 32 -23.5 52.5t-60.5 20.5h-92q-44 0 -69 -31.5t-25 -86.5h-117q0 103 56 162t153 59h94q59 0 105 -22t71 -62t25 -92v-32q0 -50 -21.5 -88t-67.5 -66l-241 -153q-28 -18 -40.5 -38.5t-12.5 -52.5
h389v-102h-507v89z" />
    <glyph glyph-name="three" unicode="3" horiz-adv-x="608" 
d="M546 302q24 -36 24 -78v-40q0 -57 -27.5 -100.5t-78 -67.5t-115.5 -24h-97q-101 0 -159.5 59.5t-58.5 162.5h115q0 -55 27.5 -87t75.5 -32h97q46 0 75 24.5t29 64.5v40q0 39 -29 61t-78 22h-121v102h121q43 0 68.5 21.5t25.5 59.5v40q0 34 -24.5 54.5t-64.5 20.5h-97
q-45 0 -71.5 -32t-26.5 -87h-117q0 103 57.5 162.5t157.5 59.5h97q61 0 107.5 -22t72.5 -62.5t26 -93.5v-40q0 -39 -20.5 -73t-56.5 -56q42 -23 66 -59z" />
    <glyph glyph-name="four" unicode="4" horiz-adv-x="608" 
d="M384 137h-293q-37 0 -57 15.5t-20 45.5v25l370 477h116v-459h88v-104h-88v-137h-116v137zM387 237v311h-1l-240 -311h241z" />
    <glyph glyph-name="five" unicode="5" horiz-adv-x="616" 
d="M100 48.5q-56 56.5 -56 154.5h115q0 -50 25.5 -79t69.5 -29h96q48 0 77.5 27.5t29.5 73.5v57q0 41 -30 66t-80 25h-279v356h480v-103h-363v-149h162q67 0 118.5 -24.5t80 -68.5t28.5 -102v-57q0 -60 -28 -106.5t-79 -72t-117 -25.5h-96q-98 0 -154 56.5z" />
    <glyph glyph-name="six" unicode="6" horiz-adv-x="625" 
d="M166 21.5q-53 29.5 -82.5 83t-29.5 123.5v247q0 70 29 123t81 81.5t121 28.5h86q60 0 106.5 -25t72 -70t25.5 -104h-115q0 43 -24.5 69.5t-64.5 26.5h-86q-51 0 -82.5 -35t-31.5 -95v-93q25 30 64.5 48.5t78.5 18.5h66q64 0 113 -25t75.5 -70.5t26.5 -105.5v-40
q0 -64 -29.5 -113t-82.5 -76t-122 -27h-73q-69 0 -122 29.5zM361 91q53 0 85 32t32 85v41q0 46 -27.5 73.5t-72.5 27.5h-66q-51 0 -89 -32.5t-49 -82.5v-34q0 -49 32 -79.5t84 -30.5h71z" />
    <glyph glyph-name="seven" unicode="7" horiz-adv-x="511" 
d="M145 39q0 48 10.5 98.5t30.5 90.5l181 369h-359v103h495v-68l-201 -419q-20 -41 -30 -87.5t-10 -86.5v-39h-117v39z" />
    <glyph glyph-name="eight" unicode="8" horiz-adv-x="639" 
d="M144.5 15q-52.5 23 -81.5 65t-29 97v41q0 43 28 81t77 61v1q-38 22 -60 56.5t-22 72.5v42q0 52 27.5 92t77 62t114.5 22h86q65 0 115 -22t77.5 -62t27.5 -92v-42q0 -37 -22 -71.5t-60 -57.5v-1q49 -23 77 -61t28 -81v-41q0 -55 -29 -97t-82 -65t-122 -23h-106
q-69 0 -121.5 23zM362 407q46 0 74.5 23t28.5 60v41q0 34 -28.5 55t-74.5 21h-86q-46 0 -74 -21t-28 -55v-41q0 -37 28 -60t74 -23h86zM372 93q52 0 84 24.5t32 64.5v34q0 42 -34.5 67.5t-91.5 25.5h-86q-56 0 -90.5 -25.5t-34.5 -67.5v-34q0 -40 31.5 -64.5t83.5 -24.5h106
z" />
    <glyph glyph-name="nine" unicode="9" horiz-adv-x="629" 
d="M155.5 16.5q-47.5 24.5 -73.5 68t-26 101.5h115q0 -41 26 -66t69 -25h86q48 0 77 31.5t29 84.5v94q-26 -27 -63 -42.5t-75 -15.5h-67q-65 0 -114 26t-76 73.5t-27 109.5v40q0 63 30 111t84 74.5t125 26.5h70q68 0 120.5 -26.5t81 -75t28.5 -111.5v-284
q0 -66 -27.5 -115.5t-78 -76.5t-117.5 -27h-86q-63 0 -110.5 24.5zM322 346q49 0 86.5 28.5t49.5 73.5v55q0 47 -31 76.5t-82 29.5h-70q-55 0 -88.5 -31t-33.5 -82v-40q0 -50 27 -80t72 -30h70z" />
    <glyph glyph-name="colon" unicode=":" horiz-adv-x="233" 
d="M64 366q-20 20 -20 52q0 33 20 53t53 20q32 0 52 -20t20 -53q0 -32 -20 -52t-52 -20q-33 0 -53 20zM64 34q-20 20 -20 52q0 33 20 53t53 20q32 0 52 -20t20 -53q0 -32 -20 -52t-52 -20q-33 0 -53 20z" />
    <glyph glyph-name="semicolon" unicode=";" horiz-adv-x="248" 
d="M79 366q-20 20 -20 52q0 33 20 53t53 20q32 0 52 -20t20 -53q0 -32 -20 -52t-52 -20q-33 0 -53 20zM0 -84l25 21q54 45 54 112v61h115v-61q0 -126 -93 -195l-29 -22z" />
    <glyph glyph-name="less" unicode="&#x3c;" horiz-adv-x="569" 
d="M24 271v76l501 265v-115l-365 -188l365 -187v-115z" />
    <glyph glyph-name="equal" unicode="=" horiz-adv-x="530" 
d="M44 450h442v-98h-442v98zM44 266h442v-98h-442v98z" />
    <glyph glyph-name="greater" unicode="&#x3e;" horiz-adv-x="569" 
d="M44 122l365 187l-365 188v115l501 -265v-76l-501 -264v115z" />
    <glyph glyph-name="question" unicode="?" horiz-adv-x="582" 
d="M228 223q0 43 16 73.5t38 50t59 44.5q42 29 61 49t19 51v36q0 35 -25 57t-66 22h-86q-45 0 -72.5 -29.5t-27.5 -76.5h-116q0 62 27 109t76 73t113 26h86q62 0 109 -22.5t73 -63.5t26 -95v-36q0 -42 -14.5 -71t-35.5 -47t-56 -40q-44 -28 -65.5 -52.5t-21.5 -65.5v-25
h-117v33zM234 10q-20 20 -20 53q0 32 20 52t53 20q32 0 52 -20t20 -52q0 -33 -20 -53t-52 -20q-33 0 -53 20z" />
    <glyph glyph-name="at" unicode="@" horiz-adv-x="891" 
d="M177.5 -4q-64.5 32 -99 91.5t-34.5 140.5v200q0 91 38.5 158.5t111 103.5t170.5 36h198q87 0 151.5 -30t99 -86.5t34.5 -133.5v-155q0 -82 -38.5 -128.5t-106.5 -46.5h-33q-30 0 -55.5 15t-39.5 42h-1q-20 -31 -52 -49t-67 -18h-52q-74 0 -116.5 43.5t-42.5 119.5v76
q0 80 44.5 126t122.5 46h46q26 0 48.5 -11t36.5 -30v36h94v-260q0 -21 10.5 -34t28.5 -13h24q21 0 32 19.5t11 57.5v164q0 72 -48 113.5t-131 41.5h-198q-98 0 -155 -54.5t-57 -148.5v-200q0 -78 48 -124t130 -46h176q50 0 96 12t75 33l51 -76q-34 -29 -94 -46t-131 -17
h-173q-88 0 -152.5 32zM455 225q33 0 53 23.5t25 65.5v75q-4 32 -22 50.5t-46 18.5h-47q-34 0 -53.5 -23t-19.5 -63v-71q0 -34 17 -55t45 -21h48z" />
    <glyph glyph-name="A" unicode="A" horiz-adv-x="670" 
d="M474 173h-278l-65 -173h-121l272 700h53q54 0 75 -53l250 -647h-122zM229 271h212l-105 284h-1z" />
    <glyph glyph-name="B" unicode="B" horiz-adv-x="681" 
d="M92 23.5q-24 23.5 -24 60.5v616h331q93 0 149.5 -44.5t56.5 -117.5v-51q0 -35 -17 -66t-47 -50v-1q49 -16 78.5 -54t29.5 -86v-50q0 -83 -57 -131.5t-154 -48.5h-284q-38 0 -62 23.5zM405 401q37 0 60 24t23 62v41q0 32 -25.5 51t-67.5 19h-210v-197h220zM428 102
q49 0 76.5 22t27.5 61v45q0 34 -24 54.5t-64 20.5h-259v-203h243z" />
    <glyph glyph-name="C" unicode="C" horiz-adv-x="679" 
d="M166 24.5q-56 32.5 -87 92t-31 137.5v192q0 78 31.5 137.5t88.5 92t132 32.5h106q71 0 126 -30.5t85 -86t30 -128.5h-115q0 64 -35 103t-91 39h-106q-61 0 -98 -45t-37 -118v-184q0 -74 36 -118.5t95 -44.5h108q58 0 94 44t36 114h115q0 -78 -30.5 -137t-86 -91.5
t-128.5 -32.5h-108q-74 0 -130 32.5z" />
    <glyph glyph-name="D" unicode="D" horiz-adv-x="693" 
d="M91.5 23q-23.5 23 -23.5 61v616h319q78 0 137.5 -29.5t92 -83.5t32.5 -125v-204q0 -127 -65.5 -192.5t-192.5 -65.5h-237q-39 0 -62.5 23zM388 103q71 0 107.5 40.5t36.5 118.5v196q0 62 -41 100.5t-107 38.5h-199v-494h203z" />
    <glyph glyph-name="E" unicode="E" horiz-adv-x="619" 
d="M91.5 23.5q-23.5 23.5 -23.5 61.5v615h513v-101h-396v-190h366v-102h-366v-206h396v-101h-427q-39 0 -62.5 23.5z" />
    <glyph glyph-name="F" unicode="F" horiz-adv-x="595" 
d="M68 700h503v-102h-386v-211h349v-102h-349v-285h-117v700z" />
    <glyph glyph-name="G" unicode="G" horiz-adv-x="703" 
d="M166.5 24.5q-56.5 32.5 -87.5 92t-31 137.5v192q0 78 31.5 137.5t89 92t132.5 32.5h110q72 0 127 -29.5t85 -83t30 -123.5h-115q0 60 -35 96.5t-92 36.5h-110q-61 0 -98.5 -44.5t-37.5 -118.5v-184q0 -74 36.5 -118.5t96.5 -44.5h114q58 0 95 41t37 105v34h-194v102h309
v-136q0 -73 -31 -129.5t-87 -88t-129 -31.5h-114q-75 0 -131.5 32.5z" />
    <glyph glyph-name="H" unicode="H" horiz-adv-x="715" 
d="M68 700h117v-297h346v297h116v-700h-116v301h-346v-301h-117v700z" />
    <glyph glyph-name="I" unicode="I" horiz-adv-x="273" 
d="M78 700h117v-700h-117v700z" />
    <glyph glyph-name="J" unicode="J" horiz-adv-x="596" 
d="M125 22.5q-49 30.5 -76 86t-27 127.5h115q0 -64 28 -102.5t73 -38.5h80q46 0 73.5 40.5t27.5 108.5v456h117v-460q0 -75 -26.5 -131t-75 -86.5t-112.5 -30.5h-84q-64 0 -113 30.5z" />
    <glyph glyph-name="K" unicode="K" horiz-adv-x="659" 
d="M503 0l-244 308l-74 -79v-229h-117v700h117v-323l298 323h144l-289 -308l307 -392h-142z" />
    <glyph glyph-name="L" unicode="L" horiz-adv-x="579" 
d="M91 23q-23 23 -23 61v616h117v-598h380v-102h-411q-40 0 -63 23z" />
    <glyph glyph-name="M" unicode="M" horiz-adv-x="814" 
d="M68 700h106l236 -432l230 432h106v-700h-115v483l-165 -306q-14 -24 -27 -34.5t-29 -10.5h-33l-195 351v-483h-114v700z" />
    <glyph glyph-name="N" unicode="N" horiz-adv-x="709" 
d="M68 700h105l354 -512v512h114v-700h-106l-353 510v-510h-114v700z" />
    <glyph glyph-name="O" unicode="O" horiz-adv-x="715" 
d="M170 24.5q-58 32.5 -90 92t-32 137.5v192q0 78 32 137.5t90 92t134 32.5h106q76 0 134.5 -32.5t90.5 -92t32 -137.5v-192q0 -78 -32 -137.5t-90.5 -92t-134.5 -32.5h-106q-76 0 -134 32.5zM410 95q62 0 101 45t39 118v184q0 73 -38.5 118t-101.5 45h-105
q-63 0 -101.5 -45t-38.5 -118v-184q0 -73 38.5 -118t101.5 -45h105z" />
    <glyph glyph-name="P" unicode="P" horiz-adv-x="643" 
d="M68 700h359q88 0 142 -49.5t54 -130.5v-96q0 -85 -56.5 -136.5t-148.5 -51.5h-233v-236h-117v700zM416 338q41 0 65.5 25t24.5 65v89q0 37 -22 59t-59 22h-240v-260h231z" />
    <glyph glyph-name="Q" unicode="Q" horiz-adv-x="719" 
d="M625 -43l-79 78q-65 -43 -138 -43h-105q-76 0 -133.5 32.5t-89.5 92t-32 137.5v192q0 78 32 137.5t90.5 92t134.5 32.5h106q76 0 134 -32.5t90 -92t32 -137.5v-186q0 -81 -46 -149l78 -77zM469 111l-96 95l73 77l92 -90q12 30 12 67v182q0 73 -38.5 118t-101.5 45h-105
q-62 0 -101 -45t-39 -118v-184q0 -73 38 -118t101 -45h104q31 0 61 16z" />
    <glyph glyph-name="R" unicode="R" horiz-adv-x="669" 
d="M68 700h361q86 0 139 -47t53 -124v-71q0 -52 -31.5 -91.5t-87.5 -58.5v-2q32 -19 51.5 -48.5t33.5 -76.5l56 -181h-121l-54 173q-13 45 -40 69t-63 24h-180v-266h-117v700zM403 367q46 0 73.5 25t27.5 65v69q0 32 -21 52t-56 20h-242v-231h218z" />
    <glyph glyph-name="S" unicode="S" horiz-adv-x="646" 
d="M104 52q-60 60 -60 164h115q0 -56 29.5 -88.5t81.5 -32.5h111q49 0 79 21.5t30 56.5v44q0 27 -21 45t-60 25l-182 31q-85 14 -130.5 56t-45.5 107v55q0 51 27.5 90t77.5 60.5t116 21.5h113q62 0 109.5 -25.5t73.5 -72.5t26 -108h-114q0 46 -26.5 74.5t-68.5 28.5h-113
q-47 0 -75.5 -20.5t-28.5 -55.5v-36q0 -28 20 -46.5t58 -24.5l182 -32q86 -15 132.5 -55.5t46.5 -103.5v-65q0 -51 -28 -90.5t-79 -61.5t-117 -22h-115q-104 0 -164 60z" />
    <glyph glyph-name="T" unicode="T" horiz-adv-x="597" 
d="M240 599h-222v101h561v-101h-222v-599h-117v599z" />
    <glyph glyph-name="U" unicode="U" horiz-adv-x="711" 
d="M177 22.5q-54 30.5 -83.5 86t-29.5 128.5v463h117v-461q0 -65 33 -104.5t87 -39.5h107q55 0 88.5 39.5t33.5 104.5v461h117v-463q0 -73 -30 -128.5t-84 -86t-125 -30.5h-107q-70 0 -124 30.5z" />
    <glyph glyph-name="V" unicode="V" horiz-adv-x="655" 
d="M250 58l-240 642h121l196 -554h1l197 554h120l-266 -700h-56q-50 0 -73 58z" />
    <glyph glyph-name="W" unicode="W" horiz-adv-x="866" 
d="M173 17q-21 17 -29 57l-122 626h118l93 -533h2l155 496h44q47 0 64 -54l133 -441h2l93 532h118l-123 -626q-8 -38 -27.5 -56t-53.5 -18h-48l-156 508h-2l-160 -508h-48q-32 0 -53 17z" />
    <glyph glyph-name="X" unicode="X" horiz-adv-x="631" 
d="M249 357l-235 343h132l170 -247l170 247h131l-235 -343l245 -357h-132l-179 262l-180 -262h-132z" />
    <glyph glyph-name="Y" unicode="Y" horiz-adv-x="642" 
d="M263 271l-259 429h127l190 -322l190 322h127l-259 -429v-271h-116v271z" />
    <glyph glyph-name="Z" unicode="Z" horiz-adv-x="597" 
d="M28 56l379 544h-361v100h523v-56l-381 -544h371v-100h-531v56z" />
    <glyph glyph-name="bracketleft" unicode="[" horiz-adv-x="336" 
d="M118.5 -159q-50.5 48 -50.5 134v578q0 86 50.5 134t140.5 48h49v-100h-49q-36 0 -56 -21.5t-20 -59.5v-580q0 -38 20 -59t56 -21h49v-101h-49q-90 0 -140.5 48z" />
    <glyph glyph-name="backslash" unicode="\" horiz-adv-x="538" 
d="M24 722h116l374 -747h-116z" />
    <glyph glyph-name="bracketright" unicode="]" horiz-adv-x="336" 
d="M28 -106h49q36 0 56 21t20 59v580q0 38 -20.5 59.5t-55.5 21.5h-49v100h49q90 0 140.5 -48t50.5 -134v-578q0 -86 -50.5 -134t-140.5 -48h-49v101z" />
    <glyph glyph-name="asciicircum" unicode="^" horiz-adv-x="589" 
d="M243 700h104l198 -354h-120l-130 240l-131 -240h-120z" />
    <glyph glyph-name="underscore" unicode="_" horiz-adv-x="573" 
d="M0 -9h573v-100h-573v100z" />
    <glyph glyph-name="grave" unicode="`" horiz-adv-x="296" 
d="M38 743h127l93 -171h-109z" />
    <glyph glyph-name="a" unicode="a" horiz-adv-x="575" 
d="M94.5 30.5q-46.5 38.5 -46.5 102.5v36q0 63 48.5 101t127.5 38h62q28 0 60 -8t57 -21v62q0 31 -20 50t-52 19h-84q-33 0 -53 -15.5t-20 -40.5h-112q0 69 51 111t134 42h84q84 0 135 -45.5t51 -120.5v-341h-107v63q-24 -32 -60 -51.5t-71 -19.5h-62q-76 0 -122.5 38.5z
M286 82q40 0 72 22.5t45 59.5v24q-17 14 -48 22.5t-65 8.5h-63q-30 0 -48.5 -15t-18.5 -39v-28q0 -25 19 -40t50 -15h57z" />
    <glyph glyph-name="b" unicode="b" horiz-adv-x="595" 
d="M224.5 12.5q-33.5 20.5 -53.5 51.5v-64h-107v700h115v-247q20 25 51 39.5t62 14.5h70q55 0 98 -24.5t67 -68.5t24 -101v-119q0 -60 -24 -106t-67.5 -71t-99.5 -25h-70q-32 0 -65.5 20.5zM348 93q39 0 64 29.5t25 77.5v106q0 45 -24 72.5t-62 27.5h-64q-44 0 -74 -31.5
t-34 -82.5v-98q5 -44 34.5 -72.5t68.5 -28.5h66z" />
    <glyph glyph-name="c" unicode="c" horiz-adv-x="552" 
d="M99.5 45q-55.5 53 -55.5 140v126q0 58 25 102.5t71 69t106 24.5h80q86 0 138.5 -49.5t52.5 -130.5h-113q0 36 -21.5 58.5t-56.5 22.5h-79q-39 0 -63.5 -29t-24.5 -75v-112q0 -45 24.5 -73t64.5 -28h79q37 0 59.5 27t22.5 70h113q0 -88 -53.5 -142t-141.5 -54h-80
q-92 0 -147.5 53z" />
    <glyph glyph-name="d" unicode="d" horiz-adv-x="595" 
d="M96.5 45.5q-52.5 53.5 -52.5 140.5v116q0 61 25 107.5t70.5 72t104.5 25.5h61q31 0 61.5 -14t50.5 -37v244h114v-700h-107v69q-21 -35 -56 -56t-71 -21h-63q-85 0 -137.5 53.5zM306 91q43 0 74.5 34.5t36.5 85.5v100q-7 43 -33.5 70t-63.5 27h-64q-44 0 -70.5 -31
t-26.5 -81v-103q0 -46 24.5 -74t62.5 -28h60z" />
    <glyph glyph-name="e" unicode="e" horiz-adv-x="569" 
d="M141.5 15q-46.5 23 -72 65t-25.5 97v134q0 58 25.5 102.5t72 69t107.5 24.5h80q91 0 146 -53t55 -141v-100h-371v-36q0 -40 24.5 -64t65.5 -24h77q40 0 64.5 19.5t24.5 51.5h113q0 -76 -56 -122t-147 -46h-76q-61 0 -107.5 23zM417 299v14q0 44 -24 71t-63 27h-81
q-41 0 -66.5 -28.5t-25.5 -74.5v-9h260z" />
    <glyph glyph-name="f" unicode="f" horiz-adv-x="372" 
d="M111 400h-86v99h86v35q0 81 48.5 125.5t136.5 44.5h61v-98h-59q-37 0 -54.5 -17.5t-17.5 -55.5v-34h120v-99h-120v-400h-115v400z" />
    <glyph glyph-name="g" unicode="g" horiz-adv-x="597" 
d="M122 -161q-50 42 -55 111h113q3 -25 21.5 -40t45.5 -15h88q38 0 60.5 28.5t22.5 76.5v57q-21 -24 -51.5 -39t-59.5 -15h-70q-86 0 -139.5 53.5t-53.5 140.5v107q0 60 25 106t70.5 71.5t104.5 25.5h62q34 0 67 -16.5t52 -43.5v52h108v-499q0 -93 -53.5 -148t-144.5 -55
h-88q-75 0 -125 42zM313 101q43 0 72 34t33 88v87q-4 43 -31 70.5t-65 27.5h-69q-42 0 -68 -30.5t-26 -80.5v-93q0 -46 23.5 -74.5t61.5 -28.5h69z" />
    <glyph glyph-name="h" unicode="h" horiz-adv-x="593" 
d="M64 700h115v-257q23 29 56.5 46.5t65.5 17.5h64q77 0 123.5 -49t46.5 -129v-329h-115v326q0 36 -18.5 58.5t-48.5 22.5h-64q-39 0 -70 -29t-40 -76v-302h-115v700z" />
    <glyph glyph-name="i" unicode="i" horiz-adv-x="279" 
d="M84.5 575.5q-20.5 20.5 -20.5 52.5t20.5 52.5t54.5 20.5t55 -20.5t21 -52.5t-21 -52.5t-55 -20.5t-54.5 20.5zM82 499h115v-499h-115v499z" />
    <glyph glyph-name="j" unicode="j" horiz-adv-x="289" 
d="M94.5 575.5q-20.5 20.5 -20.5 52.5t20.5 52.5t54.5 20.5t55 -20.5t21 -52.5t-21 -52.5t-55 -20.5t-54.5 20.5zM-40 -100h53q41 0 60 24.5t19 79.5v495h115v-490q0 -108 -46.5 -158t-147.5 -50h-53v99z" />
    <glyph glyph-name="k" unicode="k" horiz-adv-x="540" 
d="M406 0l-169 212l-58 -58v-154h-115v700h115v-415l213 214h135l-215 -213l226 -286h-132z" />
    <glyph glyph-name="l" unicode="l" horiz-adv-x="287" 
d="M102.5 35.5q-38.5 35.5 -38.5 112.5v552h115v-547q0 -29 12 -41.5t40 -12.5h48v-99h-54q-84 0 -122.5 35.5z" />
    <glyph glyph-name="m" unicode="m" horiz-adv-x="844" 
d="M742.5 460q43.5 -47 43.5 -126v-334h-115v335q0 33 -15 52.5t-40 19.5h-48q-33 0 -56 -23.5t-30 -63.5v-320h-114v332q0 34 -15 54.5t-40 20.5h-45q-33 0 -57.5 -29.5t-31.5 -76.5v-301h-115v499h107v-63q19 33 48 52t59 19h57q38 0 68 -19.5t47 -54.5q22 35 53 54.5
t66 19.5h57q73 0 116.5 -47z" />
    <glyph glyph-name="n" unicode="n" horiz-adv-x="591" 
d="M64 499h107v-65q22 33 58 53t72 20h62q77 0 123.5 -49t46.5 -129v-329h-115v326q0 36 -18.5 58.5t-48.5 22.5h-62q-39 0 -70 -29.5t-40 -75.5v-302h-115v499z" />
    <glyph glyph-name="o" unicode="o" horiz-adv-x="586" 
d="M100 45.5q-56 53.5 -56 141.5v124q0 58 25.5 102.5t72 69t107.5 24.5h88q61 0 107.5 -24.5t72 -69t25.5 -102.5v-124q0 -88 -56.5 -141.5t-150.5 -53.5h-87q-92 0 -148 53.5zM334 91q42 0 67.5 28.5t25.5 74.5v111q0 46 -25 74.5t-67 28.5h-84q-42 0 -67 -28.5t-25 -74.5
v-111q0 -46 25 -74.5t65 -28.5h85z" />
    <glyph glyph-name="p" unicode="p" horiz-adv-x="595" 
d="M64 499h107v-59q21 30 54.5 48.5t65.5 18.5h66q87 0 140.5 -52.5t53.5 -138.5v-116q0 -94 -53 -151t-141 -57h-67q-29 0 -60 14.5t-51 38.5v-245h-115v699zM345 91q41 0 66.5 32t25.5 84v102q0 44 -25 71.5t-66 27.5h-64q-34 0 -62.5 -26.5t-40.5 -68.5v-116
q5 -47 33.5 -76.5t68.5 -29.5h64z" />
    <glyph glyph-name="q" unicode="q" horiz-adv-x="595" 
d="M417 48q-20 -25 -50.5 -40.5t-58.5 -15.5h-72q-86 0 -139 53.5t-53 141.5v117q0 92 54.5 147.5t144.5 55.5h69q31 0 62 -16.5t50 -43.5v52h107v-700h-114v249zM312 91q42 0 71 34t34 88v97q-5 44 -31.5 71t-64.5 27h-70q-41 0 -66.5 -30.5t-25.5 -80.5v-103
q0 -46 23 -74.5t61 -28.5h69z" />
    <glyph glyph-name="r" unicode="r" horiz-adv-x="374" 
d="M64 499h107v-68q20 31 57.5 50.5t77.5 19.5h60v-100h-60q-57 0 -92 -35t-35 -91v-275h-115v499z" />
    <glyph glyph-name="s" unicode="s" horiz-adv-x="539" 
d="M91 38q-52 46 -52 122h113q0 -32 21 -51.5t56 -19.5h89q34 0 53.5 11.5t19.5 31.5v22q0 14 -11.5 24t-31.5 14l-173 30q-58 10 -92 42.5t-34 75.5v33q0 62 49.5 98t136.5 36h80q79 0 128 -43t49 -113h-113q0 27 -17.5 43t-46.5 16h-79q-35 0 -54 -11t-19 -31v-20
q0 -14 11.5 -24t30.5 -13l179 -32q55 -11 88 -42t33 -73v-37q0 -62 -51 -98.5t-136 -36.5h-89q-86 0 -138 46z" />
    <glyph glyph-name="t" unicode="t" horiz-adv-x="401" 
d="M151 38q-39 38 -39 120v242h-88v99h91v151h112v-151h130v-99h-130v-238q0 -33 13 -48t41 -15h76v-99h-82q-85 0 -124 38z" />
    <glyph glyph-name="u" unicode="u" horiz-adv-x="589" 
d="M104.5 43.5q-46.5 51.5 -46.5 134.5v321h115v-323q0 -38 18.5 -61t48.5 -23h60q38 0 68.5 30.5t41.5 79.5v297h115v-499h-108v68q-22 -34 -57.5 -55t-67.5 -21h-66q-75 0 -121.5 51.5z" />
    <glyph glyph-name="v" unicode="v" horiz-adv-x="512" 
d="M176 60l-172 439h121l130 -369h1l131 369h121l-199 -499h-58q-52 0 -75 60z" />
    <glyph glyph-name="w" unicode="w" horiz-adv-x="740" 
d="M720 499l-102 -428q-17 -71 -77 -71h-53l-115 336l-120 -336h-52q-59 0 -77 71l-104 428h119l73 -355l118 342h44q20 0 32.5 -9t19.5 -29l104 -301l71 352h119z" />
    <glyph glyph-name="x" unicode="x" horiz-adv-x="518" 
d="M193 254l-182 245h128l120 -161l120 161h128l-182 -245l189 -254h-129l-126 170l-126 -170h-129z" />
    <glyph glyph-name="y" unicode="y" horiz-adv-x="589" 
d="M121.5 -161q-49.5 42 -54.5 111h113q3 -25 21 -40t46 -15h81q38 0 60.5 28.5t22.5 76.5v74q-24 -33 -55.5 -52t-63.5 -19h-65q-76 0 -122.5 50.5t-46.5 133.5v312h115v-314q0 -38 18.5 -61t49.5 -23h59q37 0 68.5 31t42.5 79v288h114v-499q0 -93 -53.5 -148t-143.5 -55
h-81q-76 0 -125.5 42z" />
    <glyph glyph-name="z" unicode="z" horiz-adv-x="491" 
d="M24 56l279 346h-267v97h431v-56l-279 -346h274v-97h-438v56z" />
    <glyph glyph-name="braceleft" unicode="{" horiz-adv-x="389" 
d="M174.5 -184q-47.5 47 -47.5 131v174q0 38 -22 61t-61 26v88q39 3 61 26t22 61v174q0 84 47.5 131t132.5 47h58v-100h-51q-34 0 -53 -22t-19 -60v-170q0 -41 -19 -75t-53 -56q34 -22 53 -56t19 -75v-170q0 -38 19 -60t53 -22h51v-100h-58q-85 0 -132.5 47z" />
    <glyph glyph-name="bar" unicode="|" horiz-adv-x="263" 
d="M74 847h115v-994h-115v994z" />
    <glyph glyph-name="braceright" unicode="}" horiz-adv-x="389" 
d="M24 -131h50q34 0 53.5 22t19.5 60v170q0 41 18.5 75t53.5 56q-35 22 -53.5 56t-18.5 75v170q0 38 -19.5 60t-53.5 22h-50v100h57q85 0 133 -47t48 -131v-174q0 -38 22 -61t61 -26v-88q-39 -3 -61 -26t-22 -61v-174q0 -84 -48 -131t-133 -47h-57v100z" />
    <glyph glyph-name="asciitilde" unicode="~" horiz-adv-x="618" 
d="M328 236.5q-30 19.5 -60 52.5q-21 21 -31 29t-22 8h-15q-22 0 -35.5 -25.5t-15.5 -69.5h-105q2 91 43.5 143t112.5 52h15q42 0 69 -18t56 -50q19 -21 32.5 -31t29.5 -10h14q23 0 38 26t16 71h104q-2 -92 -43.5 -144.5t-114.5 -52.5h-14q-44 0 -74 19.5z" />
    <glyph glyph-name="uni00A0" unicode="&#xa0;" horiz-adv-x="279" 
 />
    <glyph glyph-name="exclamdown" unicode="&#xa1;" horiz-adv-x="285" 
d="M195 487q20 -20 20 -53q0 -32 -20 -52t-52 -20q-33 0 -53 20t-20 52q0 33 20 53t53 20q32 0 52 -20zM201 294v-497h-116v497h116z" />
    <glyph glyph-name="cent" unicode="&#xa2;" horiz-adv-x="552" 
d="M472.5 50q-49.5 -53 -131.5 -58v-102h-115v103q-83 6 -132.5 58t-49.5 134v126q0 82 49.5 135.5t132.5 59.5v101h115v-100q80 -4 128 -53.5t48 -126.5h-113q0 36 -21.5 58.5t-56.5 22.5h-79q-39 0 -63.5 -29t-24.5 -75v-112q0 -45 24.5 -73t64.5 -28h79q37 0 59.5 27
t22.5 70h113q0 -85 -49.5 -138z" />
    <glyph glyph-name="sterling" unicode="&#xa3;" horiz-adv-x="668" 
d="M251 102h379v-102h-586v102h90v166h-87v101h87v125q0 63 26 111.5t73.5 75.5t109.5 27h86q60 0 106 -26t71.5 -72.5t25.5 -107.5h-114q-1 46 -25.5 75t-63.5 29h-86q-41 0 -66.5 -31t-25.5 -81v-125h216v-101h-216v-166z" />
    <glyph glyph-name="currency" unicode="&#xa4;" horiz-adv-x="681" 
d="M44 111l66 65q-23 32 -35.5 74.5t-12.5 85.5q0 44 13 86.5t35 73.5l-65 65l68 71l70 -69q31 19 72 29.5t84 10.5q42 0 84 -11t74 -30l72 70l68 -72l-67 -65q22 -31 34 -73t12 -86t-12 -86t-34 -72l67 -67l-69 -68l-70 68q-32 -20 -74.5 -31t-84.5 -11t-83.5 11t-73.5 30
l-69 -67zM459 214.5q43 43.5 43 121.5t-43 122t-120 44t-119.5 -44t-42.5 -122t42.5 -121.5t119.5 -43.5t120 43.5z" />
    <glyph glyph-name="yen" unicode="&#xa5;" horiz-adv-x="642" 
d="M425 347h132v-90h-178v-64h178v-91h-178v-102h-116v102h-174v91h174v64h-174v90h128l-213 353h127l190 -322l190 322h127z" />
    <glyph glyph-name="brokenbar" unicode="&#xa6;" horiz-adv-x="263" 
d="M74 847h115v-412h-115v412zM74 265h115v-412h-115v412z" />
    <glyph glyph-name="section" unicode="&#xa7;" horiz-adv-x="577" 
d="M511.5 259q-21.5 -26 -57.5 -40q27 -13 43 -35t16 -48v-38q0 -61 -49.5 -96t-136.5 -35h-82q-80 0 -128 43t-48 113h113q0 -27 17 -43t46 -16h86q34 0 50.5 11.5t16.5 31.5v21q0 14 -12 25.5t-33 15.5l-188 49q-57 15 -89 46t-32 72v35q0 35 20.5 60t56.5 38
q-24 12 -39 33.5t-15 45.5v38q0 62 49.5 97t136.5 35h81q80 0 128.5 -43t48.5 -113h-113q0 27 -17.5 43t-46.5 16h-87q-65 0 -65 -44v-18q0 -31 47 -44l182 -49q58 -15 90 -45.5t32 -70.5v-31q0 -34 -21.5 -60zM418 337q0 13 -11.5 25t-31.5 17l-164 45q-24 -4 -38 -17.5
t-14 -32.5v-25q0 -15 11 -27.5t31 -16.5l155 -41q28 4 45 16.5t17 31.5v25z" />
    <glyph glyph-name="dieresis" unicode="&#xa8;" horiz-adv-x="436" 
d="M55.5 591q-17.5 18 -17.5 46q0 29 17.5 46.5t46.5 17.5q28 0 46 -17.5t18 -46.5q0 -28 -18 -46t-46 -18q-29 0 -46.5 18zM288 591q-18 18 -18 46q0 29 18 46.5t46 17.5q29 0 46.5 -17.5t17.5 -46.5q0 -28 -17.5 -46t-46.5 -18q-28 0 -46 18z" />
    <glyph glyph-name="copyright" unicode="&#xa9;" horiz-adv-x="733" 
d="M197 60q-73 41 -113 116t-40 173t40 173t113 116t169 41t169 -41t113.5 -116t40.5 -173t-40.5 -173t-113.5 -116t-169 -41t-169 41zM495 124q56 32 87 90.5t31 134.5t-31 134.5t-87 90.5t-129 32t-129 -32t-86.5 -90.5t-30.5 -134.5t30.5 -134.5t86.5 -90.5t129 -32
t129 32zM245.5 203q-35.5 38 -35.5 99v99q0 62 36 99t95 37h55q56 0 90.5 -35.5t34.5 -93.5h-86q0 24 -12 39t-31 15h-47q-21 0 -34 -17.5t-13 -45.5v-95q0 -29 12.5 -46.5t32.5 -17.5h48q20 0 32.5 17t12.5 45h87q0 -62 -35 -99.5t-93 -37.5h-56q-58 0 -93.5 38z" />
    <glyph glyph-name="ordfeminine" unicode="&#xaa;" horiz-adv-x="435" 
d="M83.5 370q-32.5 27 -32.5 71v26q0 44 33.5 71t89.5 27h44q41 0 67 -18v42q0 17 -11.5 27.5t-30.5 10.5h-47q-18 0 -29 -8t-11 -21h-95q0 49 35.5 78.5t93.5 29.5h60q59 0 95 -32t36 -85v-240h-90v39q-16 -20 -37.5 -32.5t-41.5 -12.5h-42q-54 0 -86.5 27zM218 416
q23 0 41.5 13.5t25.5 35.5v14q-9 7 -27 11.5t-38 4.5h-32q-19 0 -30 -8t-11 -22v-19q0 -14 11 -22t30 -8h30z" />
    <glyph glyph-name="guillemotleft" unicode="&#xab;" horiz-adv-x="639" 
d="M24 268l313 264v-124l-168 -140l168 -142v-122zM281 268l314 264v-124l-168 -140l168 -142v-122z" />
    <glyph glyph-name="logicalnot" unicode="&#xac;" horiz-adv-x="664" 
d="M506 345h-462v100h576v-305h-114v205z" />
    <glyph glyph-name="uni00AD" unicode="&#xad;" horiz-adv-x="396" 
d="M44 306h308v-100h-308v100z" />
    <glyph glyph-name="registered" unicode="&#xae;" horiz-adv-x="733" 
d="M197 60q-73 41 -113 116t-40 173t40 173t113 116t169 41t169 -41t113.5 -116t40.5 -173t-40.5 -173t-113.5 -116t-169 -41t-169 41zM495 124q56 32 87 90.5t31 134.5t-31 134.5t-87 90.5t-129 32t-129 -32t-86.5 -90.5t-30.5 -134.5t30.5 -134.5t86.5 -90.5t129 -32
t129 32zM228 532h182q47 0 75.5 -25t28.5 -65v-37q0 -27 -16 -47t-46 -30v-1q17 -9 27 -24t19 -41l28 -92h-89l-27 88q-6 22 -18 30t-32 8h-46v-126h-86v362zM382 368q46 0 46 37v25q0 29 -37 29h-77v-91h68z" />
    <glyph glyph-name="macron" unicode="&#xaf;" horiz-adv-x="374" 
d="M38 673h298v-88h-298v88z" />
    <glyph glyph-name="degree" unicode="&#xb0;" horiz-adv-x="374" 
d="M83.5 464q-39.5 39 -39.5 103t39 102.5t104 38.5t104 -38.5t39 -102.5t-39.5 -103t-103.5 -39t-103.5 39zM236.5 517q18.5 19 18.5 50t-18.5 49.5t-49.5 18.5t-49.5 -18.5t-18.5 -49.5t18.5 -50t49.5 -19t49.5 19z" />
    <glyph glyph-name="plusminus" unicode="&#xb1;" horiz-adv-x="573" 
d="M229 328h-185v99h185v177h115v-177h185v-99h-185v-174h-115v174zM44 99h485v-99h-485v99z" />
    <glyph glyph-name="uni00B2" unicode="&#xb2;" horiz-adv-x="371" 
d="M38 348q0 75 54 109l122 80q27 17 27 42v18q0 13 -9.5 21t-24.5 8h-38q-19 0 -30 -13.5t-11 -36.5h-92q0 58 33.5 93.5t88.5 35.5h56q53 0 86 -29t33 -76v-20q0 -59 -52 -92l-118 -76q-18 -11 -25.5 -22t-7.5 -25h203v-76h-295v59z" />
    <glyph glyph-name="uni00B3" unicode="&#xb3;" horiz-adv-x="388" 
d="M336 468.5q14 -20.5 14 -46.5v-19q0 -53 -36 -86t-94 -33h-58q-58 0 -93 35t-35 93h91q0 -24 12.5 -37.5t33.5 -13.5h41q21 0 33.5 11.5t12.5 31.5v17q0 19 -13.5 30.5t-35.5 11.5h-63v72h68q16 0 26 11.5t10 30.5v17q0 15 -10.5 24.5t-26.5 9.5h-44q-19 0 -30 -13.5
t-11 -37.5h-91q0 58 35 93t91 35h58q54 0 87.5 -30.5t33.5 -79.5v-18q0 -54 -48 -77q28 -11 42 -31.5z" />
    <glyph glyph-name="acute" unicode="&#xb4;" horiz-adv-x="296" 
d="M131 743h127l-111 -171h-109z" />
    <glyph glyph-name="paragraph" unicode="&#xb6;" horiz-adv-x="597" 
d="M523 700v-700h-108v308h-64v-308h-107v308h-16q-77 0 -125.5 46.5t-48.5 121.5v55q0 75 48.5 122t125.5 47h295z" />
    <glyph glyph-name="periodcentered" unicode="&#xb7;" horiz-adv-x="233" 
d="M64 202q-20 20 -20 53q0 32 20 52t53 20q32 0 52 -20t20 -52q0 -33 -20 -53t-52 -20q-33 0 -53 20z" />
    <glyph glyph-name="cedilla" unicode="&#xb8;" horiz-adv-x="281" 
d="M38 -170h75q20 0 31.5 7t11.5 19v14q0 11 -10 18t-27 7h-59v49l34 82h87l-34 -75h9q40 0 63.5 -22t23.5 -58v-17q0 -43 -33.5 -69t-88.5 -26h-83v71z" />
    <glyph glyph-name="uni00B9" unicode="&#xb9;" horiz-adv-x="256" 
d="M113 605l-95 -48v84l110 59h78v-411h-93v316z" />
    <glyph glyph-name="ordmasculine" unicode="&#xba;" horiz-adv-x="447" 
d="M87.5 381q-39.5 38 -39.5 100v87q0 62 40 100t105 38h61q65 0 105 -38t40 -100v-87q0 -62 -40 -100t-105 -38h-62q-65 0 -104.5 38zM249 424q23 0 38 16.5t15 43.5v80q0 27 -14.5 44t-37.5 17h-53q-23 0 -37.5 -17t-14.5 -44v-80q0 -27 14 -43.5t37 -16.5h53z" />
    <glyph glyph-name="guillemotright" unicode="&#xbb;" horiz-adv-x="639" 
d="M44 126l168 142l-168 140v124l313 -264l-313 -264v122zM301 126l168 142l-168 140v124l314 -264l-314 -264v122z" />
    <glyph glyph-name="onequarter" unicode="&#xbc;" horiz-adv-x="809" 
d="M139 605l-95 -48v84l110 59h78v-411h-93v316zM525 722h111l-382 -747h-111zM625 78h-154q-22 0 -33.5 9.5t-11.5 26.5v41l197 256h94v-253h47v-80h-46v-78h-93v78zM630 152v157h-1l-121 -157h122z" />
    <glyph glyph-name="onehalf" unicode="&#xbd;" horiz-adv-x="843" 
d="M139 605l-95 -48v84l110 59h78v-411h-93v316zM502 59q0 75 54 109l122 80q27 17 27 42v18q0 13 -9.5 21t-24.5 8h-38q-19 0 -30 -13.5t-11 -36.5h-92q0 58 33.5 93.5t88.5 35.5h56q53 0 86 -29t33 -76v-20q0 -59 -52 -92l-118 -76q-18 -11 -25.5 -22t-7.5 -25h203v-76
h-295v59zM522 722h111l-382 -747h-111z" />
    <glyph glyph-name="threequarters" unicode="&#xbe;" horiz-adv-x="887" 
d="M346 468.5q14 -20.5 14 -46.5v-19q0 -53 -36 -86t-94 -33h-58q-58 0 -93 35t-35 93h91q0 -24 12.5 -37.5t33.5 -13.5h41q21 0 33.5 11.5t12.5 31.5v17q0 19 -13.5 30.5t-35.5 11.5h-63v72h68q16 0 26 11.5t10 30.5v17q0 15 -10.5 24.5t-26.5 9.5h-44q-19 0 -30 -13.5
t-11 -37.5h-91q0 58 35 93t91 35h58q54 0 87.5 -30.5t33.5 -79.5v-18q0 -54 -48 -77q28 -11 42 -31.5zM704 78h-154q-22 0 -33.5 9.5t-11.5 26.5v41l197 256h94v-253h47v-80h-46v-78h-93v78zM709 152v157h-1l-121 -157h122zM607 722h111l-382 -747h-111z" />
    <glyph glyph-name="questiondown" unicode="&#xbf;" horiz-adv-x="582" 
d="M348 487q20 -20 20 -53q0 -32 -20 -52t-53 -20q-32 0 -52 20t-20 52q0 33 20 53t52 20q33 0 53 -20zM354 274q0 -43 -16 -73.5t-38 -50t-59 -44.5q-42 -29 -61 -49t-19 -51v-36q0 -35 25 -57t66 -22h86q45 0 72.5 29.5t27.5 76.5h116q0 -62 -27 -109t-76 -73t-113 -26
h-86q-62 0 -109 22.5t-73 63.5t-26 95v36q0 42 14.5 71t35.5 47t56 40q44 28 65.5 52.5t21.5 65.5v25h117v-33z" />
    <glyph glyph-name="Agrave" unicode="&#xc0;" horiz-adv-x="670" 
d="M474 173h-278l-65 -173h-121l272 700h53q54 0 75 -53l250 -647h-122zM229 271h212l-105 284h-1zM169 944h127l93 -171h-109z" />
    <glyph glyph-name="Aacute" unicode="&#xc1;" horiz-adv-x="670" 
d="M474 173h-278l-65 -173h-121l272 700h53q54 0 75 -53l250 -647h-122zM229 271h212l-105 284h-1zM373 944h127l-111 -171h-109z" />
    <glyph glyph-name="Acircumflex" unicode="&#xc2;" horiz-adv-x="670" 
d="M474 173h-278l-65 -173h-121l272 700h53q54 0 75 -53l250 -647h-122zM229 271h212l-105 284h-1zM296 951h77l143 -178h-104l-77 102l-78 -102h-103z" />
    <glyph glyph-name="Atilde" unicode="&#xc3;" horiz-adv-x="670" 
d="M474 173h-278l-65 -173h-121l272 700h53q54 0 75 -53l250 -647h-122zM229 271h212l-105 284h-1zM357.5 775.5q-17.5 10.5 -38.5 28.5q-13 12 -22 18t-18 6h-7q-14 0 -22.5 -14.5t-9.5 -37.5h-85q0 59 31 96t81 37h8q24 0 42 -11t40 -30q12 -11 20 -16.5t15 -5.5h8
q12 0 20.5 14t9.5 38h84q0 -60 -30 -96.5t-79 -36.5h-7q-23 0 -40.5 10.5z" />
    <glyph glyph-name="Adieresis" unicode="&#xc4;" horiz-adv-x="670" 
d="M474 173h-278l-65 -173h-121l272 700h53q54 0 75 -53l250 -647h-122zM229 271h212l-105 284h-1zM172.5 792q-17.5 18 -17.5 46q0 29 17.5 46.5t46.5 17.5q28 0 46 -17.5t18 -46.5q0 -28 -18 -46t-46 -18q-29 0 -46.5 18zM405 792q-18 18 -18 46q0 29 18 46.5t46 17.5
q29 0 46.5 -17.5t17.5 -46.5q0 -28 -17.5 -46t-46.5 -18q-28 0 -46 18z" />
    <glyph glyph-name="Aring" unicode="&#xc5;" horiz-adv-x="670" 
d="M474 173h-278l-65 -173h-121l272 700h53q54 0 75 -53l250 -647h-122zM229 271h212l-105 284h-1zM250 777.5q-32 31.5 -32 83.5q0 51 32.5 82.5t84.5 31.5t84.5 -31.5t32.5 -82.5q0 -52 -32 -83.5t-85 -31.5t-85 31.5zM370 826q13 13 13 35q0 21 -13 34t-35 13t-35 -13
t-13 -34q0 -22 13 -35t35 -13t35 13z" />
    <glyph glyph-name="AE" unicode="&#xc6;" horiz-adv-x="949" 
d="M526 599v-190h345v-102h-345v-206h385v-101h-411q-40 0 -63.5 23t-23.5 62v90h-202l-96 -175h-119l385 700h530v-101h-385zM421 275v297l-160 -297h160z" />
    <glyph glyph-name="Ccedilla" unicode="&#xc7;" horiz-adv-x="679" 
d="M390 -8l-19 -41h9q40 0 63.5 -22t23.5 -58v-17q0 -43 -33.5 -69t-88.5 -26h-83v71h75q20 0 31.5 7t11.5 19v14q0 11 -10 18t-27 7h-59v49l20 48h-8q-74 0 -130 32.5t-87 92t-31 137.5v192q0 78 31.5 137.5t88.5 92t132 32.5h106q71 0 126 -30.5t85 -86t30 -128.5h-115
q0 64 -35 103t-91 39h-106q-61 0 -98 -45t-37 -118v-184q0 -74 36 -118.5t95 -44.5h108q58 0 94 44t36 114h115q0 -78 -30.5 -137t-86 -91.5t-128.5 -32.5h-14z" />
    <glyph glyph-name="Egrave" unicode="&#xc8;" horiz-adv-x="619" 
d="M91.5 23.5q-23.5 23.5 -23.5 61.5v615h513v-101h-396v-190h366v-102h-366v-206h396v-101h-427q-39 0 -62.5 23.5zM162 944h127l93 -171h-109z" />
    <glyph glyph-name="Eacute" unicode="&#xc9;" horiz-adv-x="619" 
d="M91.5 23.5q-23.5 23.5 -23.5 61.5v615h513v-101h-396v-190h366v-102h-366v-206h396v-101h-427q-39 0 -62.5 23.5zM366 944h127l-111 -171h-109z" />
    <glyph glyph-name="Ecircumflex" unicode="&#xca;" horiz-adv-x="619" 
d="M91.5 23.5q-23.5 23.5 -23.5 61.5v615h513v-101h-396v-190h366v-102h-366v-206h396v-101h-427q-39 0 -62.5 23.5zM289 951h77l143 -178h-104l-77 102l-78 -102h-103z" />
    <glyph glyph-name="Edieresis" unicode="&#xcb;" horiz-adv-x="619" 
d="M91.5 23.5q-23.5 23.5 -23.5 61.5v615h513v-101h-396v-190h366v-102h-366v-206h396v-101h-427q-39 0 -62.5 23.5zM165.5 792q-17.5 18 -17.5 46q0 29 17.5 46.5t46.5 17.5q28 0 46 -17.5t18 -46.5q0 -28 -18 -46t-46 -18q-29 0 -46.5 18zM398 792q-18 18 -18 46
q0 29 18 46.5t46 17.5q29 0 46.5 -17.5t17.5 -46.5q0 -28 -17.5 -46t-46.5 -18q-28 0 -46 18z" />
    <glyph glyph-name="Igrave" unicode="&#xcc;" horiz-adv-x="273" 
d="M78 700h117v-700h-117v700zM-30 944h127l93 -171h-109z" />
    <glyph glyph-name="Iacute" unicode="&#xcd;" horiz-adv-x="273" 
d="M78 700h117v-700h-117v700zM174 944h127l-111 -171h-109z" />
    <glyph glyph-name="Icircumflex" unicode="&#xce;" horiz-adv-x="273" 
d="M78 700h117v-700h-117v700zM97 951h77l143 -178h-104l-77 102l-78 -102h-103z" />
    <glyph glyph-name="Idieresis" unicode="&#xcf;" horiz-adv-x="273" 
d="M78 700h117v-700h-117v700zM-26.5 792q-17.5 18 -17.5 46q0 29 17.5 46.5t46.5 17.5q28 0 46 -17.5t18 -46.5q0 -28 -18 -46t-46 -18q-29 0 -46.5 18zM206 792q-18 18 -18 46q0 29 18 46.5t46 17.5q29 0 46.5 -17.5t17.5 -46.5q0 -28 -17.5 -46t-46.5 -18q-28 0 -46 18z
" />
    <glyph glyph-name="Eth" unicode="&#xd0;" horiz-adv-x="744" 
d="M575.5 670.5q59.5 -29.5 92 -83.5t32.5 -125v-204q0 -127 -65.5 -192.5t-192.5 -65.5h-237q-39 0 -62.5 23t-23.5 61v214h-96v102h96v300h319q78 0 137.5 -29.5zM583 458q0 62 -41 100.5t-107 38.5h-199v-197h211v-102h-211v-195h203q71 0 107.5 40.5t36.5 118.5v196z
" />
    <glyph glyph-name="Ntilde" unicode="&#xd1;" horiz-adv-x="709" 
d="M68 700h105l354 -512v512h114v-700h-106l-353 510v-510h-114v700zM376.5 775.5q-17.5 10.5 -38.5 28.5q-13 12 -22 18t-18 6h-7q-14 0 -22.5 -14.5t-9.5 -37.5h-85q0 59 31 96t81 37h8q24 0 42 -11t40 -30q12 -11 20 -16.5t15 -5.5h8q12 0 20.5 14t9.5 38h84
q0 -60 -30 -96.5t-79 -36.5h-7q-23 0 -40.5 10.5z" />
    <glyph glyph-name="Ograve" unicode="&#xd2;" horiz-adv-x="715" 
d="M170 24.5q-58 32.5 -90 92t-32 137.5v192q0 78 32 137.5t90 92t134 32.5h106q76 0 134.5 -32.5t90.5 -92t32 -137.5v-192q0 -78 -32 -137.5t-90.5 -92t-134.5 -32.5h-106q-76 0 -134 32.5zM410 95q62 0 101 45t39 118v184q0 73 -38.5 118t-101.5 45h-105
q-63 0 -101.5 -45t-38.5 -118v-184q0 -73 38.5 -118t101.5 -45h105zM191 944h127l93 -171h-109z" />
    <glyph glyph-name="Oacute" unicode="&#xd3;" horiz-adv-x="715" 
d="M170 24.5q-58 32.5 -90 92t-32 137.5v192q0 78 32 137.5t90 92t134 32.5h106q76 0 134.5 -32.5t90.5 -92t32 -137.5v-192q0 -78 -32 -137.5t-90.5 -92t-134.5 -32.5h-106q-76 0 -134 32.5zM410 95q62 0 101 45t39 118v184q0 73 -38.5 118t-101.5 45h-105
q-63 0 -101.5 -45t-38.5 -118v-184q0 -73 38.5 -118t101.5 -45h105zM395 944h127l-111 -171h-109z" />
    <glyph glyph-name="Ocircumflex" unicode="&#xd4;" horiz-adv-x="715" 
d="M170 24.5q-58 32.5 -90 92t-32 137.5v192q0 78 32 137.5t90 92t134 32.5h106q76 0 134.5 -32.5t90.5 -92t32 -137.5v-192q0 -78 -32 -137.5t-90.5 -92t-134.5 -32.5h-106q-76 0 -134 32.5zM410 95q62 0 101 45t39 118v184q0 73 -38.5 118t-101.5 45h-105
q-63 0 -101.5 -45t-38.5 -118v-184q0 -73 38.5 -118t101.5 -45h105zM318 951h77l143 -178h-104l-77 102l-78 -102h-103z" />
    <glyph glyph-name="Otilde" unicode="&#xd5;" horiz-adv-x="715" 
d="M170 24.5q-58 32.5 -90 92t-32 137.5v192q0 78 32 137.5t90 92t134 32.5h106q76 0 134.5 -32.5t90.5 -92t32 -137.5v-192q0 -78 -32 -137.5t-90.5 -92t-134.5 -32.5h-106q-76 0 -134 32.5zM410 95q62 0 101 45t39 118v184q0 73 -38.5 118t-101.5 45h-105
q-63 0 -101.5 -45t-38.5 -118v-184q0 -73 38.5 -118t101.5 -45h105zM379.5 775.5q-17.5 10.5 -38.5 28.5q-13 12 -22 18t-18 6h-7q-14 0 -22.5 -14.5t-9.5 -37.5h-85q0 59 31 96t81 37h8q24 0 42 -11t40 -30q12 -11 20 -16.5t15 -5.5h8q12 0 20.5 14t9.5 38h84
q0 -60 -30 -96.5t-79 -36.5h-7q-23 0 -40.5 10.5z" />
    <glyph glyph-name="Odieresis" unicode="&#xd6;" horiz-adv-x="715" 
d="M170 24.5q-58 32.5 -90 92t-32 137.5v192q0 78 32 137.5t90 92t134 32.5h106q76 0 134.5 -32.5t90.5 -92t32 -137.5v-192q0 -78 -32 -137.5t-90.5 -92t-134.5 -32.5h-106q-76 0 -134 32.5zM410 95q62 0 101 45t39 118v184q0 73 -38.5 118t-101.5 45h-105
q-63 0 -101.5 -45t-38.5 -118v-184q0 -73 38.5 -118t101.5 -45h105zM194.5 792q-17.5 18 -17.5 46q0 29 17.5 46.5t46.5 17.5q28 0 46 -17.5t18 -46.5q0 -28 -18 -46t-46 -18q-29 0 -46.5 18zM427 792q-18 18 -18 46q0 29 18 46.5t46 17.5q29 0 46.5 -17.5t17.5 -46.5
q0 -28 -17.5 -46t-46.5 -18q-28 0 -46 18z" />
    <glyph glyph-name="multiply" unicode="&#xd7;" horiz-adv-x="526" 
d="M45 166l148 148l-149 152l70 70l150 -152l149 152l69 -71l-148 -152l148 -147l-69 -71l-149 150l-149 -150z" />
    <glyph glyph-name="Oslash" unicode="&#xd8;" horiz-adv-x="715" 
d="M598 634q33 -35 51 -83t18 -105v-192q0 -78 -32 -137.5t-90.5 -92t-134.5 -32.5h-106q-65 0 -118 25l-47 -71h-96l77 116q-35 35 -53.5 84t-18.5 108v192q0 78 32 137.5t90 92t134 32.5h106q69 0 123 -27l43 65h97zM188 163l285 428q-30 14 -63 14h-105q-63 0 -101.5 -45
t-38.5 -118v-184q0 -55 23 -95zM530 532l-283 -425q26 -12 58 -12h105q62 0 101 45t39 118v184q0 52 -20 90z" />
    <glyph glyph-name="Ugrave" unicode="&#xd9;" horiz-adv-x="711" 
d="M177 22.5q-54 30.5 -83.5 86t-29.5 128.5v463h117v-461q0 -65 33 -104.5t87 -39.5h107q55 0 88.5 39.5t33.5 104.5v461h117v-463q0 -73 -30 -128.5t-84 -86t-125 -30.5h-107q-70 0 -124 30.5zM189 944h127l93 -171h-109z" />
    <glyph glyph-name="Uacute" unicode="&#xda;" horiz-adv-x="711" 
d="M177 22.5q-54 30.5 -83.5 86t-29.5 128.5v463h117v-461q0 -65 33 -104.5t87 -39.5h107q55 0 88.5 39.5t33.5 104.5v461h117v-463q0 -73 -30 -128.5t-84 -86t-125 -30.5h-107q-70 0 -124 30.5zM393 944h127l-111 -171h-109z" />
    <glyph glyph-name="Ucircumflex" unicode="&#xdb;" horiz-adv-x="711" 
d="M177 22.5q-54 30.5 -83.5 86t-29.5 128.5v463h117v-461q0 -65 33 -104.5t87 -39.5h107q55 0 88.5 39.5t33.5 104.5v461h117v-463q0 -73 -30 -128.5t-84 -86t-125 -30.5h-107q-70 0 -124 30.5zM316 951h77l143 -178h-104l-77 102l-78 -102h-103z" />
    <glyph glyph-name="Udieresis" unicode="&#xdc;" horiz-adv-x="711" 
d="M177 22.5q-54 30.5 -83.5 86t-29.5 128.5v463h117v-461q0 -65 33 -104.5t87 -39.5h107q55 0 88.5 39.5t33.5 104.5v461h117v-463q0 -73 -30 -128.5t-84 -86t-125 -30.5h-107q-70 0 -124 30.5zM192.5 792q-17.5 18 -17.5 46q0 29 17.5 46.5t46.5 17.5q28 0 46 -17.5
t18 -46.5q0 -28 -18 -46t-46 -18q-29 0 -46.5 18zM425 792q-18 18 -18 46q0 29 18 46.5t46 17.5q29 0 46.5 -17.5t17.5 -46.5q0 -28 -17.5 -46t-46.5 -18q-28 0 -46 18z" />
    <glyph glyph-name="Yacute" unicode="&#xdd;" horiz-adv-x="642" 
d="M263 271l-259 429h127l190 -322l190 322h127l-259 -429v-271h-116v271zM359 944h127l-111 -171h-109z" />
    <glyph glyph-name="Thorn" unicode="&#xde;" horiz-adv-x="657" 
d="M569 536.5q54 -49.5 54 -129.5v-97q0 -56 -26 -98.5t-73.5 -66t-109.5 -23.5h-229v-122h-117v700h117v-114h242q88 0 142 -49.5zM506 403q0 37 -22 59t-59 22h-240v-260h227q42 0 68 25t26 66v88z" />
    <glyph glyph-name="germandbls" unicode="&#xdf;" horiz-adv-x="696" 
d="M319 35.5q-47 43.5 -47 119.5h106q0 -31 18.5 -47.5t49.5 -16.5h47q29 0 47 15.5t18 40.5v23q0 26 -19.5 44.5t-59.5 44.5q-47 30 -71.5 55t-24.5 63v21q0 43 31.5 73t85.5 39q0 44 -27.5 69.5t-73.5 25.5h-76q-53 0 -85.5 -31t-32.5 -83v-491h-115v373h-86v98h86v20
q0 63 29 111.5t82 75t122 26.5h76q63 0 111.5 -24.5t75.5 -69t27 -102.5v-70h-31q-85 0 -85 -43v-15q0 -13 13.5 -25t45.5 -33q54 -34 85 -67t31 -85v-23q0 -71 -48 -113t-131 -42h-47q-80 0 -127 43.5z" />
    <glyph glyph-name="agrave" unicode="&#xe0;" horiz-adv-x="575" 
d="M94.5 30.5q-46.5 38.5 -46.5 102.5v36q0 63 48.5 101t127.5 38h62q28 0 60 -8t57 -21v62q0 31 -20 50t-52 19h-84q-33 0 -53 -15.5t-20 -40.5h-112q0 69 51 111t134 42h84q84 0 135 -45.5t51 -120.5v-341h-107v63q-24 -32 -60 -51.5t-71 -19.5h-62q-76 0 -122.5 38.5z
M286 82q40 0 72 22.5t45 59.5v24q-17 14 -48 22.5t-65 8.5h-63q-30 0 -48.5 -15t-18.5 -39v-28q0 -25 19 -40t50 -15h57zM127 743h127l93 -171h-109z" />
    <glyph glyph-name="aacute" unicode="&#xe1;" horiz-adv-x="575" 
d="M94.5 30.5q-46.5 38.5 -46.5 102.5v36q0 63 48.5 101t127.5 38h62q28 0 60 -8t57 -21v62q0 31 -20 50t-52 19h-84q-33 0 -53 -15.5t-20 -40.5h-112q0 69 51 111t134 42h84q84 0 135 -45.5t51 -120.5v-341h-107v63q-24 -32 -60 -51.5t-71 -19.5h-62q-76 0 -122.5 38.5z
M286 82q40 0 72 22.5t45 59.5v24q-17 14 -48 22.5t-65 8.5h-63q-30 0 -48.5 -15t-18.5 -39v-28q0 -25 19 -40t50 -15h57zM331 743h127l-111 -171h-109z" />
    <glyph glyph-name="acircumflex" unicode="&#xe2;" horiz-adv-x="575" 
d="M94.5 30.5q-46.5 38.5 -46.5 102.5v36q0 63 48.5 101t127.5 38h62q28 0 60 -8t57 -21v62q0 31 -20 50t-52 19h-84q-33 0 -53 -15.5t-20 -40.5h-112q0 69 51 111t134 42h84q84 0 135 -45.5t51 -120.5v-341h-107v63q-24 -32 -60 -51.5t-71 -19.5h-62q-76 0 -122.5 38.5z
M286 82q40 0 72 22.5t45 59.5v24q-17 14 -48 22.5t-65 8.5h-63q-30 0 -48.5 -15t-18.5 -39v-28q0 -25 19 -40t50 -15h57zM254 750h77l143 -178h-104l-77 102l-78 -102h-103z" />
    <glyph glyph-name="atilde" unicode="&#xe3;" horiz-adv-x="575" 
d="M94.5 30.5q-46.5 38.5 -46.5 102.5v36q0 63 48.5 101t127.5 38h62q28 0 60 -8t57 -21v62q0 31 -20 50t-52 19h-84q-33 0 -53 -15.5t-20 -40.5h-112q0 69 51 111t134 42h84q84 0 135 -45.5t51 -120.5v-341h-107v63q-24 -32 -60 -51.5t-71 -19.5h-62q-76 0 -122.5 38.5z
M286 82q40 0 72 22.5t45 59.5v24q-17 14 -48 22.5t-65 8.5h-63q-30 0 -48.5 -15t-18.5 -39v-28q0 -25 19 -40t50 -15h57zM315.5 574.5q-17.5 10.5 -38.5 28.5q-13 12 -22 18t-18 6h-7q-14 0 -22.5 -14.5t-9.5 -37.5h-85q0 59 31 96t81 37h8q24 0 42 -11t40 -30
q12 -11 20 -16.5t15 -5.5h8q12 0 20.5 14t9.5 38h84q0 -60 -30 -96.5t-79 -36.5h-7q-23 0 -40.5 10.5z" />
    <glyph glyph-name="adieresis" unicode="&#xe4;" horiz-adv-x="575" 
d="M94.5 30.5q-46.5 38.5 -46.5 102.5v36q0 63 48.5 101t127.5 38h62q28 0 60 -8t57 -21v62q0 31 -20 50t-52 19h-84q-33 0 -53 -15.5t-20 -40.5h-112q0 69 51 111t134 42h84q84 0 135 -45.5t51 -120.5v-341h-107v63q-24 -32 -60 -51.5t-71 -19.5h-62q-76 0 -122.5 38.5z
M286 82q40 0 72 22.5t45 59.5v24q-17 14 -48 22.5t-65 8.5h-63q-30 0 -48.5 -15t-18.5 -39v-28q0 -25 19 -40t50 -15h57zM130.5 591q-17.5 18 -17.5 46q0 29 17.5 46.5t46.5 17.5q28 0 46 -17.5t18 -46.5q0 -28 -18 -46t-46 -18q-29 0 -46.5 18zM363 591q-18 18 -18 46
q0 29 18 46.5t46 17.5q29 0 46.5 -17.5t17.5 -46.5q0 -28 -17.5 -46t-46.5 -18q-28 0 -46 18z" />
    <glyph glyph-name="aring" unicode="&#xe5;" horiz-adv-x="575" 
d="M94.5 30.5q-46.5 38.5 -46.5 102.5v36q0 63 48.5 101t127.5 38h62q28 0 60 -8t57 -21v62q0 31 -20 50t-52 19h-84q-33 0 -53 -15.5t-20 -40.5h-112q0 69 51 111t134 42h84q84 0 135 -45.5t51 -120.5v-341h-107v63q-24 -32 -60 -51.5t-71 -19.5h-62q-76 0 -122.5 38.5z
M286 82q40 0 72 22.5t45 59.5v24q-17 14 -48 22.5t-65 8.5h-63q-30 0 -48.5 -15t-18.5 -39v-28q0 -25 19 -40t50 -15h57zM208 576.5q-32 31.5 -32 83.5q0 51 32.5 82.5t84.5 31.5t84.5 -31.5t32.5 -82.5q0 -52 -32 -83.5t-85 -31.5t-85 31.5zM328 625q13 13 13 35
q0 21 -13 34t-35 13t-35 -13t-13 -34q0 -22 13 -35t35 -13t35 13z" />
    <glyph glyph-name="ae" unicode="&#xe6;" horiz-adv-x="923" 
d="M96 31q-48 39 -48 102v36q0 63 48.5 101.5t128.5 38.5h62q27 0 58.5 -8.5t57.5 -21.5v62q0 31 -19.5 50t-51.5 19h-84q-33 0 -53.5 -15.5t-20.5 -40.5h-112q0 69 51.5 111t134.5 42h84q41 0 77.5 -17t56.5 -45h1q22 28 61 45t81 17h74q90 0 145 -54t55 -143v-97h-365v-30
q0 -43 25 -68.5t67 -25.5h69q41 0 65.5 19.5t24.5 51.5h112q0 -76 -55.5 -122t-147.5 -46h-68q-49 0 -90 20t-63 55h-1q-30 -37 -71.5 -56t-82.5 -19h-81q-77 0 -125 39zM769 299v13q0 44 -23.5 71t-62.5 27h-74q-40 0 -65.5 -28.5t-25.5 -74.5v-8h251zM287 83q40 0 71.5 22
t44.5 59v24q-17 14 -48 22.5t-64 8.5h-62q-32 0 -50.5 -14.5t-18.5 -39.5v-28q0 -25 19 -39.5t51 -14.5h57z" />
    <glyph glyph-name="ccedilla" unicode="&#xe7;" horiz-adv-x="552" 
d="M322 -8l-18 -41h9q39 0 63 -22t24 -58v-17q0 -43 -33.5 -69t-88.5 -26h-83v71h75q20 0 31.5 7t11.5 19v14q0 11 -10 18t-27 7h-60v49l21 48q-88 3 -140.5 55.5t-52.5 137.5v126q0 58 25 102.5t71 69t106 24.5h80q86 0 138.5 -49.5t52.5 -130.5h-113q0 36 -21.5 58.5
t-56.5 22.5h-79q-39 0 -63.5 -29t-24.5 -75v-112q0 -45 24.5 -73t64.5 -28h79q37 0 59.5 27t22.5 70h113q0 -88 -53.5 -142t-141.5 -54h-5z" />
    <glyph glyph-name="egrave" unicode="&#xe8;" horiz-adv-x="569" 
d="M141.5 15q-46.5 23 -72 65t-25.5 97v134q0 58 25.5 102.5t72 69t107.5 24.5h80q91 0 146 -53t55 -141v-100h-371v-36q0 -40 24.5 -64t65.5 -24h77q40 0 64.5 19.5t24.5 51.5h113q0 -76 -56 -122t-147 -46h-76q-61 0 -107.5 23zM417 299v14q0 44 -24 71t-63 27h-81
q-41 0 -66.5 -28.5t-25.5 -74.5v-9h260zM121 743h127l93 -171h-109z" />
    <glyph glyph-name="eacute" unicode="&#xe9;" horiz-adv-x="569" 
d="M141.5 15q-46.5 23 -72 65t-25.5 97v134q0 58 25.5 102.5t72 69t107.5 24.5h80q91 0 146 -53t55 -141v-100h-371v-36q0 -40 24.5 -64t65.5 -24h77q40 0 64.5 19.5t24.5 51.5h113q0 -76 -56 -122t-147 -46h-76q-61 0 -107.5 23zM417 299v14q0 44 -24 71t-63 27h-81
q-41 0 -66.5 -28.5t-25.5 -74.5v-9h260zM325 743h127l-111 -171h-109z" />
    <glyph glyph-name="ecircumflex" unicode="&#xea;" horiz-adv-x="569" 
d="M141.5 15q-46.5 23 -72 65t-25.5 97v134q0 58 25.5 102.5t72 69t107.5 24.5h80q91 0 146 -53t55 -141v-100h-371v-36q0 -40 24.5 -64t65.5 -24h77q40 0 64.5 19.5t24.5 51.5h113q0 -76 -56 -122t-147 -46h-76q-61 0 -107.5 23zM417 299v14q0 44 -24 71t-63 27h-81
q-41 0 -66.5 -28.5t-25.5 -74.5v-9h260zM248 750h77l143 -178h-104l-77 102l-78 -102h-103z" />
    <glyph glyph-name="edieresis" unicode="&#xeb;" horiz-adv-x="569" 
d="M141.5 15q-46.5 23 -72 65t-25.5 97v134q0 58 25.5 102.5t72 69t107.5 24.5h80q91 0 146 -53t55 -141v-100h-371v-36q0 -40 24.5 -64t65.5 -24h77q40 0 64.5 19.5t24.5 51.5h113q0 -76 -56 -122t-147 -46h-76q-61 0 -107.5 23zM417 299v14q0 44 -24 71t-63 27h-81
q-41 0 -66.5 -28.5t-25.5 -74.5v-9h260zM124.5 591q-17.5 18 -17.5 46q0 29 17.5 46.5t46.5 17.5q28 0 46 -17.5t18 -46.5q0 -28 -18 -46t-46 -18q-29 0 -46.5 18zM357 591q-18 18 -18 46q0 29 18 46.5t46 17.5q29 0 46.5 -17.5t17.5 -46.5q0 -28 -17.5 -46t-46.5 -18
q-28 0 -46 18z" />
    <glyph glyph-name="igrave" unicode="&#xec;" horiz-adv-x="255" 
d="M70 499h115v-499h-115v499zM-36 753h127l93 -171h-109z" />
    <glyph glyph-name="iacute" unicode="&#xed;" horiz-adv-x="255" 
d="M70 499h115v-499h-115v499zM163 753h127l-111 -171h-109z" />
    <glyph glyph-name="icircumflex" unicode="&#xee;" horiz-adv-x="255" 
d="M70 499h115v-499h-115v499zM88 750h77l143 -178h-104l-77 102l-78 -102h-103z" />
    <glyph glyph-name="idieresis" unicode="&#xef;" horiz-adv-x="255" 
d="M70 499h115v-499h-115v499zM-35.5 591q-17.5 18 -17.5 46q0 29 17.5 46.5t46.5 17.5q28 0 46 -17.5t18 -46.5q0 -28 -18 -46t-46 -18q-29 0 -46.5 18zM197 591q-18 18 -18 46q0 29 18 46.5t46 17.5q29 0 46.5 -17.5t17.5 -46.5q0 -28 -17.5 -46t-46.5 -18q-28 0 -46 18z
" />
    <glyph glyph-name="eth" unicode="&#xf0;" horiz-adv-x="606" 
d="M533 573q35 -85 35 -204v-145q0 -69 -29.5 -121.5t-82.5 -81.5t-122 -29h-72q-66 0 -117 25.5t-79 72.5t-28 108v102q0 64 27.5 112.5t78 75.5t115.5 27h66q36 0 69 -15t54 -40h1q-9 112 -83 166l-43 -55h-113l73 93q-39 9 -84 9h-43v97h43q82 0 149 -23l41 53h113
l-73 -94q69 -48 104 -133zM453 279q0 60 -35 98.5t-91 38.5h-66q-49 0 -78.5 -33.5t-29.5 -88.5v-90q0 -51 30.5 -82t80.5 -31h68q55 0 88 36t33 95v57z" />
    <glyph glyph-name="ntilde" unicode="&#xf1;" horiz-adv-x="591" 
d="M64 499h107v-65q22 33 58 53t72 20h62q77 0 123.5 -49t46.5 -129v-329h-115v326q0 36 -18.5 58.5t-48.5 22.5h-62q-39 0 -70 -29.5t-40 -75.5v-302h-115v499zM325.5 574.5q-17.5 10.5 -38.5 28.5q-13 12 -22 18t-18 6h-7q-14 0 -22.5 -14.5t-9.5 -37.5h-85q0 59 31 96
t81 37h8q24 0 42 -11t40 -30q12 -11 20 -16.5t15 -5.5h8q12 0 20.5 14t9.5 38h84q0 -60 -30 -96.5t-79 -36.5h-7q-23 0 -40.5 10.5z" />
    <glyph glyph-name="ograve" unicode="&#xf2;" horiz-adv-x="586" 
d="M100 45.5q-56 53.5 -56 141.5v124q0 58 25.5 102.5t72 69t107.5 24.5h88q61 0 107.5 -24.5t72 -69t25.5 -102.5v-124q0 -88 -56.5 -141.5t-150.5 -53.5h-87q-92 0 -148 53.5zM334 91q42 0 67.5 28.5t25.5 74.5v111q0 46 -25 74.5t-67 28.5h-84q-42 0 -67 -28.5t-25 -74.5
v-111q0 -46 25 -74.5t65 -28.5h85zM127 743h127l93 -171h-109z" />
    <glyph glyph-name="oacute" unicode="&#xf3;" horiz-adv-x="586" 
d="M100 45.5q-56 53.5 -56 141.5v124q0 58 25.5 102.5t72 69t107.5 24.5h88q61 0 107.5 -24.5t72 -69t25.5 -102.5v-124q0 -88 -56.5 -141.5t-150.5 -53.5h-87q-92 0 -148 53.5zM334 91q42 0 67.5 28.5t25.5 74.5v111q0 46 -25 74.5t-67 28.5h-84q-42 0 -67 -28.5t-25 -74.5
v-111q0 -46 25 -74.5t65 -28.5h85zM331 743h127l-111 -171h-109z" />
    <glyph glyph-name="ocircumflex" unicode="&#xf4;" horiz-adv-x="586" 
d="M100 45.5q-56 53.5 -56 141.5v124q0 58 25.5 102.5t72 69t107.5 24.5h88q61 0 107.5 -24.5t72 -69t25.5 -102.5v-124q0 -88 -56.5 -141.5t-150.5 -53.5h-87q-92 0 -148 53.5zM334 91q42 0 67.5 28.5t25.5 74.5v111q0 46 -25 74.5t-67 28.5h-84q-42 0 -67 -28.5t-25 -74.5
v-111q0 -46 25 -74.5t65 -28.5h85zM254 750h77l143 -178h-104l-77 102l-78 -102h-103z" />
    <glyph glyph-name="otilde" unicode="&#xf5;" horiz-adv-x="586" 
d="M100 45.5q-56 53.5 -56 141.5v124q0 58 25.5 102.5t72 69t107.5 24.5h88q61 0 107.5 -24.5t72 -69t25.5 -102.5v-124q0 -88 -56.5 -141.5t-150.5 -53.5h-87q-92 0 -148 53.5zM334 91q42 0 67.5 28.5t25.5 74.5v111q0 46 -25 74.5t-67 28.5h-84q-42 0 -67 -28.5t-25 -74.5
v-111q0 -46 25 -74.5t65 -28.5h85zM315.5 574.5q-17.5 10.5 -38.5 28.5q-13 12 -22 18t-18 6h-7q-14 0 -22.5 -14.5t-9.5 -37.5h-85q0 59 31 96t81 37h8q24 0 42 -11t40 -30q12 -11 20 -16.5t15 -5.5h8q12 0 20.5 14t9.5 38h84q0 -60 -30 -96.5t-79 -36.5h-7
q-23 0 -40.5 10.5z" />
    <glyph glyph-name="odieresis" unicode="&#xf6;" horiz-adv-x="586" 
d="M100 45.5q-56 53.5 -56 141.5v124q0 58 25.5 102.5t72 69t107.5 24.5h88q61 0 107.5 -24.5t72 -69t25.5 -102.5v-124q0 -88 -56.5 -141.5t-150.5 -53.5h-87q-92 0 -148 53.5zM334 91q42 0 67.5 28.5t25.5 74.5v111q0 46 -25 74.5t-67 28.5h-84q-42 0 -67 -28.5t-25 -74.5
v-111q0 -46 25 -74.5t65 -28.5h85zM130.5 591q-17.5 18 -17.5 46q0 29 17.5 46.5t46.5 17.5q28 0 46 -17.5t18 -46.5q0 -28 -18 -46t-46 -18q-29 0 -46.5 18zM363 591q-18 18 -18 46q0 29 18 46.5t46 17.5q29 0 46.5 -17.5t17.5 -46.5q0 -28 -17.5 -46t-46.5 -18
q-28 0 -46 18z" />
    <glyph glyph-name="divide" unicode="&#xf7;" horiz-adv-x="569" 
d="M234.5 442.5q-18.5 18.5 -18.5 49.5t18.5 49.5t49.5 18.5t49.5 -18.5t18.5 -49.5t-18.5 -49.5t-49.5 -18.5t-49.5 18.5zM44 373h481v-99h-481v99zM234.5 105.5q-18.5 18.5 -18.5 49.5t18.5 49.5t49.5 18.5t49.5 -18.5t18.5 -49.5t-18.5 -49.5t-49.5 -18.5t-49.5 18.5z
" />
    <glyph glyph-name="oslash" unicode="&#xf8;" horiz-adv-x="586" 
d="M527 392.5q15 -36.5 15 -81.5v-124q0 -88 -56.5 -141.5t-150.5 -53.5h-87q-45 0 -80 13l-32 -47h-94l60 86q-58 53 -58 143v124q0 58 25.5 102.5t72 69t107.5 24.5h88q45 0 80 -13l33 48h94l-61 -87q29 -26 44 -62.5zM170 141l185 265q-12 2 -20 2h-84q-42 0 -67 -28.5
t-25 -74.5v-111q0 -29 11 -53zM427 305q0 29 -11 53l-186 -265q12 -2 19 -2h85q42 0 67.5 28.5t25.5 74.5v111z" />
    <glyph glyph-name="ugrave" unicode="&#xf9;" horiz-adv-x="589" 
d="M104.5 43.5q-46.5 51.5 -46.5 134.5v321h115v-323q0 -38 18.5 -61t48.5 -23h60q38 0 68.5 30.5t41.5 79.5v297h115v-499h-108v68q-22 -34 -57.5 -55t-67.5 -21h-66q-75 0 -121.5 51.5zM128 743h127l93 -171h-109z" />
    <glyph glyph-name="uacute" unicode="&#xfa;" horiz-adv-x="589" 
d="M104.5 43.5q-46.5 51.5 -46.5 134.5v321h115v-323q0 -38 18.5 -61t48.5 -23h60q38 0 68.5 30.5t41.5 79.5v297h115v-499h-108v68q-22 -34 -57.5 -55t-67.5 -21h-66q-75 0 -121.5 51.5zM332 743h127l-111 -171h-109z" />
    <glyph glyph-name="ucircumflex" unicode="&#xfb;" horiz-adv-x="589" 
d="M104.5 43.5q-46.5 51.5 -46.5 134.5v321h115v-323q0 -38 18.5 -61t48.5 -23h60q38 0 68.5 30.5t41.5 79.5v297h115v-499h-108v68q-22 -34 -57.5 -55t-67.5 -21h-66q-75 0 -121.5 51.5zM255 750h77l143 -178h-104l-77 102l-78 -102h-103z" />
    <glyph glyph-name="udieresis" unicode="&#xfc;" horiz-adv-x="589" 
d="M104.5 43.5q-46.5 51.5 -46.5 134.5v321h115v-323q0 -38 18.5 -61t48.5 -23h60q38 0 68.5 30.5t41.5 79.5v297h115v-499h-108v68q-22 -34 -57.5 -55t-67.5 -21h-66q-75 0 -121.5 51.5zM131.5 591q-17.5 18 -17.5 46q0 29 17.5 46.5t46.5 17.5q28 0 46 -17.5t18 -46.5
q0 -28 -18 -46t-46 -18q-29 0 -46.5 18zM364 591q-18 18 -18 46q0 29 18 46.5t46 17.5q29 0 46.5 -17.5t17.5 -46.5q0 -28 -17.5 -46t-46.5 -18q-28 0 -46 18z" />
    <glyph glyph-name="yacute" unicode="&#xfd;" horiz-adv-x="589" 
d="M121.5 -161q-49.5 42 -54.5 111h113q3 -25 21 -40t46 -15h81q38 0 60.5 28.5t22.5 76.5v74q-24 -33 -55.5 -52t-63.5 -19h-65q-76 0 -122.5 50.5t-46.5 133.5v312h115v-314q0 -38 18.5 -61t49.5 -23h59q37 0 68.5 31t42.5 79v288h114v-499q0 -93 -53.5 -148t-143.5 -55
h-81q-76 0 -125.5 42zM332 743h127l-111 -171h-109z" />
    <glyph glyph-name="thorn" unicode="&#xfe;" horiz-adv-x="595" 
d="M64 700h115v-252q20 26 50.5 42.5t61.5 16.5h66q87 0 140.5 -52.5t53.5 -138.5v-117q0 -61 -24 -108.5t-68 -73.5t-102 -26h-67q-29 0 -60 14.5t-51 38.5v-245h-115v901zM345 91q41 0 66.5 31.5t25.5 83.5v103q0 44 -25 71.5t-66 27.5h-64q-34 0 -62.5 -26.5t-40.5 -68.5
v-117q5 -47 33 -76t69 -29h64z" />
    <glyph glyph-name="ydieresis" unicode="&#xff;" horiz-adv-x="589" 
d="M121.5 -161q-49.5 42 -54.5 111h113q3 -25 21 -40t46 -15h81q38 0 60.5 28.5t22.5 76.5v74q-24 -33 -55.5 -52t-63.5 -19h-65q-76 0 -122.5 50.5t-46.5 133.5v312h115v-314q0 -38 18.5 -61t49.5 -23h59q37 0 68.5 31t42.5 79v288h114v-499q0 -93 -53.5 -148t-143.5 -55
h-81q-76 0 -125.5 42zM131.5 591q-17.5 18 -17.5 46q0 29 17.5 46.5t46.5 17.5q28 0 46 -17.5t18 -46.5q0 -28 -18 -46t-46 -18q-29 0 -46.5 18zM364 591q-18 18 -18 46q0 29 18 46.5t46 17.5q29 0 46.5 -17.5t17.5 -46.5q0 -28 -17.5 -46t-46.5 -18q-28 0 -46 18z" />
    <glyph glyph-name="Amacron" unicode="&#x100;" horiz-adv-x="670" 
d="M474 173h-278l-65 -173h-121l272 700h53q54 0 75 -53l250 -647h-122zM229 271h212l-105 284h-1zM186 874h298v-88h-298v88z" />
    <glyph glyph-name="amacron" unicode="&#x101;" horiz-adv-x="575" 
d="M94.5 30.5q-46.5 38.5 -46.5 102.5v36q0 63 48.5 101t127.5 38h62q28 0 60 -8t57 -21v62q0 31 -20 50t-52 19h-84q-33 0 -53 -15.5t-20 -40.5h-112q0 69 51 111t134 42h84q84 0 135 -45.5t51 -120.5v-341h-107v63q-24 -32 -60 -51.5t-71 -19.5h-62q-76 0 -122.5 38.5z
M286 82q40 0 72 22.5t45 59.5v24q-17 14 -48 22.5t-65 8.5h-63q-30 0 -48.5 -15t-18.5 -39v-28q0 -25 19 -40t50 -15h57zM144 673h298v-88h-298v88z" />
    <glyph glyph-name="Abreve" unicode="&#x102;" horiz-adv-x="670" 
d="M474 173h-278l-65 -173h-121l272 700h53q54 0 75 -53l250 -647h-122zM229 271h212l-105 284h-1zM213 804.5q-44 39.5 -44 104.5v16h90v-16q0 -31 19 -49t51 -18h12q32 0 51.5 18t19.5 49v16h89v-16q0 -65 -44 -104.5t-116 -39.5h-12q-72 0 -116 39.5z" />
    <glyph glyph-name="abreve" unicode="&#x103;" horiz-adv-x="575" 
d="M94.5 30.5q-46.5 38.5 -46.5 102.5v36q0 63 48.5 101t127.5 38h62q28 0 60 -8t57 -21v62q0 31 -20 50t-52 19h-84q-33 0 -53 -15.5t-20 -40.5h-112q0 69 51 111t134 42h84q84 0 135 -45.5t51 -120.5v-341h-107v63q-24 -32 -60 -51.5t-71 -19.5h-62q-76 0 -122.5 38.5z
M286 82q40 0 72 22.5t45 59.5v24q-17 14 -48 22.5t-65 8.5h-63q-30 0 -48.5 -15t-18.5 -39v-28q0 -25 19 -40t50 -15h57zM171 603.5q-44 39.5 -44 104.5v16h90v-16q0 -31 19 -49t51 -18h12q32 0 51.5 18t19.5 49v16h89v-16q0 -65 -44 -104.5t-116 -39.5h-12q-72 0 -116 39.5
z" />
    <glyph glyph-name="Aogonek" unicode="&#x104;" horiz-adv-x="670" 
d="M474 173h-278l-65 -173h-121l272 700h53q54 0 75 -53l250 -647h-122zM229 271h212l-105 284h-1zM529.5 -196.5q-33.5 27.5 -33.5 73.5v13q0 32 18.5 62.5t48.5 47.5h96q-31 -17 -50 -43.5t-19 -52.5v-13q0 -17 12.5 -27.5t33.5 -10.5h14q15 0 32 5.5t29 14.5v-75
q-13 -10 -35 -16t-44 -6h-13q-56 0 -89.5 27.5z" />
    <glyph glyph-name="aogonek" unicode="&#x105;" horiz-adv-x="575" 
d="M539 -141.5q17 5.5 29 14.5v-75q-13 -10 -35 -16t-44 -6h-13q-55 0 -88.5 27.5t-33.5 73.5v13q0 32 18 62.5t49 47.5h-11v63q-24 -32 -60 -51.5t-71 -19.5h-62q-76 0 -122.5 38.5t-46.5 102.5v36q0 63 48.5 101t127.5 38h62q28 0 60 -8t57 -21v62q0 31 -20 50t-52 19h-84
q-33 0 -53 -15.5t-20 -40.5h-112q0 69 51 111t134 42h84q84 0 135 -45.5t51 -120.5v-341q-31 -17 -50 -43.5t-19 -52.5v-13q0 -17 12.5 -27.5t33.5 -10.5h13q15 0 32 5.5zM403 188q-17 14 -48 22.5t-65 8.5h-63q-30 0 -48.5 -15t-18.5 -39v-28q0 -25 19 -40t50 -15h57
q40 0 72 22.5t45 59.5v24z" />
    <glyph glyph-name="Cacute" unicode="&#x106;" horiz-adv-x="679" 
d="M166 24.5q-56 32.5 -87 92t-31 137.5v192q0 78 31.5 137.5t88.5 92t132 32.5h106q71 0 126 -30.5t85 -86t30 -128.5h-115q0 64 -35 103t-91 39h-106q-61 0 -98 -45t-37 -118v-184q0 -74 36 -118.5t95 -44.5h108q58 0 94 44t36 114h115q0 -78 -30.5 -137t-86 -91.5
t-128.5 -32.5h-108q-74 0 -130 32.5zM387 944h127l-111 -171h-109z" />
    <glyph glyph-name="cacute" unicode="&#x107;" horiz-adv-x="552" 
d="M99.5 45q-55.5 53 -55.5 140v126q0 58 25 102.5t71 69t106 24.5h80q86 0 138.5 -49.5t52.5 -130.5h-113q0 36 -21.5 58.5t-56.5 22.5h-79q-39 0 -63.5 -29t-24.5 -75v-112q0 -45 24.5 -73t64.5 -28h79q37 0 59.5 27t22.5 70h113q0 -88 -53.5 -142t-141.5 -54h-80
q-92 0 -147.5 53zM321 743h127l-111 -171h-109z" />
    <glyph glyph-name="Ccircumflex" unicode="&#x108;" horiz-adv-x="679" 
d="M166 24.5q-56 32.5 -87 92t-31 137.5v192q0 78 31.5 137.5t88.5 92t132 32.5h106q71 0 126 -30.5t85 -86t30 -128.5h-115q0 64 -35 103t-91 39h-106q-61 0 -98 -45t-37 -118v-184q0 -74 36 -118.5t95 -44.5h108q58 0 94 44t36 114h115q0 -78 -30.5 -137t-86 -91.5
t-128.5 -32.5h-108q-74 0 -130 32.5zM310 951h77l143 -178h-104l-77 102l-78 -102h-103z" />
    <glyph glyph-name="ccircumflex" unicode="&#x109;" horiz-adv-x="552" 
d="M99.5 45q-55.5 53 -55.5 140v126q0 58 25 102.5t71 69t106 24.5h80q86 0 138.5 -49.5t52.5 -130.5h-113q0 36 -21.5 58.5t-56.5 22.5h-79q-39 0 -63.5 -29t-24.5 -75v-112q0 -45 24.5 -73t64.5 -28h79q37 0 59.5 27t22.5 70h113q0 -88 -53.5 -142t-141.5 -54h-80
q-92 0 -147.5 53zM244 750h77l143 -178h-104l-77 102l-78 -102h-103z" />
    <glyph glyph-name="Cdotaccent" unicode="&#x10a;" horiz-adv-x="679" 
d="M166 24.5q-56 32.5 -87 92t-31 137.5v192q0 78 31.5 137.5t88.5 92t132 32.5h106q71 0 126 -30.5t85 -86t30 -128.5h-115q0 64 -35 103t-91 39h-106q-61 0 -98 -45t-37 -118v-184q0 -74 36 -118.5t95 -44.5h108q58 0 94 44t36 114h115q0 -78 -30.5 -137t-86 -91.5
t-128.5 -32.5h-108q-74 0 -130 32.5zM296 788q-20 20 -20 52q0 33 20 53.5t53 20.5t53 -20.5t20 -53.5q0 -32 -20 -52t-53 -20t-53 20z" />
    <glyph glyph-name="cdotaccent" unicode="&#x10b;" horiz-adv-x="552" 
d="M99.5 45q-55.5 53 -55.5 140v126q0 58 25 102.5t71 69t106 24.5h80q86 0 138.5 -49.5t52.5 -130.5h-113q0 36 -21.5 58.5t-56.5 22.5h-79q-39 0 -63.5 -29t-24.5 -75v-112q0 -45 24.5 -73t64.5 -28h79q37 0 59.5 27t22.5 70h113q0 -88 -53.5 -142t-141.5 -54h-80
q-92 0 -147.5 53zM230 587q-20 20 -20 52q0 33 20 53.5t53 20.5t53 -20.5t20 -53.5q0 -32 -20 -52t-53 -20t-53 20z" />
    <glyph glyph-name="Ccaron" unicode="&#x10c;" horiz-adv-x="679" 
d="M166 24.5q-56 32.5 -87 92t-31 137.5v192q0 78 31.5 137.5t88.5 92t132 32.5h106q71 0 126 -30.5t85 -86t30 -128.5h-115q0 64 -35 103t-91 39h-106q-61 0 -98 -45t-37 -118v-184q0 -74 36 -118.5t95 -44.5h108q58 0 94 44t36 114h115q0 -78 -30.5 -137t-86 -91.5
t-128.5 -32.5h-108q-74 0 -130 32.5zM168 951h103l78 -102l77 102h104l-143 -178h-77z" />
    <glyph glyph-name="ccaron" unicode="&#x10d;" horiz-adv-x="552" 
d="M99.5 45q-55.5 53 -55.5 140v126q0 58 25 102.5t71 69t106 24.5h80q86 0 138.5 -49.5t52.5 -130.5h-113q0 36 -21.5 58.5t-56.5 22.5h-79q-39 0 -63.5 -29t-24.5 -75v-112q0 -45 24.5 -73t64.5 -28h79q37 0 59.5 27t22.5 70h113q0 -88 -53.5 -142t-141.5 -54h-80
q-92 0 -147.5 53zM102 750h103l78 -102l77 102h104l-143 -178h-77z" />
    <glyph glyph-name="Dcaron" unicode="&#x10e;" horiz-adv-x="693" 
d="M91.5 23q-23.5 23 -23.5 61v616h319q78 0 137.5 -29.5t92 -83.5t32.5 -125v-204q0 -127 -65.5 -192.5t-192.5 -65.5h-237q-39 0 -62.5 23zM388 103q71 0 107.5 40.5t36.5 118.5v196q0 62 -41 100.5t-107 38.5h-199v-494h203zM170 951h103l78 -102l77 102h104l-143 -178
h-77z" />
    <glyph glyph-name="dcaron" unicode="&#x10f;" horiz-adv-x="783" 
d="M96.5 45.5q-52.5 53.5 -52.5 140.5v116q0 61 25 107.5t70.5 72t104.5 25.5h61q31 0 61.5 -14t50.5 -37v244h114v-700h-107v69q-21 -35 -56 -56t-71 -21h-63q-85 0 -137.5 53.5zM306 91q43 0 74.5 34.5t36.5 85.5v100q-7 43 -33.5 70t-63.5 27h-64q-44 0 -70.5 -31
t-26.5 -81v-103q0 -46 24.5 -74t62.5 -28h60zM585 525l25 21q55 45 55 111v43h114v-43q0 -64 -22.5 -111.5t-69.5 -83.5l-29 -22z" />
    <glyph glyph-name="Dcroat" unicode="&#x110;" horiz-adv-x="744" 
d="M575.5 670.5q59.5 -29.5 92 -83.5t32.5 -125v-204q0 -127 -65.5 -192.5t-192.5 -65.5h-237q-39 0 -62.5 23t-23.5 61v214h-96v102h96v300h319q78 0 137.5 -29.5zM583 458q0 62 -41 100.5t-107 38.5h-199v-197h211v-102h-211v-195h203q71 0 107.5 40.5t36.5 118.5v196z
" />
    <glyph glyph-name="dcroat" unicode="&#x111;" horiz-adv-x="614" 
d="M608 558h-77v-558h-107v69q-21 -35 -56 -56t-71 -21h-63q-85 0 -137.5 53.5t-52.5 140.5v116q0 61 25 107.5t70.5 72t104.5 25.5h61q31 0 61.5 -14t50.5 -37v102h-147v81h147v61h114v-61h77v-81zM417 311q-7 43 -33.5 70t-63.5 27h-64q-44 0 -70.5 -31t-26.5 -81v-103
q0 -46 24.5 -74t62.5 -28h60q43 0 74.5 34.5t36.5 85.5v100z" />
    <glyph glyph-name="Emacron" unicode="&#x112;" horiz-adv-x="619" 
d="M91.5 23.5q-23.5 23.5 -23.5 61.5v615h513v-101h-396v-190h366v-102h-366v-206h396v-101h-427q-39 0 -62.5 23.5zM179 874h298v-88h-298v88z" />
    <glyph glyph-name="emacron" unicode="&#x113;" horiz-adv-x="569" 
d="M141.5 15q-46.5 23 -72 65t-25.5 97v134q0 58 25.5 102.5t72 69t107.5 24.5h80q91 0 146 -53t55 -141v-100h-371v-36q0 -40 24.5 -64t65.5 -24h77q40 0 64.5 19.5t24.5 51.5h113q0 -76 -56 -122t-147 -46h-76q-61 0 -107.5 23zM417 299v14q0 44 -24 71t-63 27h-81
q-41 0 -66.5 -28.5t-25.5 -74.5v-9h260zM138 673h298v-88h-298v88z" />
    <glyph glyph-name="Ebreve" unicode="&#x114;" horiz-adv-x="619" 
d="M91.5 23.5q-23.5 23.5 -23.5 61.5v615h513v-101h-396v-190h366v-102h-366v-206h396v-101h-427q-39 0 -62.5 23.5zM206 804.5q-44 39.5 -44 104.5v16h90v-16q0 -31 19 -49t51 -18h12q32 0 51.5 18t19.5 49v16h89v-16q0 -65 -44 -104.5t-116 -39.5h-12q-72 0 -116 39.5z
" />
    <glyph glyph-name="ebreve" unicode="&#x115;" horiz-adv-x="569" 
d="M141.5 15q-46.5 23 -72 65t-25.5 97v134q0 58 25.5 102.5t72 69t107.5 24.5h80q91 0 146 -53t55 -141v-100h-371v-36q0 -40 24.5 -64t65.5 -24h77q40 0 64.5 19.5t24.5 51.5h113q0 -76 -56 -122t-147 -46h-76q-61 0 -107.5 23zM417 299v14q0 44 -24 71t-63 27h-81
q-41 0 -66.5 -28.5t-25.5 -74.5v-9h260zM165 603.5q-44 39.5 -44 104.5v16h90v-16q0 -31 19 -49t51 -18h12q32 0 51.5 18t19.5 49v16h89v-16q0 -65 -44 -104.5t-116 -39.5h-12q-72 0 -116 39.5z" />
    <glyph glyph-name="Edotaccent" unicode="&#x116;" horiz-adv-x="619" 
d="M91.5 23.5q-23.5 23.5 -23.5 61.5v615h513v-101h-396v-190h366v-102h-366v-206h396v-101h-427q-39 0 -62.5 23.5zM275 788q-20 20 -20 52q0 33 20 53.5t53 20.5t53 -20.5t20 -53.5q0 -32 -20 -52t-53 -20t-53 20z" />
    <glyph glyph-name="edotaccent" unicode="&#x117;" horiz-adv-x="569" 
d="M141.5 15q-46.5 23 -72 65t-25.5 97v134q0 58 25.5 102.5t72 69t107.5 24.5h80q91 0 146 -53t55 -141v-100h-371v-36q0 -40 24.5 -64t65.5 -24h77q40 0 64.5 19.5t24.5 51.5h113q0 -76 -56 -122t-147 -46h-76q-61 0 -107.5 23zM417 299v14q0 44 -24 71t-63 27h-81
q-41 0 -66.5 -28.5t-25.5 -74.5v-9h260zM234 587q-20 20 -20 52q0 33 20 53.5t53 20.5t53 -20.5t20 -53.5q0 -32 -20 -52t-53 -20t-53 20z" />
    <glyph glyph-name="Eogonek" unicode="&#x118;" horiz-adv-x="619" 
d="M91.5 23.5q-23.5 23.5 -23.5 61.5v615h513v-101h-396v-190h366v-102h-366v-206h396v-101h-427q-39 0 -62.5 23.5zM450.5 -196.5q-33.5 27.5 -33.5 73.5v13q0 32 18.5 62.5t48.5 47.5h96q-31 -17 -50 -43.5t-19 -52.5v-13q0 -17 12.5 -27.5t33.5 -10.5h14q15 0 32 5.5
t29 14.5v-75q-13 -10 -35 -16t-44 -6h-13q-56 0 -89.5 27.5z" />
    <glyph glyph-name="eogonek" unicode="&#x119;" horiz-adv-x="569" 
d="M159 213v-36q0 -40 24.5 -64t65.5 -24h77q40 0 64.5 19.5t24.5 51.5h113q0 -60 -36 -102t-99 -58h2q-31 -17 -50 -43.5t-19 -52.5v-13q0 -17 12.5 -27.5t33.5 -10.5h13q15 0 32 5.5t29 14.5v-75q-13 -10 -35 -16t-44 -6h-13q-55 0 -88.5 27.5t-33.5 73.5v13
q0 29 14.5 56.5t39.5 45.5h-37q-61 0 -107.5 23t-72 65t-25.5 97v134q0 58 25.5 102.5t72 69t107.5 24.5h80q91 0 146 -53t55 -141v-100h-371zM417 299v14q0 44 -24 71t-63 27h-81q-41 0 -66.5 -28.5t-25.5 -74.5v-9h260z" />
    <glyph glyph-name="Ecaron" unicode="&#x11a;" horiz-adv-x="619" 
d="M91.5 23.5q-23.5 23.5 -23.5 61.5v615h513v-101h-396v-190h366v-102h-366v-206h396v-101h-427q-39 0 -62.5 23.5zM147 951h103l78 -102l77 102h104l-143 -178h-77z" />
    <glyph glyph-name="ecaron" unicode="&#x11b;" horiz-adv-x="569" 
d="M141.5 15q-46.5 23 -72 65t-25.5 97v134q0 58 25.5 102.5t72 69t107.5 24.5h80q91 0 146 -53t55 -141v-100h-371v-36q0 -40 24.5 -64t65.5 -24h77q40 0 64.5 19.5t24.5 51.5h113q0 -76 -56 -122t-147 -46h-76q-61 0 -107.5 23zM417 299v14q0 44 -24 71t-63 27h-81
q-41 0 -66.5 -28.5t-25.5 -74.5v-9h260zM106 750h103l78 -102l77 102h104l-143 -178h-77z" />
    <glyph glyph-name="Gcircumflex" unicode="&#x11c;" horiz-adv-x="703" 
d="M166.5 24.5q-56.5 32.5 -87.5 92t-31 137.5v192q0 78 31.5 137.5t89 92t132.5 32.5h110q72 0 127 -29.5t85 -83t30 -123.5h-115q0 60 -35 96.5t-92 36.5h-110q-61 0 -98.5 -44.5t-37.5 -118.5v-184q0 -74 36.5 -118.5t96.5 -44.5h114q58 0 95 41t37 105v34h-194v102h309
v-136q0 -73 -31 -129.5t-87 -88t-129 -31.5h-114q-75 0 -131.5 32.5zM314 951h77l143 -178h-104l-77 102l-78 -102h-103z" />
    <glyph glyph-name="gcircumflex" unicode="&#x11d;" horiz-adv-x="597" 
d="M122 -161q-50 42 -55 111h113q3 -25 21.5 -40t45.5 -15h88q38 0 60.5 28.5t22.5 76.5v57q-21 -24 -51.5 -39t-59.5 -15h-70q-86 0 -139.5 53.5t-53.5 140.5v107q0 60 25 106t70.5 71.5t104.5 25.5h62q34 0 67 -16.5t52 -43.5v52h108v-499q0 -93 -53.5 -148t-144.5 -55
h-88q-75 0 -125 42zM313 101q43 0 72 34t33 88v87q-4 43 -31 70.5t-65 27.5h-69q-42 0 -68 -30.5t-26 -80.5v-93q0 -46 23.5 -74.5t61.5 -28.5h69zM251 750h77l143 -178h-104l-77 102l-78 -102h-103z" />
    <glyph glyph-name="Gbreve" unicode="&#x11e;" horiz-adv-x="703" 
d="M166.5 24.5q-56.5 32.5 -87.5 92t-31 137.5v192q0 78 31.5 137.5t89 92t132.5 32.5h110q72 0 127 -29.5t85 -83t30 -123.5h-115q0 60 -35 96.5t-92 36.5h-110q-61 0 -98.5 -44.5t-37.5 -118.5v-184q0 -74 36.5 -118.5t96.5 -44.5h114q58 0 95 41t37 105v34h-194v102h309
v-136q0 -73 -31 -129.5t-87 -88t-129 -31.5h-114q-75 0 -131.5 32.5zM231 804.5q-44 39.5 -44 104.5v16h90v-16q0 -31 19 -49t51 -18h12q32 0 51.5 18t19.5 49v16h89v-16q0 -65 -44 -104.5t-116 -39.5h-12q-72 0 -116 39.5z" />
    <glyph glyph-name="gbreve" unicode="&#x11f;" horiz-adv-x="597" 
d="M122 -161q-50 42 -55 111h113q3 -25 21.5 -40t45.5 -15h88q38 0 60.5 28.5t22.5 76.5v57q-21 -24 -51.5 -39t-59.5 -15h-70q-86 0 -139.5 53.5t-53.5 140.5v107q0 60 25 106t70.5 71.5t104.5 25.5h62q34 0 67 -16.5t52 -43.5v52h108v-499q0 -93 -53.5 -148t-144.5 -55
h-88q-75 0 -125 42zM313 101q43 0 72 34t33 88v87q-4 43 -31 70.5t-65 27.5h-69q-42 0 -68 -30.5t-26 -80.5v-93q0 -46 23.5 -74.5t61.5 -28.5h69zM168 603.5q-44 39.5 -44 104.5v16h90v-16q0 -31 19 -49t51 -18h12q32 0 51.5 18t19.5 49v16h89v-16q0 -65 -44 -104.5
t-116 -39.5h-12q-72 0 -116 39.5z" />
    <glyph glyph-name="Gdotaccent" unicode="&#x120;" horiz-adv-x="703" 
d="M166.5 24.5q-56.5 32.5 -87.5 92t-31 137.5v192q0 78 31.5 137.5t89 92t132.5 32.5h110q72 0 127 -29.5t85 -83t30 -123.5h-115q0 60 -35 96.5t-92 36.5h-110q-61 0 -98.5 -44.5t-37.5 -118.5v-184q0 -74 36.5 -118.5t96.5 -44.5h114q58 0 95 41t37 105v34h-194v102h309
v-136q0 -73 -31 -129.5t-87 -88t-129 -31.5h-114q-75 0 -131.5 32.5zM300 788q-20 20 -20 52q0 33 20 53.5t53 20.5t53 -20.5t20 -53.5q0 -32 -20 -52t-53 -20t-53 20z" />
    <glyph glyph-name="gdotaccent" unicode="&#x121;" horiz-adv-x="597" 
d="M122 -161q-50 42 -55 111h113q3 -25 21.5 -40t45.5 -15h88q38 0 60.5 28.5t22.5 76.5v57q-21 -24 -51.5 -39t-59.5 -15h-70q-86 0 -139.5 53.5t-53.5 140.5v107q0 60 25 106t70.5 71.5t104.5 25.5h62q34 0 67 -16.5t52 -43.5v52h108v-499q0 -93 -53.5 -148t-144.5 -55
h-88q-75 0 -125 42zM313 101q43 0 72 34t33 88v87q-4 43 -31 70.5t-65 27.5h-69q-42 0 -68 -30.5t-26 -80.5v-93q0 -46 23.5 -74.5t61.5 -28.5h69zM237 587q-20 20 -20 52q0 33 20 53.5t53 20.5t53 -20.5t20 -53.5q0 -32 -20 -52t-53 -20t-53 20z" />
    <glyph glyph-name="uni0122" unicode="&#x122;" horiz-adv-x="703" 
d="M166.5 24.5q-56.5 32.5 -87.5 92t-31 137.5v192q0 78 31.5 137.5t89 92t132.5 32.5h110q72 0 127 -29.5t85 -83t30 -123.5h-115q0 60 -35 96.5t-92 36.5h-110q-61 0 -98.5 -44.5t-37.5 -118.5v-184q0 -74 36.5 -118.5t96.5 -44.5h114q58 0 95 41t37 105v34h-194v102h309
v-136q0 -73 -31 -129.5t-87 -88t-129 -31.5h-114q-75 0 -131.5 32.5zM218 -235l25 22q55 45 55 110v37h114v-37q0 -64 -22.5 -111.5t-69.5 -82.5l-29 -22z" />
    <glyph glyph-name="uni0123" unicode="&#x123;" horiz-adv-x="597" 
d="M122 -161q-50 42 -55 111h113q3 -25 21.5 -40t45.5 -15h88q38 0 60.5 28.5t22.5 76.5v57q-21 -24 -51.5 -39t-59.5 -15h-70q-86 0 -139.5 53.5t-53.5 140.5v107q0 60 25 106t70.5 71.5t104.5 25.5h62q34 0 67 -16.5t52 -43.5v52h108v-499q0 -93 -53.5 -148t-144.5 -55
h-88q-75 0 -125 42zM313 101q43 0 72 34t33 88v87q-4 43 -31 70.5t-65 27.5h-69q-42 0 -68 -30.5t-26 -80.5v-93q0 -46 23.5 -74.5t61.5 -28.5h69zM231 610q0 65 22.5 112t70.5 83l29 22l73 -85l-25 -21q-55 -45 -55 -111v-43h-115v43z" />
    <glyph glyph-name="Hcircumflex" unicode="&#x124;" horiz-adv-x="715" 
d="M68 700h117v-297h346v297h116v-700h-116v301h-346v-301h-117v700zM315 951h77l143 -178h-104l-77 102l-78 -102h-103z" />
    <glyph glyph-name="hcircumflex" unicode="&#x125;" horiz-adv-x="593" 
d="M64 700h115v-257q23 29 56.5 46.5t65.5 17.5h64q77 0 123.5 -49t46.5 -129v-329h-115v326q0 36 -18.5 58.5t-48.5 22.5h-64q-39 0 -70 -29t-40 -76v-302h-115v700zM260 951h77l143 -178h-104l-77 102l-78 -102h-103z" />
    <glyph glyph-name="Hbar" unicode="&#x126;" horiz-adv-x="767" 
d="M753 507h-80v-507h-116v301h-346v-301h-117v507h-80v82h80v111h117v-111h346v111h116v-111h80v-82zM557 507h-346v-104h346v104z" />
    <glyph glyph-name="hbar" unicode="&#x127;" horiz-adv-x="623" 
d="M518.5 458q46.5 -49 46.5 -129v-329h-115v326q0 36 -18.5 58.5t-48.5 22.5h-64q-39 0 -70 -29t-40 -76v-302h-115v558h-80v81h80v61h115v-61h136v-81h-136v-115q23 29 56.5 46.5t65.5 17.5h64q77 0 123.5 -49z" />
    <glyph glyph-name="Itilde" unicode="&#x128;" horiz-adv-x="273" 
d="M78 700h117v-700h-117v700zM158.5 775.5q-17.5 10.5 -38.5 28.5q-13 12 -22 18t-18 6h-7q-14 0 -22.5 -14.5t-9.5 -37.5h-85q0 59 31 96t81 37h8q24 0 42 -11t40 -30q12 -11 20 -16.5t15 -5.5h8q12 0 20.5 14t9.5 38h84q0 -60 -30 -96.5t-79 -36.5h-7q-23 0 -40.5 10.5z
" />
    <glyph glyph-name="itilde" unicode="&#x129;" horiz-adv-x="255" 
d="M70 499h115v-499h-115v499zM149.5 574.5q-17.5 10.5 -38.5 28.5q-13 12 -22 18t-18 6h-7q-14 0 -22.5 -14.5t-9.5 -37.5h-85q0 59 31 96t81 37h8q24 0 42 -11t40 -30q12 -11 20 -16.5t15 -5.5h8q12 0 20.5 14t9.5 38h84q0 -60 -30 -96.5t-79 -36.5h-7q-23 0 -40.5 10.5z
" />
    <glyph glyph-name="Imacron" unicode="&#x12a;" horiz-adv-x="273" 
d="M78 700h117v-700h-117v700zM-13 874h298v-88h-298v88z" />
    <glyph glyph-name="imacron" unicode="&#x12b;" horiz-adv-x="255" 
d="M70 499h115v-499h-115v499zM-22 673h298v-88h-298v88z" />
    <glyph glyph-name="Ibreve" unicode="&#x12c;" horiz-adv-x="273" 
d="M78 700h117v-700h-117v700zM14 804.5q-44 39.5 -44 104.5v16h90v-16q0 -31 19 -49t51 -18h12q32 0 51.5 18t19.5 49v16h89v-16q0 -65 -44 -104.5t-116 -39.5h-12q-72 0 -116 39.5z" />
    <glyph glyph-name="ibreve" unicode="&#x12d;" horiz-adv-x="255" 
d="M70 499h115v-499h-115v499zM5 603.5q-44 39.5 -44 104.5v16h90v-16q0 -31 19 -49t51 -18h12q32 0 51.5 18t19.5 49v16h89v-16q0 -65 -44 -104.5t-116 -39.5h-12q-72 0 -116 39.5z" />
    <glyph glyph-name="Iogonek" unicode="&#x12e;" horiz-adv-x="273" 
d="M78 700h117v-700h-117v700zM64.5 -196.5q-33.5 27.5 -33.5 73.5v13q0 32 18.5 62.5t48.5 47.5h96q-31 -17 -50 -43.5t-19 -52.5v-13q0 -17 12.5 -27.5t33.5 -10.5h14q15 0 32 5.5t29 14.5v-75q-13 -10 -35 -16t-44 -6h-13q-56 0 -89.5 27.5z" />
    <glyph glyph-name="iogonek" unicode="&#x12f;" horiz-adv-x="279" 
d="M84.5 575.5q-20.5 20.5 -20.5 52.5t20.5 52.5t54.5 20.5t55 -20.5t21 -52.5t-21 -52.5t-55 -20.5t-54.5 20.5zM82 499h115v-499h-115v499zM66.5 -196.5q-33.5 27.5 -33.5 73.5v13q0 32 18.5 62.5t48.5 47.5h96q-31 -17 -50 -43.5t-19 -52.5v-13q0 -17 12.5 -27.5
t33.5 -10.5h14q15 0 32 5.5t29 14.5v-75q-13 -10 -35 -16t-44 -6h-13q-56 0 -89.5 27.5z" />
    <glyph glyph-name="Idotaccent" unicode="&#x130;" horiz-adv-x="273" 
d="M78 700h117v-700h-117v700zM83 788q-20 20 -20 52q0 33 20 53.5t53 20.5t53 -20.5t20 -53.5q0 -32 -20 -52t-53 -20t-53 20z" />
    <glyph glyph-name="dotlessi" unicode="&#x131;" horiz-adv-x="255" 
d="M70 499h115v-499h-115v499z" />
    <glyph glyph-name="IJ" unicode="&#x132;" horiz-adv-x="859" 
d="M78 700h117v-700h-117v700zM388 22.5q-49 30.5 -76 86t-27 127.5h115q0 -64 28 -102.5t73 -38.5h80q46 0 73.5 40.5t27.5 108.5v456h117v-460q0 -75 -26.5 -131t-75 -86.5t-112.5 -30.5h-84q-64 0 -113 30.5z" />
    <glyph glyph-name="ij" unicode="&#x133;" horiz-adv-x="559" 
d="M84.5 575.5q-20.5 20.5 -20.5 52.5t20.5 52.5t54.5 20.5t55 -20.5t21 -52.5t-21 -52.5t-55 -20.5t-54.5 20.5zM82 499h115v-499h-115v499zM365.5 575.5q-20.5 20.5 -20.5 52.5t20.5 52.5t54.5 20.5t55 -20.5t21 -52.5t-21 -52.5t-55 -20.5t-54.5 20.5zM231 -100h53
q41 0 60 24.5t19 79.5v495h115v-490q0 -108 -46.5 -158t-147.5 -50h-53v99z" />
    <glyph glyph-name="Jcircumflex" unicode="&#x134;" horiz-adv-x="596" 
d="M125 22.5q-49 30.5 -76 86t-27 127.5h115q0 -64 28 -102.5t73 -38.5h80q46 0 73.5 40.5t27.5 108.5v456h117v-460q0 -75 -26.5 -131t-75 -86.5t-112.5 -30.5h-84q-64 0 -113 30.5zM437 951h77l143 -178h-104l-77 102l-78 -102h-103z" />
    <glyph glyph-name="jcircumflex" unicode="&#x135;" horiz-adv-x="277" 
d="M-40 -100h56q41 0 58.5 24t17.5 80v496h115v-491q0 -112 -44 -160t-147 -48h-56v99zM110 750h77l143 -178h-104l-77 102l-78 -102h-103z" />
    <glyph glyph-name="uni0136" unicode="&#x136;" horiz-adv-x="659" 
d="M503 0l-244 308l-74 -79v-229h-117v700h117v-323l298 323h144l-289 -308l307 -392h-142zM197 -235l25 22q55 45 55 110v37h114v-37q0 -64 -22.5 -111.5t-69.5 -82.5l-29 -22z" />
    <glyph glyph-name="uni0137" unicode="&#x137;" horiz-adv-x="540" 
d="M406 0l-169 212l-58 -58v-154h-115v700h115v-415l213 214h135l-215 -213l226 -286h-132zM148 -235l25 22q55 45 55 110v37h114v-37q0 -64 -22.5 -111.5t-69.5 -82.5l-29 -22z" />
    <glyph glyph-name="kgreenlandic" unicode="&#x138;" horiz-adv-x="559" 
d="M420 0l-175 206l-66 -65v-141h-115v499h115v-227l230 227h135l-224 -219l236 -280h-136z" />
    <glyph glyph-name="Lacute" unicode="&#x139;" horiz-adv-x="579" 
d="M91 23q-23 23 -23 61v616h117v-598h380v-102h-411q-40 0 -63 23zM164 944h127l-111 -171h-109z" />
    <glyph glyph-name="lacute" unicode="&#x13a;" horiz-adv-x="287" 
d="M102.5 35.5q-38.5 35.5 -38.5 112.5v552h115v-547q0 -29 12 -41.5t40 -12.5h48v-99h-54q-84 0 -122.5 35.5zM159 944h127l-111 -171h-109z" />
    <glyph glyph-name="uni013B" unicode="&#x13b;" horiz-adv-x="579" 
d="M91 23q-23 23 -23 61v616h117v-598h380v-102h-411q-40 0 -63 23zM185 -235l25 22q55 45 55 110v37h114v-37q0 -64 -22.5 -111.5t-69.5 -82.5l-29 -22z" />
    <glyph glyph-name="uni013C" unicode="&#x13c;" horiz-adv-x="287" 
d="M102.5 35.5q-38.5 35.5 -38.5 112.5v552h115v-547q0 -29 12 -41.5t40 -12.5h48v-99h-54q-84 0 -122.5 35.5zM32 -235l25 22q55 45 55 110v37h114v-37q0 -64 -22.5 -111.5t-69.5 -82.5l-29 -22z" />
    <glyph glyph-name="Lcaron" unicode="&#x13d;" horiz-adv-x="590" 
d="M91 23q-23 23 -23 61v616h117v-598h380v-102h-411q-40 0 -63 23zM382 525l25 21q55 45 55 111v43h114v-43q0 -64 -22.5 -111.5t-69.5 -83.5l-29 -22z" />
    <glyph glyph-name="lcaron" unicode="&#x13e;" horiz-adv-x="454" 
d="M102.5 35.5q-38.5 35.5 -38.5 112.5v552h115v-547q0 -29 12 -41.5t40 -12.5h48v-99h-54q-84 0 -122.5 35.5zM256 525l25 21q55 45 55 111v43h114v-43q0 -64 -22.5 -111.5t-69.5 -83.5l-29 -22z" />
    <glyph glyph-name="Ldot" unicode="&#x13f;" horiz-adv-x="579" 
d="M91 23q-23 23 -23 61v616h117v-598h380v-102h-411q-40 0 -63 23zM367 249q-20 20 -20 53q0 32 20 52t53 20q32 0 52 -20t20 -52q0 -33 -20 -53t-52 -20q-33 0 -53 20z" />
    <glyph glyph-name="ldot" unicode="&#x140;" horiz-adv-x="413" 
d="M102.5 35.5q-38.5 35.5 -38.5 112.5v552h115v-547q0 -29 12 -41.5t40 -12.5h48v-99h-54q-84 0 -122.5 35.5zM289 222q-20 20 -20 53q0 32 20 52t53 20q32 0 52 -20t20 -52q0 -33 -20 -53t-52 -20q-33 0 -53 20z" />
    <glyph glyph-name="Lslash" unicode="&#x141;" horiz-adv-x="602" 
d="M588 102v-102h-410q-40 0 -63.5 23t-23.5 61v146l-77 -45v114l77 45v356h117v-287l132 77v-114l-132 -77v-197h380z" />
    <glyph glyph-name="lslash" unicode="&#x142;" horiz-adv-x="322" 
d="M314 99v-99h-54q-84 0 -122.5 35.5t-38.5 112.5v100l-89 -52v111l89 52v341h115v-274l93 54v-111l-93 -54v-162q0 -29 12 -41.5t40 -12.5h48z" />
    <glyph glyph-name="Nacute" unicode="&#x143;" horiz-adv-x="709" 
d="M68 700h105l354 -512v512h114v-700h-106l-353 510v-510h-114v700zM392 944h127l-111 -171h-109z" />
    <glyph glyph-name="nacute" unicode="&#x144;" horiz-adv-x="591" 
d="M64 499h107v-65q22 33 58 53t72 20h62q77 0 123.5 -49t46.5 -129v-329h-115v326q0 36 -18.5 58.5t-48.5 22.5h-62q-39 0 -70 -29.5t-40 -75.5v-302h-115v499zM341 743h127l-111 -171h-109z" />
    <glyph glyph-name="uni0145" unicode="&#x145;" horiz-adv-x="709" 
d="M68 700h105l354 -512v512h114v-700h-106l-353 510v-510h-114v700zM219 -235l25 22q55 45 55 110v37h114v-37q0 -64 -22.5 -111.5t-69.5 -82.5l-29 -22z" />
    <glyph glyph-name="uni0146" unicode="&#x146;" horiz-adv-x="591" 
d="M64 499h107v-65q22 33 58 53t72 20h62q77 0 123.5 -49t46.5 -129v-329h-115v326q0 36 -18.5 58.5t-48.5 22.5h-62q-39 0 -70 -29.5t-40 -75.5v-302h-115v499zM162 -235l25 22q55 45 55 110v37h114v-37q0 -64 -22.5 -111.5t-69.5 -82.5l-29 -22z" />
    <glyph glyph-name="Ncaron" unicode="&#x147;" horiz-adv-x="709" 
d="M68 700h105l354 -512v512h114v-700h-106l-353 510v-510h-114v700zM173 951h103l78 -102l77 102h104l-143 -178h-77z" />
    <glyph glyph-name="ncaron" unicode="&#x148;" horiz-adv-x="591" 
d="M64 499h107v-65q22 33 58 53t72 20h62q77 0 123.5 -49t46.5 -129v-329h-115v326q0 36 -18.5 58.5t-48.5 22.5h-62q-39 0 -70 -29.5t-40 -75.5v-302h-115v499zM122 750h103l78 -102l77 102h104l-143 -178h-77z" />
    <glyph glyph-name="napostrophe" unicode="&#x149;" horiz-adv-x="754" 
d="M228 499h107v-65q22 33 58 53t72 20h62q77 0 123.5 -49t46.5 -129v-329h-115v326q0 36 -18.5 58.5t-48.5 22.5h-62q-39 0 -70 -29.5t-40 -75.5v-302h-115v499zM4 525l25 21q55 45 55 111v43h114v-43q0 -64 -22.5 -111.5t-69.5 -83.5l-29 -22z" />
    <glyph glyph-name="Eng" unicode="&#x14a;" horiz-adv-x="711" 
d="M396 -107h56q40 0 58 23.5t18 75.5v9l-344 505v-506h-116v700h103l356 -526v526h116v-703q0 -109 -44 -156t-147 -47h-56v99z" />
    <glyph glyph-name="eng" unicode="&#x14b;" horiz-adv-x="591" 
d="M286 -100h56q41 0 58.5 24t17.5 80v322q0 36 -18.5 58.5t-48.5 22.5h-62q-39 0 -70 -29.5t-40 -75.5v-302h-115v499h107v-65q22 33 58 53t72 20h62q77 0 123.5 -49t46.5 -129v-327q0 -105 -45.5 -153t-145.5 -48h-56v99z" />
    <glyph glyph-name="Omacron" unicode="&#x14c;" horiz-adv-x="715" 
d="M170 24.5q-58 32.5 -90 92t-32 137.5v192q0 78 32 137.5t90 92t134 32.5h106q76 0 134.5 -32.5t90.5 -92t32 -137.5v-192q0 -78 -32 -137.5t-90.5 -92t-134.5 -32.5h-106q-76 0 -134 32.5zM410 95q62 0 101 45t39 118v184q0 73 -38.5 118t-101.5 45h-105
q-63 0 -101.5 -45t-38.5 -118v-184q0 -73 38.5 -118t101.5 -45h105zM208 874h298v-88h-298v88z" />
    <glyph glyph-name="omacron" unicode="&#x14d;" horiz-adv-x="586" 
d="M100 45.5q-56 53.5 -56 141.5v124q0 58 25.5 102.5t72 69t107.5 24.5h88q61 0 107.5 -24.5t72 -69t25.5 -102.5v-124q0 -88 -56.5 -141.5t-150.5 -53.5h-87q-92 0 -148 53.5zM334 91q42 0 67.5 28.5t25.5 74.5v111q0 46 -25 74.5t-67 28.5h-84q-42 0 -67 -28.5t-25 -74.5
v-111q0 -46 25 -74.5t65 -28.5h85zM144 673h298v-88h-298v88z" />
    <glyph glyph-name="Obreve" unicode="&#x14e;" horiz-adv-x="715" 
d="M170 24.5q-58 32.5 -90 92t-32 137.5v192q0 78 32 137.5t90 92t134 32.5h106q76 0 134.5 -32.5t90.5 -92t32 -137.5v-192q0 -78 -32 -137.5t-90.5 -92t-134.5 -32.5h-106q-76 0 -134 32.5zM410 95q62 0 101 45t39 118v184q0 73 -38.5 118t-101.5 45h-105
q-63 0 -101.5 -45t-38.5 -118v-184q0 -73 38.5 -118t101.5 -45h105zM235 804.5q-44 39.5 -44 104.5v16h90v-16q0 -31 19 -49t51 -18h12q32 0 51.5 18t19.5 49v16h89v-16q0 -65 -44 -104.5t-116 -39.5h-12q-72 0 -116 39.5z" />
    <glyph glyph-name="obreve" unicode="&#x14f;" horiz-adv-x="586" 
d="M100 45.5q-56 53.5 -56 141.5v124q0 58 25.5 102.5t72 69t107.5 24.5h88q61 0 107.5 -24.5t72 -69t25.5 -102.5v-124q0 -88 -56.5 -141.5t-150.5 -53.5h-87q-92 0 -148 53.5zM334 91q42 0 67.5 28.5t25.5 74.5v111q0 46 -25 74.5t-67 28.5h-84q-42 0 -67 -28.5t-25 -74.5
v-111q0 -46 25 -74.5t65 -28.5h85zM171 603.5q-44 39.5 -44 104.5v16h90v-16q0 -31 19 -49t51 -18h12q32 0 51.5 18t19.5 49v16h89v-16q0 -65 -44 -104.5t-116 -39.5h-12q-72 0 -116 39.5z" />
    <glyph glyph-name="Ohungarumlaut" unicode="&#x150;" horiz-adv-x="715" 
d="M170 24.5q-58 32.5 -90 92t-32 137.5v192q0 78 32 137.5t90 92t134 32.5h106q76 0 134.5 -32.5t90.5 -92t32 -137.5v-192q0 -78 -32 -137.5t-90.5 -92t-134.5 -32.5h-106q-76 0 -134 32.5zM410 95q62 0 101 45t39 118v184q0 73 -38.5 118t-101.5 45h-105
q-63 0 -101.5 -45t-38.5 -118v-184q0 -73 38.5 -118t101.5 -45h105zM302 944h122l-111 -171h-103zM474 944h122l-110 -171h-104z" />
    <glyph glyph-name="ohungarumlaut" unicode="&#x151;" horiz-adv-x="586" 
d="M100 45.5q-56 53.5 -56 141.5v124q0 58 25.5 102.5t72 69t107.5 24.5h88q61 0 107.5 -24.5t72 -69t25.5 -102.5v-124q0 -88 -56.5 -141.5t-150.5 -53.5h-87q-92 0 -148 53.5zM334 91q42 0 67.5 28.5t25.5 74.5v111q0 46 -25 74.5t-67 28.5h-84q-42 0 -67 -28.5t-25 -74.5
v-111q0 -46 25 -74.5t65 -28.5h85zM238 743h122l-111 -171h-103zM410 743h122l-110 -171h-104z" />
    <glyph glyph-name="OE" unicode="&#x152;" horiz-adv-x="1091" 
d="M170 25q-58 33 -90 92.5t-32 137.5v189q0 78 32 138t90.5 93t134.5 33h105q49 0 92.5 -18.5t71.5 -51.5v62h479v-101h-384v-190h350v-102h-350v-206h384v-101h-394q-31 0 -53 15.5t-29 43.5l-1 12q-28 -38 -73.5 -58.5t-97.5 -20.5h-101q-76 0 -134 33zM409 95
q64 0 103.5 45.5t39.5 119.5v180q0 74 -39 119.5t-102 45.5h-105q-64 0 -102.5 -45.5t-38.5 -119.5v-181q0 -74 38.5 -119t101.5 -45h104z" />
    <glyph glyph-name="oe" unicode="&#x153;" horiz-adv-x="950" 
d="M541 213v-29q0 -43 25 -69t67 -26h74q40 0 64.5 19.5t24.5 51.5h113q0 -76 -56 -122t-148 -46h-72q-100 0 -152 65q-52 -65 -148 -65h-84q-61 0 -107.5 24.5t-72 69t-25.5 102.5v123q0 58 25.5 102.5t72 69t107.5 24.5h87q95 0 147 -67q51 67 148 67h79q91 0 146 -54
t55 -143v-97h-370zM541 299h256v13q0 44 -23.5 71t-63.5 27h-79q-40 0 -65 -28.5t-25 -74.5v-8zM426 305q0 46 -25.5 74.5t-65.5 28.5h-85q-40 0 -65.5 -28.5t-25.5 -74.5v-111q0 -46 25.5 -74.5t65.5 -28.5h82q42 0 68 28.5t26 74.5v111z" />
    <glyph glyph-name="Racute" unicode="&#x154;" horiz-adv-x="669" 
d="M68 700h361q86 0 139 -47t53 -124v-71q0 -52 -31.5 -91.5t-87.5 -58.5v-2q32 -19 51.5 -48.5t33.5 -76.5l56 -181h-121l-54 173q-13 45 -40 69t-63 24h-180v-266h-117v700zM403 367q46 0 73.5 25t27.5 65v69q0 32 -21 52t-56 20h-242v-231h218zM368 944h127l-111 -171
h-109z" />
    <glyph glyph-name="racute" unicode="&#x155;" horiz-adv-x="374" 
d="M64 499h107v-68q20 31 57.5 50.5t77.5 19.5h60v-100h-60q-57 0 -92 -35t-35 -91v-275h-115v499zM249 743h127l-111 -171h-109z" />
    <glyph glyph-name="uni0156" unicode="&#x156;" horiz-adv-x="669" 
d="M68 700h361q86 0 139 -47t53 -124v-71q0 -52 -31.5 -91.5t-87.5 -58.5v-2q32 -19 51.5 -48.5t33.5 -76.5l56 -181h-121l-54 173q-13 45 -40 69t-63 24h-180v-266h-117v700zM403 367q46 0 73.5 25t27.5 65v69q0 32 -21 52t-56 20h-242v-231h218zM209 -235l25 22
q55 45 55 110v37h114v-37q0 -64 -22.5 -111.5t-69.5 -82.5l-29 -22z" />
    <glyph glyph-name="uni0157" unicode="&#x157;" horiz-adv-x="374" 
d="M64 499h107v-68q20 31 57.5 50.5t77.5 19.5h60v-100h-60q-57 0 -92 -35t-35 -91v-275h-115v499zM-14 -235l25 22q55 45 55 110v37h114v-37q0 -64 -22.5 -111.5t-69.5 -82.5l-29 -22z" />
    <glyph glyph-name="Rcaron" unicode="&#x158;" horiz-adv-x="669" 
d="M68 700h361q86 0 139 -47t53 -124v-71q0 -52 -31.5 -91.5t-87.5 -58.5v-2q32 -19 51.5 -48.5t33.5 -76.5l56 -181h-121l-54 173q-13 45 -40 69t-63 24h-180v-266h-117v700zM403 367q46 0 73.5 25t27.5 65v69q0 32 -21 52t-56 20h-242v-231h218zM149 951h103l78 -102
l77 102h104l-143 -178h-77z" />
    <glyph glyph-name="rcaron" unicode="&#x159;" horiz-adv-x="374" 
d="M64 499h107v-68q20 31 57.5 50.5t77.5 19.5h60v-100h-60q-57 0 -92 -35t-35 -91v-275h-115v499zM30 750h103l78 -102l77 102h104l-143 -178h-77z" />
    <glyph glyph-name="Sacute" unicode="&#x15a;" horiz-adv-x="646" 
d="M104 52q-60 60 -60 164h115q0 -56 29.5 -88.5t81.5 -32.5h111q49 0 79 21.5t30 56.5v44q0 27 -21 45t-60 25l-182 31q-85 14 -130.5 56t-45.5 107v55q0 51 27.5 90t77.5 60.5t116 21.5h113q62 0 109.5 -25.5t73.5 -72.5t26 -108h-114q0 46 -26.5 74.5t-68.5 28.5h-113
q-47 0 -75.5 -20.5t-28.5 -55.5v-36q0 -28 20 -46.5t58 -24.5l182 -32q86 -15 132.5 -55.5t46.5 -103.5v-65q0 -51 -28 -90.5t-79 -61.5t-117 -22h-115q-104 0 -164 60zM363 944h127l-111 -171h-109z" />
    <glyph glyph-name="sacute" unicode="&#x15b;" horiz-adv-x="539" 
d="M91 38q-52 46 -52 122h113q0 -32 21 -51.5t56 -19.5h89q34 0 53.5 11.5t19.5 31.5v22q0 14 -11.5 24t-31.5 14l-173 30q-58 10 -92 42.5t-34 75.5v33q0 62 49.5 98t136.5 36h80q79 0 128 -43t49 -113h-113q0 27 -17.5 43t-46.5 16h-79q-35 0 -54 -11t-19 -31v-20
q0 -14 11.5 -24t30.5 -13l179 -32q55 -11 88 -42t33 -73v-37q0 -62 -51 -98.5t-136 -36.5h-89q-86 0 -138 46zM308 743h127l-111 -171h-109z" />
    <glyph glyph-name="Scircumflex" unicode="&#x15c;" horiz-adv-x="646" 
d="M104 52q-60 60 -60 164h115q0 -56 29.5 -88.5t81.5 -32.5h111q49 0 79 21.5t30 56.5v44q0 27 -21 45t-60 25l-182 31q-85 14 -130.5 56t-45.5 107v55q0 51 27.5 90t77.5 60.5t116 21.5h113q62 0 109.5 -25.5t73.5 -72.5t26 -108h-114q0 46 -26.5 74.5t-68.5 28.5h-113
q-47 0 -75.5 -20.5t-28.5 -55.5v-36q0 -28 20 -46.5t58 -24.5l182 -32q86 -15 132.5 -55.5t46.5 -103.5v-65q0 -51 -28 -90.5t-79 -61.5t-117 -22h-115q-104 0 -164 60zM286 951h77l143 -178h-104l-77 102l-78 -102h-103z" />
    <glyph glyph-name="scircumflex" unicode="&#x15d;" horiz-adv-x="539" 
d="M91 38q-52 46 -52 122h113q0 -32 21 -51.5t56 -19.5h89q34 0 53.5 11.5t19.5 31.5v22q0 14 -11.5 24t-31.5 14l-173 30q-58 10 -92 42.5t-34 75.5v33q0 62 49.5 98t136.5 36h80q79 0 128 -43t49 -113h-113q0 27 -17.5 43t-46.5 16h-79q-35 0 -54 -11t-19 -31v-20
q0 -14 11.5 -24t30.5 -13l179 -32q55 -11 88 -42t33 -73v-37q0 -62 -51 -98.5t-136 -36.5h-89q-86 0 -138 46zM231 750h77l143 -178h-104l-77 102l-78 -102h-103z" />
    <glyph glyph-name="Scedilla" unicode="&#x15e;" horiz-adv-x="646" 
d="M560.5 334.5q46.5 -40.5 46.5 -103.5v-65q0 -51 -28 -90.5t-79 -61.5t-117 -22h-13l-18 -41h9q39 0 63 -22t24 -58v-17q0 -43 -33.5 -69t-88.5 -26h-83v71h75q20 0 31.5 7t11.5 19v14q0 11 -10 18t-27 7h-60v49l20 48h-16q-104 0 -164 60t-60 164h115q0 -56 29.5 -88.5
t81.5 -32.5h111q49 0 79 21.5t30 56.5v44q0 27 -21 45t-60 25l-182 31q-85 14 -130.5 56t-45.5 107v55q0 51 27.5 90t77.5 60.5t116 21.5h113q62 0 109.5 -25.5t73.5 -72.5t26 -108h-114q0 46 -26.5 74.5t-68.5 28.5h-113q-47 0 -75.5 -20.5t-28.5 -55.5v-36q0 -28 20 -46.5
t58 -24.5l182 -32q86 -15 132.5 -55.5z" />
    <glyph glyph-name="scedilla" unicode="&#x15f;" horiz-adv-x="539" 
d="M472 237q33 -31 33 -73v-37q0 -62 -51 -98.5t-136 -36.5h-1l-18 -41h9q39 0 63 -22t24 -58v-17q0 -43 -33.5 -69t-88.5 -26h-83v71h75q20 0 31.5 7t11.5 19v14q0 11 -10 18t-27 7h-60v49l20 48h-2q-86 0 -138 46t-52 122h113q0 -32 21 -51.5t56 -19.5h89q34 0 53.5 11.5
t19.5 31.5v22q0 14 -11.5 24t-31.5 14l-173 30q-58 10 -92 42.5t-34 75.5v33q0 62 49.5 98t136.5 36h80q79 0 128 -43t49 -113h-113q0 27 -17.5 43t-46.5 16h-79q-35 0 -54 -11t-19 -31v-20q0 -14 11.5 -24t30.5 -13l179 -32q55 -11 88 -42z" />
    <glyph glyph-name="Scaron" unicode="&#x160;" horiz-adv-x="646" 
d="M104 52q-60 60 -60 164h115q0 -56 29.5 -88.5t81.5 -32.5h111q49 0 79 21.5t30 56.5v44q0 27 -21 45t-60 25l-182 31q-85 14 -130.5 56t-45.5 107v55q0 51 27.5 90t77.5 60.5t116 21.5h113q62 0 109.5 -25.5t73.5 -72.5t26 -108h-114q0 46 -26.5 74.5t-68.5 28.5h-113
q-47 0 -75.5 -20.5t-28.5 -55.5v-36q0 -28 20 -46.5t58 -24.5l182 -32q86 -15 132.5 -55.5t46.5 -103.5v-65q0 -51 -28 -90.5t-79 -61.5t-117 -22h-115q-104 0 -164 60zM144 951h103l78 -102l77 102h104l-143 -178h-77z" />
    <glyph glyph-name="scaron" unicode="&#x161;" horiz-adv-x="539" 
d="M91 38q-52 46 -52 122h113q0 -32 21 -51.5t56 -19.5h89q34 0 53.5 11.5t19.5 31.5v22q0 14 -11.5 24t-31.5 14l-173 30q-58 10 -92 42.5t-34 75.5v33q0 62 49.5 98t136.5 36h80q79 0 128 -43t49 -113h-113q0 27 -17.5 43t-46.5 16h-79q-35 0 -54 -11t-19 -31v-20
q0 -14 11.5 -24t30.5 -13l179 -32q55 -11 88 -42t33 -73v-37q0 -62 -51 -98.5t-136 -36.5h-89q-86 0 -138 46zM89 750h103l78 -102l77 102h104l-143 -178h-77z" />
    <glyph glyph-name="uni0162" unicode="&#x162;" horiz-adv-x="597" 
d="M333 0l-22 -49h9q39 0 63 -22t24 -58v-17q0 -43 -33.5 -69t-88.5 -26h-83v71h75q20 0 31.5 7t11.5 19v14q0 11 -10 18t-27 7h-60v49l24 56h-7v599h-222v101h561v-101h-222v-599h-24z" />
    <glyph glyph-name="uni0163" unicode="&#x163;" horiz-adv-x="401" 
d="M227 400v-238q0 -33 13 -48t41 -15h76v-99h-81l-22 -49h9q39 0 63 -22t24 -58v-17q0 -43 -33.5 -69t-88.5 -26h-83v71h75q20 0 31.5 7t11.5 19v14q0 11 -10 18t-27 7h-60v49l29 68q-43 15 -63 51t-20 95v242h-88v99h91v151h112v-151h130v-99h-130z" />
    <glyph glyph-name="Tcaron" unicode="&#x164;" horiz-adv-x="597" 
d="M240 599h-222v101h561v-101h-222v-599h-117v599zM115 951h103l78 -102l77 102h104l-143 -178h-77z" />
    <glyph glyph-name="tcaron" unicode="&#x165;" horiz-adv-x="594" 
d="M151 38q-39 38 -39 120v242h-88v99h91v151h112v-151h130v-99h-130v-238q0 -33 13 -48t41 -15h76v-99h-82q-85 0 -124 38zM396 525l25 21q55 45 55 111v43h114v-43q0 -64 -22.5 -111.5t-69.5 -83.5l-29 -22z" />
    <glyph glyph-name="Tbar" unicode="&#x166;" horiz-adv-x="597" 
d="M357 599v-237h148v-90h-148v-272h-117v272h-151v90h151v237h-222v101h561v-101h-222z" />
    <glyph glyph-name="tbar" unicode="&#x167;" horiz-adv-x="388" 
d="M228 400v-100h129v-82h-129v-56q0 -33 13 -48t42 -15h75v-99h-82q-85 0 -124 38t-39 120v60h-89v82h89v100h-88v99h91v151h112v-151h130v-99h-130z" />
    <glyph glyph-name="Utilde" unicode="&#x168;" horiz-adv-x="711" 
d="M177 22.5q-54 30.5 -83.5 86t-29.5 128.5v463h117v-461q0 -65 33 -104.5t87 -39.5h107q55 0 88.5 39.5t33.5 104.5v461h117v-463q0 -73 -30 -128.5t-84 -86t-125 -30.5h-107q-70 0 -124 30.5zM377.5 775.5q-17.5 10.5 -38.5 28.5q-13 12 -22 18t-18 6h-7
q-14 0 -22.5 -14.5t-9.5 -37.5h-85q0 59 31 96t81 37h8q24 0 42 -11t40 -30q12 -11 20 -16.5t15 -5.5h8q12 0 20.5 14t9.5 38h84q0 -60 -30 -96.5t-79 -36.5h-7q-23 0 -40.5 10.5z" />
    <glyph glyph-name="utilde" unicode="&#x169;" horiz-adv-x="589" 
d="M104.5 43.5q-46.5 51.5 -46.5 134.5v321h115v-323q0 -38 18.5 -61t48.5 -23h60q38 0 68.5 30.5t41.5 79.5v297h115v-499h-108v68q-22 -34 -57.5 -55t-67.5 -21h-66q-75 0 -121.5 51.5zM316.5 574.5q-17.5 10.5 -38.5 28.5q-13 12 -22 18t-18 6h-7q-14 0 -22.5 -14.5
t-9.5 -37.5h-85q0 59 31 96t81 37h8q24 0 42 -11t40 -30q12 -11 20 -16.5t15 -5.5h8q12 0 20.5 14t9.5 38h84q0 -60 -30 -96.5t-79 -36.5h-7q-23 0 -40.5 10.5z" />
    <glyph glyph-name="Umacron" unicode="&#x16a;" horiz-adv-x="711" 
d="M177 22.5q-54 30.5 -83.5 86t-29.5 128.5v463h117v-461q0 -65 33 -104.5t87 -39.5h107q55 0 88.5 39.5t33.5 104.5v461h117v-463q0 -73 -30 -128.5t-84 -86t-125 -30.5h-107q-70 0 -124 30.5zM206 874h298v-88h-298v88z" />
    <glyph glyph-name="umacron" unicode="&#x16b;" horiz-adv-x="589" 
d="M104.5 43.5q-46.5 51.5 -46.5 134.5v321h115v-323q0 -38 18.5 -61t48.5 -23h60q38 0 68.5 30.5t41.5 79.5v297h115v-499h-108v68q-22 -34 -57.5 -55t-67.5 -21h-66q-75 0 -121.5 51.5zM145 673h298v-88h-298v88z" />
    <glyph glyph-name="Ubreve" unicode="&#x16c;" horiz-adv-x="711" 
d="M177 22.5q-54 30.5 -83.5 86t-29.5 128.5v463h117v-461q0 -65 33 -104.5t87 -39.5h107q55 0 88.5 39.5t33.5 104.5v461h117v-463q0 -73 -30 -128.5t-84 -86t-125 -30.5h-107q-70 0 -124 30.5zM233 804.5q-44 39.5 -44 104.5v16h90v-16q0 -31 19 -49t51 -18h12
q32 0 51.5 18t19.5 49v16h89v-16q0 -65 -44 -104.5t-116 -39.5h-12q-72 0 -116 39.5z" />
    <glyph glyph-name="ubreve" unicode="&#x16d;" horiz-adv-x="589" 
d="M104.5 43.5q-46.5 51.5 -46.5 134.5v321h115v-323q0 -38 18.5 -61t48.5 -23h60q38 0 68.5 30.5t41.5 79.5v297h115v-499h-108v68q-22 -34 -57.5 -55t-67.5 -21h-66q-75 0 -121.5 51.5zM172 603.5q-44 39.5 -44 104.5v16h90v-16q0 -31 19 -49t51 -18h12q32 0 51.5 18
t19.5 49v16h89v-16q0 -65 -44 -104.5t-116 -39.5h-12q-72 0 -116 39.5z" />
    <glyph glyph-name="Uring" unicode="&#x16e;" horiz-adv-x="711" 
d="M177 22.5q-54 30.5 -83.5 86t-29.5 128.5v463h117v-461q0 -65 33 -104.5t87 -39.5h107q55 0 88.5 39.5t33.5 104.5v461h117v-463q0 -73 -30 -128.5t-84 -86t-125 -30.5h-107q-70 0 -124 30.5zM270 777.5q-32 31.5 -32 83.5q0 51 32.5 82.5t84.5 31.5t84.5 -31.5
t32.5 -82.5q0 -52 -32 -83.5t-85 -31.5t-85 31.5zM390 826q13 13 13 35q0 21 -13 34t-35 13t-35 -13t-13 -34q0 -22 13 -35t35 -13t35 13z" />
    <glyph glyph-name="uring" unicode="&#x16f;" horiz-adv-x="589" 
d="M104.5 43.5q-46.5 51.5 -46.5 134.5v321h115v-323q0 -38 18.5 -61t48.5 -23h60q38 0 68.5 30.5t41.5 79.5v297h115v-499h-108v68q-22 -34 -57.5 -55t-67.5 -21h-66q-75 0 -121.5 51.5zM209 576.5q-32 31.5 -32 83.5q0 51 32.5 82.5t84.5 31.5t84.5 -31.5t32.5 -82.5
q0 -52 -32 -83.5t-85 -31.5t-85 31.5zM329 625q13 13 13 35q0 21 -13 34t-35 13t-35 -13t-13 -34q0 -22 13 -35t35 -13t35 13z" />
    <glyph glyph-name="Uhungarumlaut" unicode="&#x170;" horiz-adv-x="711" 
d="M177 22.5q-54 30.5 -83.5 86t-29.5 128.5v463h117v-461q0 -65 33 -104.5t87 -39.5h107q55 0 88.5 39.5t33.5 104.5v461h117v-463q0 -73 -30 -128.5t-84 -86t-125 -30.5h-107q-70 0 -124 30.5zM300 944h122l-111 -171h-103zM472 944h122l-110 -171h-104z" />
    <glyph glyph-name="uhungarumlaut" unicode="&#x171;" horiz-adv-x="589" 
d="M104.5 43.5q-46.5 51.5 -46.5 134.5v321h115v-323q0 -38 18.5 -61t48.5 -23h60q38 0 68.5 30.5t41.5 79.5v297h115v-499h-108v68q-22 -34 -57.5 -55t-67.5 -21h-66q-75 0 -121.5 51.5zM239 743h122l-111 -171h-103zM411 743h122l-110 -171h-104z" />
    <glyph glyph-name="Uogonek" unicode="&#x172;" horiz-adv-x="711" 
d="M647 700v-463q0 -94 -49 -158t-132 -81q-29 -17 -47 -43t-18 -51v-13q0 -17 12.5 -27.5t33.5 -10.5h14q15 0 32 5.5t29 14.5v-75q-13 -10 -35 -16t-44 -6h-13q-56 0 -89.5 27.5t-33.5 73.5v13q0 28 15 56t40 46h-61q-70 0 -124 30.5t-83.5 86t-29.5 128.5v463h117v-461
q0 -65 33 -104.5t87 -39.5h107q55 0 88.5 39.5t33.5 104.5v461h117z" />
    <glyph glyph-name="uogonek" unicode="&#x173;" horiz-adv-x="589" 
d="M547 -141.5q17 5.5 29 14.5v-75q-13 -10 -35 -16t-44 -6h-13q-55 0 -88.5 27.5t-33.5 73.5v13q0 32 18 62.5t49 47.5h-12v68q-22 -34 -57.5 -55t-67.5 -21h-66q-75 0 -121.5 51.5t-46.5 134.5v321h115v-323q0 -38 18.5 -61t48.5 -23h60q38 0 68.5 30.5t41.5 79.5v297h115
v-499q-31 -17 -50 -43.5t-19 -52.5v-13q0 -17 12.5 -27.5t33.5 -10.5h13q15 0 32 5.5z" />
    <glyph glyph-name="Wcircumflex" unicode="&#x174;" horiz-adv-x="866" 
d="M173 17q-21 17 -29 57l-122 626h118l93 -533h2l155 496h44q47 0 64 -54l133 -441h2l93 532h118l-123 -626q-8 -38 -27.5 -56t-53.5 -18h-48l-156 508h-2l-160 -508h-48q-32 0 -53 17zM395 951h77l143 -178h-104l-77 102l-78 -102h-103z" />
    <glyph glyph-name="wcircumflex" unicode="&#x175;" horiz-adv-x="740" 
d="M720 499l-102 -428q-17 -71 -77 -71h-53l-115 336l-120 -336h-52q-59 0 -77 71l-104 428h119l73 -355l118 342h44q20 0 32.5 -9t19.5 -29l104 -301l71 352h119zM333 750h77l143 -178h-104l-77 102l-78 -102h-103z" />
    <glyph glyph-name="Ycircumflex" unicode="&#x176;" horiz-adv-x="642" 
d="M263 271l-259 429h127l190 -322l190 322h127l-259 -429v-271h-116v271zM282 951h77l143 -178h-104l-77 102l-78 -102h-103z" />
    <glyph glyph-name="ycircumflex" unicode="&#x177;" horiz-adv-x="589" 
d="M121.5 -161q-49.5 42 -54.5 111h113q3 -25 21 -40t46 -15h81q38 0 60.5 28.5t22.5 76.5v74q-24 -33 -55.5 -52t-63.5 -19h-65q-76 0 -122.5 50.5t-46.5 133.5v312h115v-314q0 -38 18.5 -61t49.5 -23h59q37 0 68.5 31t42.5 79v288h114v-499q0 -93 -53.5 -148t-143.5 -55
h-81q-76 0 -125.5 42zM255 750h77l143 -178h-104l-77 102l-78 -102h-103z" />
    <glyph glyph-name="Ydieresis" unicode="&#x178;" horiz-adv-x="642" 
d="M263 271l-259 429h127l190 -322l190 322h127l-259 -429v-271h-116v271zM158.5 792q-17.5 18 -17.5 46q0 29 17.5 46.5t46.5 17.5q28 0 46 -17.5t18 -46.5q0 -28 -18 -46t-46 -18q-29 0 -46.5 18zM391 792q-18 18 -18 46q0 29 18 46.5t46 17.5q29 0 46.5 -17.5t17.5 -46.5
q0 -28 -17.5 -46t-46.5 -18q-28 0 -46 18z" />
    <glyph glyph-name="Zacute" unicode="&#x179;" horiz-adv-x="597" 
d="M28 56l379 544h-361v100h523v-56l-381 -544h371v-100h-531v56zM336 944h127l-111 -171h-109z" />
    <glyph glyph-name="zacute" unicode="&#x17a;" horiz-adv-x="491" 
d="M24 56l279 346h-267v97h431v-56l-279 -346h274v-97h-438v56zM287 743h127l-111 -171h-109z" />
    <glyph glyph-name="Zdotaccent" unicode="&#x17b;" horiz-adv-x="597" 
d="M28 56l379 544h-361v100h523v-56l-381 -544h371v-100h-531v56zM245 788q-20 20 -20 52q0 33 20 53.5t53 20.5t53 -20.5t20 -53.5q0 -32 -20 -52t-53 -20t-53 20z" />
    <glyph glyph-name="zdotaccent" unicode="&#x17c;" horiz-adv-x="491" 
d="M24 56l279 346h-267v97h431v-56l-279 -346h274v-97h-438v56zM196 587q-20 20 -20 52q0 33 20 53.5t53 20.5t53 -20.5t20 -53.5q0 -32 -20 -52t-53 -20t-53 20z" />
    <glyph glyph-name="Zcaron" unicode="&#x17d;" horiz-adv-x="597" 
d="M28 56l379 544h-361v100h523v-56l-381 -544h371v-100h-531v56zM117 951h103l78 -102l77 102h104l-143 -178h-77z" />
    <glyph glyph-name="zcaron" unicode="&#x17e;" horiz-adv-x="491" 
d="M24 56l279 346h-267v97h431v-56l-279 -346h274v-97h-438v56zM68 750h103l78 -102l77 102h104l-143 -178h-77z" />
    <glyph glyph-name="uni018F" unicode="&#x18f;" horiz-adv-x="727" 
d="M552.5 677q60.5 -31 93.5 -87.5t33 -130.5v-204q0 -78 -33 -137.5t-93.5 -92.5t-139.5 -33h-114q-74 0 -131 32t-88.5 90t-31.5 134v131h514v80q0 66 -41 106.5t-108 40.5h-106q-63 0 -101.5 -37.5t-38.5 -99.5h-115q0 71 32 125t89.5 84t133.5 30h106q79 0 139.5 -31z
M521 138q41 44 41 117v22h-397v-29q0 -70 37 -112t97 -42h114q67 0 108 44z" />
    <glyph glyph-name="florin" unicode="&#x192;" horiz-adv-x="610" 
d="M44 -68h53q37 0 58 21t33 70l93 378h-86v99h110l6 24q27 97 73.5 138.5t129.5 41.5h52v-98h-52q-35 0 -55 -20t-33 -65l-6 -21h104l1 -99h-128l-96 -387q-24 -97 -70 -138.5t-129 -41.5h-58v98z" />
    <glyph glyph-name="Ohorn" unicode="&#x1a0;" horiz-adv-x="811" 
d="M830 704v-36q0 -89 -43 -140t-121 -52q1 -10 1 -30v-192q0 -78 -32 -137.5t-90.5 -92t-134.5 -32.5h-106q-76 0 -134 32.5t-90 92t-32 137.5v192q0 78 32 137.5t90 92t134 32.5h106q80 0 140.5 -36.5t90.5 -100.5h14q32 0 50 25.5t18 71.5v36h107zM550 442
q0 73 -38.5 118t-101.5 45h-105q-63 0 -101.5 -45t-38.5 -118v-184q0 -73 38.5 -118t101.5 -45h105q62 0 101 45t39 118v184z" />
    <glyph glyph-name="ohorn" unicode="&#x1a1;" horiz-adv-x="695" 
d="M692 504v-36q0 -85 -39.5 -135t-110.5 -56v-90q0 -88 -56.5 -141.5t-150.5 -53.5h-87q-92 0 -148 53.5t-56 141.5v124q0 58 25.5 102.5t72 69t107.5 24.5h88q74 0 126.5 -36t70.5 -98q24 6 37.5 30.5t13.5 64.5v36h107zM427 305q0 46 -25 74.5t-67 28.5h-84
q-42 0 -67 -28.5t-25 -74.5v-111q0 -46 25 -74.5t65 -28.5h85q42 0 67.5 28.5t25.5 74.5v111z" />
    <glyph glyph-name="Uhorn" unicode="&#x1af;" horiz-adv-x="817" 
d="M833 700v-36q0 -90 -45 -141t-124 -51h-17v-235q0 -73 -30 -128.5t-84 -86t-125 -30.5h-107q-70 0 -124 30.5t-83.5 86t-29.5 128.5v463h117v-461q0 -65 33 -104.5t87 -39.5h107q55 0 88.5 39.5t33.5 104.5v461h117v-133h11q32 0 50 25.5t18 71.5v36h107z" />
    <glyph glyph-name="uhorn" unicode="&#x1b0;" horiz-adv-x="698" 
d="M703 498v-36q0 -90 -44.5 -140.5t-124.5 -50.5h-9v-271h-108v68q-22 -34 -57.5 -55t-67.5 -21h-66q-75 0 -121.5 51.5t-46.5 134.5v321h115v-323q0 -38 18.5 -61t48.5 -23h60q38 0 68.5 30.5t41.5 79.5v297h115v-134h3q32 0 49.5 25.5t17.5 71.5v36h108z" />
    <glyph glyph-name="uni01CD" unicode="&#x1cd;" horiz-adv-x="670" 
d="M474 173h-278l-65 -173h-121l272 700h53q54 0 75 -53l250 -647h-122zM229 271h212l-105 284h-1zM154 951h103l78 -102l77 102h104l-143 -178h-77z" />
    <glyph glyph-name="uni01CE" unicode="&#x1ce;" horiz-adv-x="575" 
d="M94.5 30.5q-46.5 38.5 -46.5 102.5v36q0 63 48.5 101t127.5 38h62q28 0 60 -8t57 -21v62q0 31 -20 50t-52 19h-84q-33 0 -53 -15.5t-20 -40.5h-112q0 69 51 111t134 42h84q84 0 135 -45.5t51 -120.5v-341h-107v63q-24 -32 -60 -51.5t-71 -19.5h-62q-76 0 -122.5 38.5z
M286 82q40 0 72 22.5t45 59.5v24q-17 14 -48 22.5t-65 8.5h-63q-30 0 -48.5 -15t-18.5 -39v-28q0 -25 19 -40t50 -15h57zM112 750h103l78 -102l77 102h104l-143 -178h-77z" />
    <glyph glyph-name="uni01CF" unicode="&#x1cf;" horiz-adv-x="273" 
d="M78 700h117v-700h-117v700zM-45 951h103l78 -102l77 102h104l-143 -178h-77z" />
    <glyph glyph-name="uni01D0" unicode="&#x1d0;" horiz-adv-x="255" 
d="M70 499h115v-499h-115v499zM-54 750h103l78 -102l77 102h104l-143 -178h-77z" />
    <glyph glyph-name="uni01D1" unicode="&#x1d1;" horiz-adv-x="715" 
d="M170 24.5q-58 32.5 -90 92t-32 137.5v192q0 78 32 137.5t90 92t134 32.5h106q76 0 134.5 -32.5t90.5 -92t32 -137.5v-192q0 -78 -32 -137.5t-90.5 -92t-134.5 -32.5h-106q-76 0 -134 32.5zM410 95q62 0 101 45t39 118v184q0 73 -38.5 118t-101.5 45h-105
q-63 0 -101.5 -45t-38.5 -118v-184q0 -73 38.5 -118t101.5 -45h105zM176 951h103l78 -102l77 102h104l-143 -178h-77z" />
    <glyph glyph-name="uni01D2" unicode="&#x1d2;" horiz-adv-x="586" 
d="M100 45.5q-56 53.5 -56 141.5v124q0 58 25.5 102.5t72 69t107.5 24.5h88q61 0 107.5 -24.5t72 -69t25.5 -102.5v-124q0 -88 -56.5 -141.5t-150.5 -53.5h-87q-92 0 -148 53.5zM334 91q42 0 67.5 28.5t25.5 74.5v111q0 46 -25 74.5t-67 28.5h-84q-42 0 -67 -28.5t-25 -74.5
v-111q0 -46 25 -74.5t65 -28.5h85zM112 750h103l78 -102l77 102h104l-143 -178h-77z" />
    <glyph glyph-name="uni01D3" unicode="&#x1d3;" horiz-adv-x="711" 
d="M177 22.5q-54 30.5 -83.5 86t-29.5 128.5v463h117v-461q0 -65 33 -104.5t87 -39.5h107q55 0 88.5 39.5t33.5 104.5v461h117v-463q0 -73 -30 -128.5t-84 -86t-125 -30.5h-107q-70 0 -124 30.5zM174 951h103l78 -102l77 102h104l-143 -178h-77z" />
    <glyph glyph-name="uni01D4" unicode="&#x1d4;" horiz-adv-x="589" 
d="M104.5 43.5q-46.5 51.5 -46.5 134.5v321h115v-323q0 -38 18.5 -61t48.5 -23h60q38 0 68.5 30.5t41.5 79.5v297h115v-499h-108v68q-22 -34 -57.5 -55t-67.5 -21h-66q-75 0 -121.5 51.5zM113 750h103l78 -102l77 102h104l-143 -178h-77z" />
    <glyph glyph-name="uni01D5" unicode="&#x1d5;" horiz-adv-x="711" 
d="M177 22.5q-54 30.5 -83.5 86t-29.5 128.5v463h117v-461q0 -65 33 -104.5t87 -39.5h107q55 0 88.5 39.5t33.5 104.5v461h117v-463q0 -73 -30 -128.5t-84 -86t-125 -30.5h-107q-70 0 -124 30.5zM206 1048h298v-84h-298v84zM192.5 792q-17.5 18 -17.5 46q0 29 17.5 46.5
t46.5 17.5q28 0 46 -17.5t18 -46.5q0 -28 -18 -46t-46 -18q-29 0 -46.5 18zM425 792q-18 18 -18 46q0 29 18 46.5t46 17.5q29 0 46.5 -17.5t17.5 -46.5q0 -28 -17.5 -46t-46.5 -18q-28 0 -46 18z" />
    <glyph glyph-name="uni01D6" unicode="&#x1d6;" horiz-adv-x="589" 
d="M104.5 43.5q-46.5 51.5 -46.5 134.5v321h115v-323q0 -38 18.5 -61t48.5 -23h60q38 0 68.5 30.5t41.5 79.5v297h115v-499h-108v68q-22 -34 -57.5 -55t-67.5 -21h-66q-75 0 -121.5 51.5zM145 847h298v-84h-298v84zM131.5 591q-17.5 18 -17.5 46q0 29 17.5 46.5t46.5 17.5
q28 0 46 -17.5t18 -46.5q0 -28 -18 -46t-46 -18q-29 0 -46.5 18zM364 591q-18 18 -18 46q0 29 18 46.5t46 17.5q29 0 46.5 -17.5t17.5 -46.5q0 -28 -17.5 -46t-46.5 -18q-28 0 -46 18z" />
    <glyph glyph-name="uni01D7" unicode="&#x1d7;" horiz-adv-x="711" 
d="M177 22.5q-54 30.5 -83.5 86t-29.5 128.5v463h117v-461q0 -65 33 -104.5t87 -39.5h107q55 0 88.5 39.5t33.5 104.5v461h117v-463q0 -73 -30 -128.5t-84 -86t-125 -30.5h-107q-70 0 -124 30.5zM384 1085h107l-92 -139h-91zM192.5 792q-17.5 18 -17.5 46q0 29 17.5 46.5
t46.5 17.5q28 0 46 -17.5t18 -46.5q0 -28 -18 -46t-46 -18q-29 0 -46.5 18zM425 792q-18 18 -18 46q0 29 18 46.5t46 17.5q29 0 46.5 -17.5t17.5 -46.5q0 -28 -17.5 -46t-46.5 -18q-28 0 -46 18z" />
    <glyph glyph-name="uni01D8" unicode="&#x1d8;" horiz-adv-x="589" 
d="M104.5 43.5q-46.5 51.5 -46.5 134.5v321h115v-323q0 -38 18.5 -61t48.5 -23h60q38 0 68.5 30.5t41.5 79.5v297h115v-499h-108v68q-22 -34 -57.5 -55t-67.5 -21h-66q-75 0 -121.5 51.5zM323 884h107l-92 -139h-91zM131.5 591q-17.5 18 -17.5 46q0 29 17.5 46.5t46.5 17.5
q28 0 46 -17.5t18 -46.5q0 -28 -18 -46t-46 -18q-29 0 -46.5 18zM364 591q-18 18 -18 46q0 29 18 46.5t46 17.5q29 0 46.5 -17.5t17.5 -46.5q0 -28 -17.5 -46t-46.5 -18q-28 0 -46 18z" />
    <glyph glyph-name="uni01D9" unicode="&#x1d9;" horiz-adv-x="711" 
d="M177 22.5q-54 30.5 -83.5 86t-29.5 128.5v463h117v-461q0 -65 33 -104.5t87 -39.5h107q55 0 88.5 39.5t33.5 104.5v461h117v-463q0 -73 -30 -128.5t-84 -86t-125 -30.5h-107q-70 0 -124 30.5zM201 1097h89l65 -89l65 89h89l-119 -157h-71zM192.5 792q-17.5 18 -17.5 46
q0 29 17.5 46.5t46.5 17.5q28 0 46 -17.5t18 -46.5q0 -28 -18 -46t-46 -18q-29 0 -46.5 18zM425 792q-18 18 -18 46q0 29 18 46.5t46 17.5q29 0 46.5 -17.5t17.5 -46.5q0 -28 -17.5 -46t-46.5 -18q-28 0 -46 18z" />
    <glyph glyph-name="uni01DA" unicode="&#x1da;" horiz-adv-x="589" 
d="M104.5 43.5q-46.5 51.5 -46.5 134.5v321h115v-323q0 -38 18.5 -61t48.5 -23h60q38 0 68.5 30.5t41.5 79.5v297h115v-499h-108v68q-22 -34 -57.5 -55t-67.5 -21h-66q-75 0 -121.5 51.5zM140 896h89l65 -89l65 89h89l-119 -157h-71zM131.5 591q-17.5 18 -17.5 46
q0 29 17.5 46.5t46.5 17.5q28 0 46 -17.5t18 -46.5q0 -28 -18 -46t-46 -18q-29 0 -46.5 18zM364 591q-18 18 -18 46q0 29 18 46.5t46 17.5q29 0 46.5 -17.5t17.5 -46.5q0 -28 -17.5 -46t-46.5 -18q-28 0 -46 18z" />
    <glyph glyph-name="uni01DB" unicode="&#x1db;" horiz-adv-x="711" 
d="M177 22.5q-54 30.5 -83.5 86t-29.5 128.5v463h117v-461q0 -65 33 -104.5t87 -39.5h107q55 0 88.5 39.5t33.5 104.5v461h117v-463q0 -73 -30 -128.5t-84 -86t-125 -30.5h-107q-70 0 -124 30.5zM219 1085h107l76 -139h-91zM192.5 792q-17.5 18 -17.5 46q0 29 17.5 46.5
t46.5 17.5q28 0 46 -17.5t18 -46.5q0 -28 -18 -46t-46 -18q-29 0 -46.5 18zM425 792q-18 18 -18 46q0 29 18 46.5t46 17.5q29 0 46.5 -17.5t17.5 -46.5q0 -28 -17.5 -46t-46.5 -18q-28 0 -46 18z" />
    <glyph glyph-name="uni01DC" unicode="&#x1dc;" horiz-adv-x="589" 
d="M104.5 43.5q-46.5 51.5 -46.5 134.5v321h115v-323q0 -38 18.5 -61t48.5 -23h60q38 0 68.5 30.5t41.5 79.5v297h115v-499h-108v68q-22 -34 -57.5 -55t-67.5 -21h-66q-75 0 -121.5 51.5zM158 884h107l76 -139h-91zM131.5 591q-17.5 18 -17.5 46q0 29 17.5 46.5t46.5 17.5
q28 0 46 -17.5t18 -46.5q0 -28 -18 -46t-46 -18q-29 0 -46.5 18zM364 591q-18 18 -18 46q0 29 18 46.5t46 17.5q29 0 46.5 -17.5t17.5 -46.5q0 -28 -17.5 -46t-46.5 -18q-28 0 -46 18z" />
    <glyph glyph-name="Gcaron" unicode="&#x1e6;" horiz-adv-x="703" 
d="M166.5 24.5q-56.5 32.5 -87.5 92t-31 137.5v192q0 78 31.5 137.5t89 92t132.5 32.5h110q72 0 127 -29.5t85 -83t30 -123.5h-115q0 60 -35 96.5t-92 36.5h-110q-61 0 -98.5 -44.5t-37.5 -118.5v-184q0 -74 36.5 -118.5t96.5 -44.5h114q58 0 95 41t37 105v34h-194v102h309
v-136q0 -73 -31 -129.5t-87 -88t-129 -31.5h-114q-75 0 -131.5 32.5zM172 951h103l78 -102l77 102h104l-143 -178h-77z" />
    <glyph glyph-name="gcaron" unicode="&#x1e7;" horiz-adv-x="597" 
d="M122 -161q-50 42 -55 111h113q3 -25 21.5 -40t45.5 -15h88q38 0 60.5 28.5t22.5 76.5v57q-21 -24 -51.5 -39t-59.5 -15h-70q-86 0 -139.5 53.5t-53.5 140.5v107q0 60 25 106t70.5 71.5t104.5 25.5h62q34 0 67 -16.5t52 -43.5v52h108v-499q0 -93 -53.5 -148t-144.5 -55
h-88q-75 0 -125 42zM313 101q43 0 72 34t33 88v87q-4 43 -31 70.5t-65 27.5h-69q-42 0 -68 -30.5t-26 -80.5v-93q0 -46 23.5 -74.5t61.5 -28.5h69zM109 750h103l78 -102l77 102h104l-143 -178h-77z" />
    <glyph glyph-name="Aringacute" unicode="&#x1fa;" horiz-adv-x="670" 
d="M474 173h-278l-65 -173h-121l272 700h53q54 0 75 -53l250 -647h-122zM229 271h212l-105 284h-1zM250 777.5q-32 31.5 -32 83.5q0 51 32.5 82.5t84.5 31.5t84.5 -31.5t32.5 -82.5q0 -52 -32 -83.5t-85 -31.5t-85 31.5zM370 826q13 13 13 35q0 21 -13 34t-35 13t-35 -13
t-13 -34q0 -22 13 -35t35 -13t35 13zM373 1196h127l-111 -171h-109z" />
    <glyph glyph-name="aringacute" unicode="&#x1fb;" horiz-adv-x="575" 
d="M94.5 30.5q-46.5 38.5 -46.5 102.5v36q0 63 48.5 101t127.5 38h62q28 0 60 -8t57 -21v62q0 31 -20 50t-52 19h-84q-33 0 -53 -15.5t-20 -40.5h-112q0 69 51 111t134 42h84q84 0 135 -45.5t51 -120.5v-341h-107v63q-24 -32 -60 -51.5t-71 -19.5h-62q-76 0 -122.5 38.5z
M286 82q40 0 72 22.5t45 59.5v24q-17 14 -48 22.5t-65 8.5h-63q-30 0 -48.5 -15t-18.5 -39v-28q0 -25 19 -40t50 -15h57zM208 576.5q-32 31.5 -32 83.5q0 51 32.5 82.5t84.5 31.5t84.5 -31.5t32.5 -82.5q0 -52 -32 -83.5t-85 -31.5t-85 31.5zM328 625q13 13 13 35
q0 21 -13 34t-35 13t-35 -13t-13 -34q0 -22 13 -35t35 -13t35 13zM331 995h127l-111 -171h-109z" />
    <glyph glyph-name="AEacute" unicode="&#x1fc;" horiz-adv-x="949" 
d="M526 599v-190h345v-102h-345v-206h385v-101h-411q-40 0 -63.5 23t-23.5 62v90h-202l-96 -175h-119l385 700h530v-101h-385zM421 275v297l-160 -297h160zM566 944h127l-111 -171h-109z" />
    <glyph glyph-name="aeacute" unicode="&#x1fd;" horiz-adv-x="923" 
d="M96 31q-48 39 -48 102v36q0 63 48.5 101.5t128.5 38.5h62q27 0 58.5 -8.5t57.5 -21.5v62q0 31 -19.5 50t-51.5 19h-84q-33 0 -53.5 -15.5t-20.5 -40.5h-112q0 69 51.5 111t134.5 42h84q41 0 77.5 -17t56.5 -45h1q22 28 61 45t81 17h74q90 0 145 -54t55 -143v-97h-365v-30
q0 -43 25 -68.5t67 -25.5h69q41 0 65.5 19.5t24.5 51.5h112q0 -76 -55.5 -122t-147.5 -46h-68q-49 0 -90 20t-63 55h-1q-30 -37 -71.5 -56t-82.5 -19h-81q-77 0 -125 39zM769 299v13q0 44 -23.5 71t-62.5 27h-74q-40 0 -65.5 -28.5t-25.5 -74.5v-8h251zM287 83q40 0 71.5 22
t44.5 59v24q-17 14 -48 22.5t-64 8.5h-62q-32 0 -50.5 -14.5t-18.5 -39.5v-28q0 -25 19 -39.5t51 -14.5h57zM505 743h127l-111 -171h-109z" />
    <glyph glyph-name="Oslashacute" unicode="&#x1fe;" horiz-adv-x="715" 
d="M598 634q33 -35 51 -83t18 -105v-192q0 -78 -32 -137.5t-90.5 -92t-134.5 -32.5h-106q-65 0 -118 25l-47 -71h-96l77 116q-35 35 -53.5 84t-18.5 108v192q0 78 32 137.5t90 92t134 32.5h106q69 0 123 -27l43 65h97zM188 163l285 428q-30 14 -63 14h-105q-63 0 -101.5 -45
t-38.5 -118v-184q0 -55 23 -95zM530 532l-283 -425q26 -12 58 -12h105q62 0 101 45t39 118v184q0 52 -20 90zM395 944h127l-111 -171h-109z" />
    <glyph glyph-name="oslashacute" unicode="&#x1ff;" horiz-adv-x="586" 
d="M527 392.5q15 -36.5 15 -81.5v-124q0 -88 -56.5 -141.5t-150.5 -53.5h-87q-45 0 -80 13l-32 -47h-94l60 86q-58 53 -58 143v124q0 58 25.5 102.5t72 69t107.5 24.5h88q45 0 80 -13l33 48h94l-61 -87q29 -26 44 -62.5zM170 141l185 265q-12 2 -20 2h-84q-42 0 -67 -28.5
t-25 -74.5v-111q0 -29 11 -53zM427 305q0 29 -11 53l-186 -265q12 -2 19 -2h85q42 0 67.5 28.5t25.5 74.5v111zM330 743h127l-111 -171h-109z" />
    <glyph glyph-name="uni0218" unicode="&#x218;" horiz-adv-x="646" 
d="M104 52q-60 60 -60 164h115q0 -56 29.5 -88.5t81.5 -32.5h111q49 0 79 21.5t30 56.5v44q0 27 -21 45t-60 25l-182 31q-85 14 -130.5 56t-45.5 107v55q0 51 27.5 90t77.5 60.5t116 21.5h113q62 0 109.5 -25.5t73.5 -72.5t26 -108h-114q0 46 -26.5 74.5t-68.5 28.5h-113
q-47 0 -75.5 -20.5t-28.5 -55.5v-36q0 -28 20 -46.5t58 -24.5l182 -32q86 -15 132.5 -55.5t46.5 -103.5v-65q0 -51 -28 -90.5t-79 -61.5t-117 -22h-115q-104 0 -164 60zM201 -235l25 22q55 45 55 110v37h114v-37q0 -64 -22.5 -111.5t-69.5 -82.5l-29 -22z" />
    <glyph glyph-name="uni0219" unicode="&#x219;" horiz-adv-x="539" 
d="M91 38q-52 46 -52 122h113q0 -32 21 -51.5t56 -19.5h89q34 0 53.5 11.5t19.5 31.5v22q0 14 -11.5 24t-31.5 14l-173 30q-58 10 -92 42.5t-34 75.5v33q0 62 49.5 98t136.5 36h80q79 0 128 -43t49 -113h-113q0 27 -17.5 43t-46.5 16h-79q-35 0 -54 -11t-19 -31v-20
q0 -14 11.5 -24t30.5 -13l179 -32q55 -11 88 -42t33 -73v-37q0 -62 -51 -98.5t-136 -36.5h-89q-86 0 -138 46zM148 -235l25 22q55 45 55 110v37h114v-37q0 -64 -22.5 -111.5t-69.5 -82.5l-29 -22z" />
    <glyph glyph-name="uni021A" unicode="&#x21a;" horiz-adv-x="597" 
d="M240 599h-222v101h561v-101h-222v-599h-117v599zM160 -235l25 22q55 45 55 110v37h114v-37q0 -64 -22.5 -111.5t-69.5 -82.5l-29 -22z" />
    <glyph glyph-name="uni021B" unicode="&#x21b;" horiz-adv-x="401" 
d="M151 38q-39 38 -39 120v242h-88v99h91v151h112v-151h130v-99h-130v-238q0 -33 13 -48t41 -15h76v-99h-82q-85 0 -124 38zM103 -235l25 22q55 45 55 110v37h114v-37q0 -64 -22.5 -111.5t-69.5 -82.5l-29 -22z" />
    <glyph glyph-name="uni0237" unicode="&#x237;" horiz-adv-x="277" 
d="M-40 -100h56q41 0 58.5 24t17.5 80v496h115v-491q0 -112 -44 -160t-147 -48h-56v99z" />
    <glyph glyph-name="uni0251" unicode="&#x251;" horiz-adv-x="603" 
d="M96.5 45.5q-52.5 53.5 -52.5 140.5v116q0 61 25 107.5t70.5 72t103.5 25.5h63q34 0 66.5 -16.5t52.5 -44.5v53h107v-352q0 -24 10 -35.5t32 -11.5h25v-100h-46q-41 0 -69 17.5t-39 47.5h-1q-22 -32 -57.5 -52.5t-74.5 -20.5h-78q-85 0 -137.5 53.5zM312 91q42 0 72 35.5
t34 86.5v96q-5 44 -31 71.5t-65 27.5h-70q-41 0 -67 -31t-26 -81v-103q0 -46 23.5 -74t61.5 -28h68z" />
    <glyph glyph-name="uni0259" unicode="&#x259;" horiz-adv-x="568" 
d="M94 46q-55 54 -55 143v97h371v29q0 43 -25.5 69t-66.5 26h-75q-40 0 -64.5 -19.5t-24.5 -51.5h-113q0 76 56 122t147 46h74q93 0 149.5 -51t56.5 -134v-134q0 -58 -25.5 -102.5t-72 -69t-107.5 -24.5h-80q-90 0 -145 54zM319 89q41 0 66 28.5t25 74.5v8h-257v-13
q0 -44 23.5 -71t62.5 -27h80z" />
    <glyph glyph-name="uni02BB" unicode="&#x2bb;" horiz-adv-x="241" 
d="M19 564q0 65 22.5 112t70.5 83l29 22l73 -85l-25 -21q-55 -45 -55 -111v-43h-115v43z" />
    <glyph glyph-name="uni02BC" unicode="&#x2bc;" horiz-adv-x="241" 
d="M19 571l25 21q55 45 55 111v43h114v-43q0 -64 -22.5 -111.5t-69.5 -83.5l-29 -22z" />
    <glyph glyph-name="uni02BE" unicode="&#x2be;" 
d="M0 586q22 0 35 13t13 35q0 21 -13 34t-35 13v67q53 0 85.5 -31.5t32.5 -82.5q0 -52 -32.5 -83.5t-85.5 -31.5v67z" />
    <glyph glyph-name="uni02BF" unicode="&#x2bf;" 
d="M-85.5 550.5q-32.5 31.5 -32.5 83.5q0 51 32.5 82.5t85.5 31.5v-67q-22 0 -35 -13t-13 -34q0 -22 13 -35t35 -13v-67q-53 0 -85.5 31.5z" />
    <glyph glyph-name="circumflex" unicode="&#x2c6;" horiz-adv-x="437" 
d="M257 750l142 -178h-103l-77 102l-78 -102h-103l141 178h78z" />
    <glyph glyph-name="caron" unicode="&#x2c7;" horiz-adv-x="437" 
d="M38 750h103l78 -102l77 102h104l-143 -178h-77z" />
    <glyph glyph-name="uni02C8" unicode="&#x2c8;" 
d="M-57 727h114v-191h-114v191z" />
    <glyph glyph-name="uni02C9" unicode="&#x2c9;" horiz-adv-x="492" 
d="M53 679h386v-90h-386v90z" />
    <glyph glyph-name="uni02CA" unicode="&#x2ca;" 
d="M-107 585l137 161l78 -73l-155 -143z" />
    <glyph glyph-name="uni02CB" unicode="&#x2cb;" 
d="M-107 673l78 73l137 -161l-60 -55z" />
    <glyph glyph-name="uni02CC" unicode="&#x2cc;" 
d="M-56 -40h114v-191h-114v191z" />
    <glyph glyph-name="breve" unicode="&#x2d8;" horiz-adv-x="409" 
d="M82 603.5q-44 39.5 -44 104.5v16h90v-16q0 -31 19 -49t51 -18h12q32 0 51.5 18t19.5 49v16h89v-16q0 -65 -44 -104.5t-116 -39.5h-12q-72 0 -116 39.5z" />
    <glyph glyph-name="dotaccent" unicode="&#x2d9;" horiz-adv-x="223" 
d="M58 587q-20 20 -20 52q0 33 20 53.5t53 20.5t53 -20.5t20 -53.5q0 -32 -20 -52t-53 -20t-53 20z" />
    <glyph glyph-name="ring" unicode="&#x2da;" horiz-adv-x="311" 
d="M70 576.5q-32 31.5 -32 83.5q0 51 32.5 82.5t84.5 31.5t84.5 -31.5t32.5 -82.5q0 -52 -32 -83.5t-85 -31.5t-85 31.5zM190 625q13 13 13 35q0 21 -13 34t-35 13t-35 -13t-13 -34q0 -22 13 -35t35 -13t35 13z" />
    <glyph glyph-name="ogonek" unicode="&#x2db;" horiz-adv-x="291" 
d="M71.5 -196.5q-33.5 27.5 -33.5 73.5v13q0 32 18.5 62.5t48.5 47.5h96q-31 -17 -50 -43.5t-19 -52.5v-13q0 -17 12.5 -27.5t33.5 -10.5h14q15 0 32 5.5t29 14.5v-75q-13 -10 -35 -16t-44 -6h-13q-56 0 -89.5 27.5z" />
    <glyph glyph-name="tilde" unicode="&#x2dc;" horiz-adv-x="435" 
d="M240.5 574.5q-17.5 10.5 -38.5 28.5q-13 12 -22 18t-18 6h-7q-14 0 -22.5 -14.5t-9.5 -37.5h-85q0 59 31 96t81 37h8q24 0 42 -11t40 -30q12 -11 20 -16.5t15 -5.5h8q12 0 20.5 14t9.5 38h84q0 -60 -30 -96.5t-79 -36.5h-7q-23 0 -40.5 10.5z" />
    <glyph glyph-name="hungarumlaut" unicode="&#x2dd;" horiz-adv-x="462" 
d="M130 743h122l-111 -171h-103zM302 743h122l-110 -171h-104z" />
    <glyph glyph-name="gravecomb" unicode="&#x300;" 
d="M-166 743h127l93 -171h-109z" />
    <glyph glyph-name="acutecomb" unicode="&#x301;" 
d="M38 743h127l-111 -171h-109z" />
    <glyph glyph-name="uni0302" unicode="&#x302;" 
d="M-39 750h77l143 -178h-104l-77 102l-78 -102h-103z" />
    <glyph glyph-name="tildecomb" unicode="&#x303;" 
d="M22.5 574.5q-17.5 10.5 -38.5 28.5q-13 12 -22 18t-18 6h-7q-14 0 -22.5 -14.5t-9.5 -37.5h-85q0 59 31 96t81 37h8q24 0 42 -11t40 -30q12 -11 20 -16.5t15 -5.5h8q12 0 20.5 14t9.5 38h84q0 -60 -30 -96.5t-79 -36.5h-7q-23 0 -40.5 10.5z" />
    <glyph glyph-name="uni0304" unicode="&#x304;" 
d="M-149 673h298v-88h-298v88z" />
    <glyph glyph-name="uni0306" unicode="&#x306;" 
d="M-122 603.5q-44 39.5 -44 104.5v16h90v-16q0 -31 19 -49t51 -18h12q32 0 51.5 18t19.5 49v16h89v-16q0 -65 -44 -104.5t-116 -39.5h-12q-72 0 -116 39.5z" />
    <glyph glyph-name="uni0307" unicode="&#x307;" 
d="M-53 587q-20 20 -20 52q0 33 20 53.5t53 20.5t53 -20.5t20 -53.5q0 -32 -20 -52t-53 -20t-53 20z" />
    <glyph glyph-name="uni0308" unicode="&#x308;" 
d="M-162.5 591q-17.5 18 -17.5 46q0 29 17.5 46.5t46.5 17.5q28 0 46 -17.5t18 -46.5q0 -28 -18 -46t-46 -18q-29 0 -46.5 18zM70 591q-18 18 -18 46q0 29 18 46.5t46 17.5q29 0 46.5 -17.5t17.5 -46.5q0 -28 -17.5 -46t-46.5 -18q-28 0 -46 18z" />
    <glyph glyph-name="hookabovecomb" unicode="&#x309;" 
d="M-50 581q0 21 13.5 34t38.5 27q21 13 31 22t10 22v11q0 15 -8.5 23t-24.5 8h-20q-38 0 -38 -40h-81q0 56 30 84.5t89 28.5h20q57 0 87 -26.5t30 -77.5v-11q0 -28 -14 -44t-40 -33q-16 -10 -23.5 -17.5t-7.5 -17.5v-13h-92v20z" />
    <glyph glyph-name="uni030A" unicode="&#x30a;" 
d="M-85 576.5q-32 31.5 -32 83.5q0 51 32.5 82.5t84.5 31.5t84.5 -31.5t32.5 -82.5q0 -52 -32 -83.5t-85 -31.5t-85 31.5zM35 625q13 13 13 35q0 21 -13 34t-35 13t-35 -13t-13 -34q0 -22 13 -35t35 -13t35 13z" />
    <glyph glyph-name="uni030B" unicode="&#x30b;" 
d="M-55 743h122l-111 -171h-103zM117 743h122l-110 -171h-104z" />
    <glyph glyph-name="uni030C" unicode="&#x30c;" 
d="M-181 750h103l78 -102l77 102h104l-143 -178h-77z" />
    <glyph glyph-name="uni031B" unicode="&#x31b;" 
d="M-114 493h34q32 0 49.5 25.5t17.5 71.5v36h108v-36q0 -90 -45 -141t-124 -51h-40v95z" />
    <glyph glyph-name="dotbelowcomb" unicode="&#x323;" 
d="M-53 -191q-20 20 -20 53t20 53t53 20t53 -20t20 -53t-20 -53t-53 -20t-53 20z" />
    <glyph glyph-name="uni0324" unicode="&#x324;" 
d="M-162 -174.5q-18 17.5 -18 45.5t17.5 46t46.5 18q28 0 46 -18t18 -46t-18 -45.5t-46 -17.5t-46 17.5zM70 -174.5q-18 17.5 -18 45.5t18 46t46 18q29 0 46.5 -18t17.5 -46t-18 -45.5t-46 -17.5t-46 17.5z" />
    <glyph glyph-name="uni0326" unicode="&#x326;" 
d="M-275 -235l25 22q55 45 55 110v37h114v-37q0 -64 -22.5 -111.5t-69.5 -82.5l-29 -22z" />
    <glyph glyph-name="uni0327" unicode="&#x327;" 
d="M-94 -170h75q20 0 31.5 7t11.5 19v14q0 11 -10 18t-27 7h-59v49l34 82h87l-34 -75h9q40 0 63.5 -22t23.5 -58v-17q0 -43 -33.5 -69t-88.5 -26h-83v71z" />
    <glyph glyph-name="uni0328" unicode="&#x328;" 
d="M-77.5 -196.5q-33.5 27.5 -33.5 73.5v13q0 32 18.5 62.5t48.5 47.5h96q-31 -17 -50 -43.5t-19 -52.5v-13q0 -17 12.5 -27.5t33.5 -10.5h14q15 0 32 5.5t29 14.5v-75q-13 -10 -35 -16t-44 -6h-13q-56 0 -89.5 27.5z" />
    <glyph glyph-name="uni032E" unicode="&#x32e;" 
d="M-122 -184.5q-44 39.5 -44 104.5v16h90v-16q0 -31 19 -49t51 -18h12q32 0 51.5 18t19.5 49v16h89v-16q0 -65 -44 -104.5t-116 -39.5h-12q-72 0 -116 39.5z" />
    <glyph glyph-name="uni0331" unicode="&#x331;" 
d="M-149 -79h298v-90h-298v90z" />
    <glyph glyph-name="uni0394" unicode="&#x394;" horiz-adv-x="724" 
d="M44 86l277 614h89l270 -614v-86h-636v86zM557 101l-192 449l-198 -449h390z" />
    <glyph glyph-name="uni03A9" unicode="&#x3a9;" horiz-adv-x="783" 
d="M44 101h192v69q-76 13 -118 65.5t-42 133.5v107q0 109 68 170.5t189 61.5h114q121 0 188.5 -63t67.5 -176v-100q0 -82 -41.5 -134.5t-115.5 -65.5v-68h193v-101h-307v258h47q50 0 78.5 30t28.5 83v98q0 64 -37 100.5t-102 36.5h-114q-66 0 -103 -34.5t-37 -95.5v-105
q0 -53 29.5 -83t81.5 -30h46v-258h-306v101z" />
    <glyph glyph-name="uni03BC" unicode="&#x3bc;" horiz-adv-x="589" 
d="M525 499v-499h-108v68q-23 -34 -57 -55t-66 -21h-51q-42 0 -72 27v-202h-113v682h115v-326q0 -37 18.5 -59t50.5 -22h58q38 0 68.5 30.5t41.5 79.5v297h115z" />
    <glyph glyph-name="pi" unicode="&#x3c0;" horiz-adv-x="740" 
d="M576 400v-238q0 -33 13 -48t41 -15h66v-99h-72q-85 0 -124 38t-39 120v242h-187v-400h-115v400h-115v99h652v-99h-120z" />
    <glyph glyph-name="uni0E01" unicode="&#xe01;" horiz-adv-x="625" 
d="M112 256q0 33 -21.5 55.5t-58.5 28.5q10 62 42 111.5t80 78t104 28.5h123q79 0 127.5 -47.5t48.5 -125.5v-385h-115v380q0 35 -21 56.5t-56 21.5h-107q-31 0 -59 -23t-44 -61q33 -17 52.5 -49t19.5 -69v-256h-115v256z" />
    <glyph glyph-name="uni0E02" unicode="&#xe02;" horiz-adv-x="597" 
d="M217 21.5q-22 21.5 -22 57.5v137q0 16 8 29t24 31q23 27 35.5 51t12.5 60v25q0 35 -19.5 55.5t-52.5 20.5h-18q-47 0 -66 -26l1 -1q14 4 26 4q40 0 64.5 -25t24.5 -66q0 -45 -29 -72.5t-77 -27.5q-46 0 -75 29.5t-29 76.5v30q0 70 42.5 109t117.5 39h33q67 0 107.5 -39
t40.5 -104v-29q0 -37 -9.5 -61.5t-27.5 -53.5q-11 -16 -16 -27t-5 -23v-126h64q42 0 42 55v400h115v-405q0 -68 -38 -106.5t-106 -38.5h-109q-37 0 -59 21.5zM160.5 344q11.5 12 11.5 31t-11.5 30t-31.5 11t-31.5 -11t-11.5 -30t12 -31t31 -12q20 0 31.5 12z" />
    <glyph glyph-name="uni0E03" unicode="&#xe03;" horiz-adv-x="609" 
d="M229 21.5q-22 21.5 -22 57.5v135q0 17 8.5 33t28.5 44q24 32 37 57.5t13 55.5v29q0 52 -22 52h-6l-50 -45l-52 47h-8q-38 0 -44 -44v-2q16 4 25 4q41 0 65.5 -24.5t24.5 -65.5q0 -44 -28.5 -70.5t-74.5 -26.5t-73.5 28t-27.5 75v45q0 74 33 113t95 39h23l44 -42l41 42h23
q51 0 75.5 -30.5t24.5 -93.5v-30q0 -38 -9.5 -62.5t-27.5 -55.5q-13 -22 -19 -36t-6 -32v-123h64q43 0 43 55v400h114v-405q0 -68 -38 -106.5t-106 -38.5h-109q-37 0 -59 21.5zM154.5 325q11.5 11 11.5 30q0 18 -11.5 29.5t-30.5 11.5t-30 -11.5t-11 -29.5q0 -19 11 -30
t30 -11t30.5 11z" />
    <glyph glyph-name="uni0E04" unicode="&#xe04;" horiz-adv-x="645" 
d="M522.5 504.5q54.5 -53.5 54.5 -140.5v-364h-113v364q0 42 -23.5 68t-61.5 26h-110q-43 0 -68.5 -26t-25.5 -68v-202h2l44 106q17 40 41.5 59.5t59.5 19.5q49 0 78.5 -28.5t29.5 -75.5q0 -46 -29 -74.5t-76 -28.5q-20 0 -37.5 7t-28.5 19l-77 -166h-114v364q0 57 25 101
t71 68.5t105 24.5h110q89 0 143.5 -53.5zM291.5 275.5q-12.5 -12.5 -12.5 -32.5t12.5 -32t32.5 -12t32 12t12 32t-12 32.5t-32 12.5t-32.5 -12.5z" />
    <glyph glyph-name="uni0E05" unicode="&#xe05;" horiz-adv-x="651" 
d="M539 510.5q44 -47.5 44 -131.5v-379h-114v377q0 37 -14 58.5t-39 21.5h-11l-80 -61l-80 61h-11q-26 0 -42.5 -22t-16.5 -60v-213h2l44 105q17 41 42 60t60 19q49 0 78.5 -28.5t29.5 -74.5t-29 -74.5t-76 -28.5q-20 0 -37.5 7t-28.5 19l-78 -166h-114v377q0 85 43.5 133
t121.5 48h22l70 -58l70 58h22q78 0 122 -47.5zM292.5 275q-12.5 -12 -12.5 -32t12.5 -32.5t32.5 -12.5t32.5 12.5t12.5 32.5t-12.5 32t-32.5 12t-32.5 -12z" />
    <glyph glyph-name="uni0E06" unicode="&#xe06;" horiz-adv-x="666" 
d="M121.5 22q-35.5 32 -35.5 86q0 60 43 95.5t114 35.5v6q0 14 7 29t21 35q18 29 27.5 49.5t9.5 45.5v27q0 26 -4 40t-18 14h-8l-49 -45l-53 47h-10q-19 0 -31 -11.5t-15 -32.5v-2q16 4 25 4q41 0 65.5 -24.5t24.5 -65.5q0 -44 -28.5 -70.5t-74.5 -26.5t-73.5 28t-27.5 75
v45q0 74 34 113t97 39h23l44 -42l43 42h24q53 0 80 -31.5t27 -92.5v-30q0 -33 -9 -56.5t-25 -52.5q-12 -20 -18 -35t-6 -31v-12q34 -10 71 -34.5t68 -55.5v423h114v-550h-106q-37 51 -82.5 89t-86.5 49v-114q-15 -15 -43.5 -24.5t-63.5 -9.5q-59 0 -94.5 32zM162.5 325
q11.5 11 11.5 30q0 18 -11.5 29.5t-30.5 11.5t-30 -11.5t-11 -29.5q0 -19 11 -30t30 -11t30.5 11zM233 63v104h-8q-29 0 -45.5 -15.5t-16.5 -43.5q0 -24 12 -37t33 -13q17 0 25 5z" />
    <glyph glyph-name="uni0E07" unicode="&#xe07;" horiz-adv-x="529" 
d="M428 528.5q33 -31.5 33 -82.5v-323q0 -58 -31 -90.5t-87 -32.5h-66q-26 0 -46.5 12.5t-33.5 34.5l-177 319h122l149 -269h31q25 0 25 34v204q-4 -1 -12 -1q-51 0 -82 30.5t-31 81.5t33 82.5t87 31.5q53 0 86 -31.5zM375.5 412.5q12.5 12.5 12.5 33.5t-12.5 33.5
t-33.5 12.5q-22 0 -34.5 -12.5t-12.5 -33.5t12.5 -33.5t34.5 -12.5q21 0 33.5 12.5z" />
    <glyph glyph-name="uni0E08" unicode="&#xe08;" horiz-adv-x="598" 
d="M480.5 509.5q49.5 -48.5 49.5 -127.5v-235q0 -70 -38.5 -108.5t-108.5 -38.5h-97q-37 0 -60 21.5t-23 57.5v60h-10q-49 0 -79 29t-30 77q0 49 31.5 79t84.5 30q52 0 83 -30t31 -79v-150h58q23 0 34 14.5t11 47.5v226q0 34 -18 54.5t-48 20.5h-125q-38 0 -61.5 -22
t-23.5 -57h-113q0 80 54.5 129.5t143.5 49.5h125q80 0 129.5 -48.5zM166.5 212.5q12.5 -12.5 33.5 -12.5q20 0 33 12.5t13 32.5q0 21 -12.5 33.5t-33.5 12.5t-33.5 -12.5t-12.5 -33.5q0 -20 12.5 -32.5z" />
    <glyph glyph-name="uni0E09" unicode="&#xe09;" horiz-adv-x="630" 
d="M572 167q18 -27 18 -63q0 -51 -32.5 -82.5t-85.5 -31.5q-45 0 -75 23t-39 62l-109 -75h-102v129h-5q-49 0 -78.5 29t-29.5 77q0 49 31 79t81 30t80.5 -30t30.5 -79v-135l185 124v159q0 34 -17.5 54.5t-46.5 20.5h-135q-38 0 -61 -21.5t-23 -56.5h-114q0 80 54.5 129
t143.5 49h135q80 0 129 -48.5t49 -127.5v-152l-33 -24q31 -12 49 -39zM113.5 202.5q12.5 -12.5 32.5 -12.5q21 0 33.5 12.5t12.5 32.5q0 21 -12.5 33.5t-32.5 12.5q-21 0 -33.5 -12.5t-12.5 -33.5q0 -20 12.5 -32.5zM504.5 70.5q12.5 12.5 12.5 33.5t-12.5 34t-32.5 13
q-21 0 -33.5 -13t-12.5 -34t12.5 -33.5t33.5 -12.5q20 0 32.5 12.5z" />
    <glyph glyph-name="uni0E0A" unicode="&#xe0a;" horiz-adv-x="598" 
d="M530.5 460q-24.5 -43 -69.5 -67q31 -13 49.5 -37t18.5 -53v-158q0 -68 -38 -106.5t-106 -38.5h-109q-37 0 -59 21.5t-22 57.5v137q0 16 8 29t24 31q23 27 35.5 51t12.5 60v25q0 35 -19.5 55.5t-52.5 20.5h-18q-47 0 -66 -26l1 -1q14 4 26 4q40 0 64.5 -25t24.5 -66
q0 -45 -29 -72.5t-77 -27.5q-46 0 -75 29.5t-29 76.5v30q0 70 42.5 109t117.5 39h33q64 0 103.5 -36t43.5 -96q39 7 61.5 42.5t34.5 107.5l3 18h103l-3 -18q-9 -73 -33.5 -116zM97.5 405q-11.5 -11 -11.5 -30t12 -31t31 -12q20 0 31.5 12t11.5 31t-11.5 30t-31.5 11
t-31.5 -11zM420 305q0 50 -56 58q-3 -28 -11.5 -47.5t-24.5 -45.5q-10 -16 -15 -26.5t-5 -22.5v-127h69q43 0 43 55v156z" />
    <glyph glyph-name="uni0E0B" unicode="&#xe0b;" horiz-adv-x="610" 
d="M543.5 460.5q-24.5 -42.5 -70.5 -67.5q31 -13 49.5 -37t18.5 -53v-158q0 -68 -38 -106.5t-106 -38.5h-109q-37 0 -59 21.5t-22 57.5v135q0 17 8.5 33t28.5 44q24 32 37 57.5t13 55.5v29q0 52 -22 52h-6l-50 -45l-52 47h-8q-38 0 -44 -44v-2q16 4 25 4q41 0 65.5 -24.5
t24.5 -65.5q0 -44 -28.5 -70.5t-74.5 -26.5t-73.5 28t-27.5 75v45q0 74 33 113t95 39h23l44 -42l41 42h23q49 0 73 -30.5t24 -93.5v-8q39 9 61 44t33 106l3 18h103l-2 -18q-9 -73 -33.5 -115.5zM94 384.5q-11 -11.5 -11 -29.5q0 -19 11 -30t30 -11t30.5 11t11.5 30
q0 18 -11.5 29.5t-30.5 11.5t-30 -11.5zM432 305q0 50 -57 58q-4 -22 -11.5 -39t-19.5 -38t-18 -35.5t-6 -32.5v-124h70q42 0 42 55v156z" />
    <glyph glyph-name="uni0E0C" unicode="&#xe0c;" horiz-adv-x="922" 
d="M854 550v-550h-106q-34 47 -79.5 84t-86.5 51v-115q-16 -14 -41 -22t-55 -8q-55 0 -86.5 33t-31.5 89q0 44 22.5 77t61.5 46v145q0 35 -23 56.5t-61 21.5h-110q-31 0 -59 -23t-44 -61q33 -17 51.5 -49t18.5 -69v-49q3 1 10 1q48 0 77 -29t29 -78q0 -50 -31.5 -80.5
t-83.5 -30.5q-53 0 -84.5 30.5t-31.5 80.5v155q0 33 -20.5 55.5t-57.5 28.5q10 62 42 111.5t80 78t104 28.5h125q82 0 132 -47.5t50 -125.5v-150q45 -13 92.5 -40t81.5 -60v415h115zM508 171h-9q-26 0 -41 -16.5t-15 -43.5q0 -52 42 -52q16 0 23 5v107zM192.5 133.5
q-12.5 -12.5 -12.5 -32.5q0 -21 12.5 -33.5t33.5 -12.5q20 0 33 12.5t13 33.5q0 20 -13 32.5t-33 12.5q-21 0 -33.5 -12.5z" />
    <glyph glyph-name="uni0E0D" unicode="&#xe0d;" horiz-adv-x="926" 
d="M858 550v-400q0 -70 -38.5 -110t-108.5 -40h-195q-37 0 -59 21.5t-22 57.5v301q0 35 -21.5 56.5t-56.5 21.5h-99q-31 0 -59 -23t-44 -61q33 -17 51.5 -49t18.5 -69v-49q3 1 10 1q48 0 77.5 -29t29.5 -78q0 -50 -32 -80.5t-84 -30.5q-53 0 -84.5 30.5t-31.5 80.5v155
q0 33 -20.5 55.5t-57.5 28.5q10 62 42 111.5t80 78t104 28.5h115q79 0 127 -47.5t48 -125.5v-285h147q49 0 49 54v396h114zM192.5 133.5q-12.5 -12.5 -12.5 -32.5q0 -21 12.5 -33.5t33.5 -12.5q20 0 33 12.5t13 33.5q0 20 -13 32.5t-33 12.5q-21 0 -33.5 -12.5zM711 -144.5
q31 31.5 42 89.5h105q-13 -98 -78 -152.5t-168 -54.5q-90 0 -141.5 33.5t-51.5 91.5q0 45 29 72t78 27q47 0 76 -26.5t29 -70.5q0 -23 -9 -41h11q47 0 78 31.5zM557 -167.5q12 11.5 12 30.5t-11.5 31t-31.5 12q-19 0 -31 -12t-12 -31t12 -30.5t31 -11.5t31 11.5z" />
    <glyph glyph-name="uni0E0E" unicode="&#xe0e;" horiz-adv-x="640" 
d="M524 510.5q48 -47.5 48 -125.5v-463q0 -71 -36 -116.5t-104 -60.5l-118 74q-8 -34 -36 -55t-66 -21q-50 0 -80 28.5t-30 75.5t30.5 76t79.5 29q23 0 44.5 -8.5t51.5 -26.5l112 -68q38 15 38 73v458q0 35 -21.5 56.5t-56.5 21.5h-93q-32 0 -59.5 -23t-43.5 -61
q39 -19 60 -48t21 -64v-162q0 -50 -32 -80t-85 -30q-52 0 -83.5 30.5t-31.5 79.5q0 48 29.5 77.5t78.5 29.5q7 0 10 -1v56q0 30 -23.5 50t-66.5 28q10 62 42 111.5t79.5 78t103.5 28.5h111q79 0 127 -47.5zM181.5 67q12.5 13 12.5 33t-12.5 33t-33.5 13q-20 0 -33 -13
t-13 -33t13 -33t33 -13q21 0 33.5 13zM244.5 -185.5q12.5 12.5 12.5 32.5t-12.5 32.5t-32.5 12.5t-33 -12.5t-13 -32.5t13 -32.5t33 -12.5t32.5 12.5z" />
    <glyph glyph-name="uni0E0F" unicode="&#xe0f;" horiz-adv-x="640" 
d="M524 510.5q48 -47.5 48 -125.5v-473q0 -68 -35 -111.5t-98 -53.5l-73 69l-48 -69l-63 60q-11 -29 -36 -46.5t-57 -17.5q-47 0 -76 28t-29 74q0 47 28.5 75t75.5 28q27 0 48.5 -10t41.5 -29l64 -61l45 65l71 -64q16 9 21.5 26t5.5 53v452q0 35 -21.5 56.5t-56.5 21.5h-93
q-32 0 -59.5 -23t-43.5 -61q39 -19 60 -48t21 -64v-162q0 -50 -32 -80t-85 -30q-52 0 -83.5 30.5t-31.5 79.5q0 48 29.5 77.5t78.5 29.5q7 0 10 -1v56q0 30 -23.5 50t-66.5 28q10 62 42 111.5t79.5 78t103.5 28.5h111q79 0 127 -47.5zM181.5 67q12.5 13 12.5 33t-12.5 33
t-33.5 13q-20 0 -33 -13t-13 -33t13 -33t33 -13q21 0 33.5 13zM194.5 -187.5q12.5 12.5 12.5 32.5t-12.5 32.5t-33.5 12.5q-20 0 -32.5 -12.5t-12.5 -32.5t12.5 -32.5t33.5 -12.5q20 0 32.5 12.5z" />
    <glyph glyph-name="uni0E10" unicode="&#xe10;" horiz-adv-x="560" 
d="M374 290q-49 22 -138.5 41t-197.5 31q0 95 48 146.5t138 51.5q29 0 52 -5t53 -15q24 -8 42.5 -12.5t39.5 -4.5q31 0 58.5 9t44.5 25v-87q-15 -15 -42 -23.5t-56 -8.5q-23 0 -45 4.5t-51 13.5q-28 8 -48.5 12.5t-42.5 4.5q-71 0 -78 -47q93 -13 187.5 -39.5t146.5 -55.5
v-184q0 -70 -38.5 -108.5t-107.5 -38.5h-88q-36 0 -57.5 20.5t-21.5 55.5v26h-3q-48 0 -77.5 28t-29.5 74q0 47 30 76t79 29t78 -29t29 -76v-113h51q25 0 35 14t10 48v137zM138.5 172q12.5 -12 32.5 -12t32 12.5t12 31.5q0 20 -12 32t-32 12t-32.5 -12t-12.5 -32t12.5 -32z
M508.5 -27q21.5 -20 21.5 -54v-79q0 -49 -34 -81.5t-88 -37.5l-63 64l-48 -64l-58 60q-11 -28 -36.5 -46t-57.5 -18q-47 0 -76 28.5t-29 74.5t29 74t76 28q48 0 86 -40l65 -67l44 59l80 -78q15 3 24 14.5t9 26.5v9h-6q-34 0 -54.5 20t-20.5 53q0 34 22 54t57 20
q36 0 57.5 -20zM428.5 -103.5q8.5 -8.5 22.5 -8.5t22.5 8.5t8.5 22.5t-8.5 22.5t-22.5 8.5q-13 0 -22 -9t-9 -22q0 -14 8.5 -22.5zM177 -212.5q12 12.5 12 32.5t-12 32.5t-32 12.5t-32.5 -12.5t-12.5 -32.5t12.5 -32.5t32.5 -12.5t32 12.5z" />
    <glyph glyph-name="uni0E11" unicode="&#xe11;" horiz-adv-x="674" 
d="M183 148q0 31 11 58t32 60q5 8 23.5 37.5t28 58t9.5 57.5v14q0 23 -6 37.5t-17 14.5h-6l-47 -45l-51 47h-8q-39 0 -45 -45l1 -1q16 4 24 4q41 0 66 -24.5t25 -65.5q0 -43 -28.5 -70t-74.5 -27t-74 28t-28 74v46q0 74 33.5 113t95.5 39h22l43 -42l40 42h23
q47 0 67.5 -29.5t20.5 -71.5v-5q0 -12 -1 -22h2l22 33l65 95h16q68 0 103.5 -39.5t35.5 -114.5v-404h-115v406q0 22 -6.5 34t-17.5 12h-5l-85 -122q-48 -69 -63.5 -104t-15.5 -70v-156h-115v148zM150 324.5q11 11.5 11 30.5q0 18 -11 29.5t-30 11.5t-30.5 -11.5t-11.5 -29.5
q0 -19 11.5 -30.5t30.5 -11.5t30 11.5z" />
    <glyph glyph-name="uni0E12" unicode="&#xe12;" horiz-adv-x="938" 
d="M870 550v-550h-103q-34 48 -75 84t-78 50v-113q-34 -31 -94 -31q-52 0 -82.5 31.5t-30.5 86.5q0 42 21.5 75t57.5 43v151q0 37 -15 58.5t-40 21.5h-11l-87 -61l-87 61h-11q-27 0 -43.5 -22t-16.5 -60v-294h8q36 2 69 20t52 49h-3q-45 0 -72.5 27t-27.5 72q0 46 28.5 74
t76.5 28q47 0 76 -28.5t29 -74.5q0 -62 -29.5 -115t-84.5 -88.5t-128 -44.5h-101v377q0 85 43.5 133t122.5 48h22l77 -58l77 58h22q78 0 121.5 -47.5t43.5 -131.5v-146q43 -12 85 -38t74 -59v414h114zM274 217.5q12 -11.5 32 -11.5t32 12t12 31q0 20 -12 32t-32 12t-32 -12
t-12 -32t12 -31.5zM545 167h-10q-27 0 -41.5 -15.5t-14.5 -42.5q0 -54 41 -54q17 0 25 5v107z" />
    <glyph glyph-name="uni0E13" unicode="&#xe13;" horiz-adv-x="916" 
d="M877 162.5q15 -25.5 15 -58.5q0 -51 -32.5 -82.5t-85.5 -31.5t-85 31t-32 82q0 9 1 14q-66 -42 -127 -117h-98v380q0 35 -21.5 56.5t-56.5 21.5h-97q-31 0 -59 -23t-44 -61q33 -17 51.5 -49t18.5 -69v-49q3 1 10 1q48 0 77.5 -29t29.5 -78q0 -50 -32 -80.5t-84 -30.5
q-53 0 -84.5 30.5t-31.5 80.5v155q0 33 -20.5 55.5t-57.5 28.5q10 62 42 111.5t80 78t104 28.5h112q79 0 127 -47.5t48 -125.5v-258q36 35 83 61.5t92 35.5v326h115v-348q27 -14 42 -39.5zM806.5 70.5q12.5 12.5 12.5 33.5t-12.5 34t-33.5 13q-20 0 -33 -13t-13 -34
t13 -33.5t33 -12.5q21 0 33.5 12.5zM192.5 133.5q-12.5 -12.5 -12.5 -32.5q0 -21 12.5 -33.5t33.5 -12.5q20 0 33 12.5t13 33.5q0 20 -13 32.5t-33 12.5q-21 0 -33.5 -12.5z" />
    <glyph glyph-name="uni0E14" unicode="&#xe14;" horiz-adv-x="649" 
d="M485 533.5q46 -24.5 71 -68.5t25 -101v-364h-114v364q0 42 -23.5 68t-62.5 26h-110q-41 0 -66.5 -27t-25.5 -71v-276h9q41 0 75.5 17t55.5 47h-5q-45 0 -73 27.5t-28 73.5q0 47 30 76t79 29t79 -29.5t30 -77.5q0 -69 -33 -124t-92.5 -87.5t-136.5 -35.5h-101v360
q0 89 55.5 143.5t147.5 54.5h108q60 0 106 -24.5zM289.5 216.5q12.5 -12.5 32.5 -12.5t32.5 12.5t12.5 32.5t-12.5 32t-32.5 12t-32.5 -12t-12.5 -32t12.5 -32.5z" />
    <glyph glyph-name="uni0E15" unicode="&#xe15;" horiz-adv-x="653" 
d="M541.5 510.5q43.5 -47.5 43.5 -131.5v-379h-114v377q0 38 -14 59t-39 21h-10l-82 -61l-81 61h-10q-26 0 -41 -21.5t-15 -60.5v-291h9q41 0 75.5 16.5t55.5 45.5h-5q-45 0 -73 28t-28 73q0 47 30 76t79 29t79 -29.5t30 -77.5q0 -68 -33 -123t-92.5 -87t-136.5 -35h-101
v377q0 85 43 133t120 48h24l71 -58l72 58h24q76 0 119.5 -47.5zM290 214.5q12 -12.5 32 -12.5t32.5 12.5t12.5 32.5t-12.5 32t-32.5 12t-32 -12t-12 -32t12 -32.5z" />
    <glyph glyph-name="uni0E16" unicode="&#xe16;" horiz-adv-x="625" 
d="M508.5 510.5q48.5 -47.5 48.5 -125.5v-385h-115v380q0 35 -21 56.5t-56 21.5h-107q-31 0 -59 -23t-44 -61q33 -17 51.5 -49t18.5 -69v-49q3 1 10 1q48 0 77.5 -29t29.5 -78q0 -50 -32 -80.5t-84 -30.5q-53 0 -84.5 30.5t-31.5 80.5v155q0 33 -20.5 55.5t-57.5 28.5
q10 62 42 111.5t80 78t104 28.5h123q79 0 127.5 -47.5zM192.5 133.5q-12.5 -12.5 -12.5 -32.5q0 -21 12.5 -33.5t33.5 -12.5q20 0 33 12.5t13 33.5q0 20 -13 32.5t-33 12.5q-21 0 -33.5 -12.5z" />
    <glyph glyph-name="uni0E17" unicode="&#xe17;" horiz-adv-x="670" 
d="M562.5 518q39.5 -40 39.5 -116v-402h-115v405q0 48 -28 48h-4l-167 -453h-139v334h-11q-52 0 -83.5 30.5t-31.5 81.5t33 82.5t87 31.5q53 0 85.5 -31.5t32.5 -82.5v-286h1l144 398h42q75 0 114.5 -40zM108.5 412.5q12.5 -12.5 33.5 -12.5q22 0 34.5 12.5t12.5 33.5
t-12.5 33.5t-34.5 12.5q-21 0 -33.5 -12.5t-12.5 -33.5t12.5 -33.5z" />
    <glyph glyph-name="uni0E18" unicode="&#xe18;" horiz-adv-x="582" 
d="M115.5 21.5q-22.5 21.5 -22.5 57.5v176h112v-159h151q49 0 49 53v109q-37 18 -134.5 37.5t-226.5 35.5q0 112 49.5 170.5t144.5 58.5q27 0 50 -5t52 -15q30 -9 47.5 -13.5t38.5 -4.5q31 0 57.5 9t44.5 26v-92q-13 -16 -39.5 -25.5t-59.5 -9.5q-24 0 -44 4.5t-56 14.5
q-31 9 -50 13.5t-40 4.5q-69 0 -80 -69q116 -16 213 -41t147 -53v-157q0 -71 -39 -109t-111 -38h-194q-37 0 -59.5 21.5z" />
    <glyph glyph-name="uni0E19" unicode="&#xe19;" horiz-adv-x="654" 
d="M615 162.5q15 -25.5 15 -58.5q0 -51 -32.5 -82.5t-85.5 -31.5t-85 31t-32 82q0 11 1 17q-41 -22 -79.5 -53.5t-67.5 -66.5h-101v335q-4 -1 -12 -1q-51 0 -82 30.5t-31 81.5t33 82.5t87 31.5t87 -31.5t33 -82.5v-319q39 36 92 64t103 38v321h115v-348q27 -14 42 -39.5z
M177 412.5q13 12.5 13 33.5t-13 33.5t-34 12.5t-34 -12.5t-13 -33.5t13 -33.5t34 -12.5t34 12.5zM545 70.5q13 12.5 13 33.5t-13 34t-33 13q-21 0 -33.5 -13t-12.5 -34t12.5 -33.5t33.5 -12.5q20 0 33 12.5z" />
    <glyph glyph-name="uni0E1A" unicode="&#xe1a;" horiz-adv-x="666" 
d="M598 550v-400q0 -70 -38.5 -110t-109.5 -40h-221q-37 0 -59 21.5t-22 57.5v255h-10q-52 0 -83.5 30.5t-31.5 81.5t33 82.5t87 31.5t87 -31.5t33 -82.5v-346h171q49 0 49 54v396h115zM109 412.5q13 -12.5 34 -12.5t34 12.5t13 33.5t-13 33.5t-34 12.5t-34 -12.5t-13 -33.5
t13 -33.5z" />
    <glyph glyph-name="uni0E1B" unicode="&#xe1b;" horiz-adv-x="668" 
d="M600 762v-612q0 -70 -38.5 -110t-109.5 -40h-223q-37 0 -59 21.5t-22 57.5v255h-10q-52 0 -83.5 30.5t-31.5 81.5t33 82.5t87 31.5t87 -31.5t33 -82.5v-346h173q49 0 49 54v608h115zM109 412.5q13 -12.5 34 -12.5t34 12.5t13 33.5t-13 33.5t-34 12.5t-34 -12.5t-13 -33.5
t13 -33.5z" />
    <glyph glyph-name="uni0E1C" unicode="&#xe1c;" horiz-adv-x="640" 
d="M572 550v-473q0 -35 -21.5 -56t-56.5 -21h-45l-128 196l-132 -196h-43q-35 0 -56.5 21t-21.5 56v372q0 50 32 80.5t85 30.5q52 0 84 -31t32 -81q0 -48 -30.5 -78t-79.5 -30h-12v-216l120 174h19q15 0 25 -6t19 -20l98 -148v426h112zM150.5 482.5q-12.5 -12.5 -12.5 -34.5
q0 -20 12.5 -33t33.5 -13q22 0 34.5 13t12.5 33q0 22 -12.5 34.5t-34.5 12.5q-21 0 -33.5 -12.5z" />
    <glyph glyph-name="uni0E1D" unicode="&#xe1d;" horiz-adv-x="642" 
d="M574 762v-685q0 -35 -21.5 -56t-56.5 -21h-45l-129 196l-133 -196h-43q-35 0 -56.5 21t-21.5 56v372q0 50 32 80.5t85 30.5q52 0 84 -31t32 -81q0 -48 -30.5 -78t-79.5 -30h-12v-216l121 174h19q15 0 25 -6t19 -20l99 -148v638h112zM150.5 482.5q-12.5 -12.5 -12.5 -34.5
q0 -20 12.5 -33t33.5 -13q22 0 34.5 13t12.5 33q0 22 -12.5 34.5t-34.5 12.5q-21 0 -33.5 -12.5z" />
    <glyph glyph-name="uni0E1E" unicode="&#xe1e;" horiz-adv-x="722" 
d="M654 550v-466q0 -38 -23 -61t-62 -23h-56l-110 353l-111 -353h-53q-40 0 -63.5 23t-23.5 61v251q-5 -1 -16 -1q-51 0 -82 30.5t-31 81.5t33 82.5t86 31.5q52 0 84 -31.5t32 -82.5v-313h2l117 365h26q13 0 23 -9.5t15 -24.5l105 -331h1v417h107zM107.5 412.5
q12.5 -12.5 34.5 -12.5q21 0 33.5 12.5t12.5 33.5t-12.5 33.5t-33.5 12.5q-22 0 -34.5 -12.5t-12.5 -33.5t12.5 -33.5z" />
    <glyph glyph-name="uni0E1F" unicode="&#xe1f;" horiz-adv-x="724" 
d="M656 762v-678q0 -38 -23 -61t-62 -23h-56l-111 353l-112 -353h-53q-40 0 -63.5 23t-23.5 61v251q-5 -1 -16 -1q-51 0 -82 30.5t-31 81.5t33 82.5t86 31.5q52 0 84 -31.5t32 -82.5v-313h2l118 365h26q13 0 23 -9.5t15 -24.5l106 -331h1v629h107zM107.5 412.5
q12.5 -12.5 34.5 -12.5q21 0 33.5 12.5t12.5 33.5t-12.5 33.5t-33.5 12.5q-22 0 -34.5 -12.5t-12.5 -33.5t12.5 -33.5z" />
    <glyph glyph-name="uni0E20" unicode="&#xe20;" horiz-adv-x="639" 
d="M522.5 510.5q48.5 -47.5 48.5 -125.5v-385h-115v380q0 35 -21 56.5t-56 21.5h-92q-32 0 -59.5 -23t-43.5 -61q39 -19 60 -48t21 -64v-162q0 -50 -32 -80t-85 -30q-52 0 -83.5 30.5t-31.5 79.5q0 48 29.5 77.5t78.5 29.5q7 0 10 -1v56q0 30 -23.5 50t-66.5 28
q10 62 42 111.5t79.5 78t103.5 28.5h109q79 0 127.5 -47.5zM181.5 67q12.5 13 12.5 33t-12.5 33t-33.5 13q-20 0 -33 -13t-13 -33t13 -33t33 -13q21 0 33.5 13z" />
    <glyph glyph-name="uni0E21" unicode="&#xe21;" horiz-adv-x="638" 
d="M570 550v-550h-104q-33 47 -85.5 85.5t-104.5 53.5v-119q-17 -14 -47 -22t-65 -8q-55 0 -89 33.5t-34 88.5t34 91t89 40v91h-12q-51 0 -82.5 30.5t-31.5 81.5t33 82.5t87 31.5q53 0 86 -31.5t33 -82.5v-211q47 -13 96.5 -40t82.5 -59v414h114zM123.5 412.5
q12.5 -12.5 34.5 -12.5q21 0 33.5 12.5t12.5 33.5t-12.5 33.5t-33.5 12.5q-22 0 -34.5 -12.5t-12.5 -33.5t12.5 -33.5zM187 171h-9q-27 0 -43.5 -16t-16.5 -43q0 -25 11.5 -38t32.5 -13q18 0 25 5v105z" />
    <glyph glyph-name="uni0E22" unicode="&#xe22;" horiz-adv-x="614" 
d="M546 550v-400q0 -70 -38.5 -110t-109.5 -40h-251q-37 0 -59 21.5t-22 57.5v57q0 38 18 69t50 48v1q-38 18 -58 51.5t-20 80.5q0 79 41.5 126.5t109.5 47.5q52 0 84 -29.5t32 -78.5q0 -47 -29 -75.5t-76 -28.5q-36 0 -58 19v-1q0 -39 25.5 -57t77.5 -18h46v-83h-46
q-82 0 -82 -70v-39h201q49 0 49 54v397h115zM173 486.5q-13 -12.5 -13 -34.5q0 -20 12.5 -33t33.5 -13q22 0 34.5 13t12.5 33q0 22 -12.5 34.5t-33.5 12.5t-34 -12.5z" />
    <glyph glyph-name="uni0E23" unicode="&#xe23;" horiz-adv-x="520" 
d="M166 445.5q-20 -17.5 -23 -51.5q188 -31 292 -90v-200q0 -51 -33 -82.5t-87 -31.5t-86.5 31.5t-32.5 82.5t31.5 81t83.5 30h9v47q-95 42 -292 70q0 111 49 169.5t143 58.5q27 0 47.5 -5t50.5 -16q24 -9 41 -13t36 -4q60 0 97 35v-96q-34 -32 -93 -32q-22 0 -40.5 4
t-49.5 13q-27 8 -47 12.5t-41 4.5q-35 0 -55 -17.5zM349.5 70.5q12.5 12.5 12.5 33.5t-12.5 33.5t-34.5 12.5q-21 0 -33.5 -12.5t-12.5 -33.5t12.5 -33.5t33.5 -12.5q22 0 34.5 12.5z" />
    <glyph glyph-name="uni0E24" unicode="&#xe24;" horiz-adv-x="627" 
d="M510.5 510.5q48.5 -47.5 48.5 -125.5v-585h-115v580q0 35 -21 56.5t-56 21.5h-108q-31 0 -59.5 -23t-44.5 -61q33 -17 51.5 -49t18.5 -69v-49q3 1 10 1q48 0 77.5 -29t29.5 -78q0 -50 -32 -80.5t-84 -30.5q-53 0 -84.5 30.5t-31.5 80.5v155q0 33 -20.5 55.5t-57.5 28.5
q10 62 42 111.5t80 78t104 28.5h125q79 0 127.5 -47.5zM192.5 133.5q-12.5 -12.5 -12.5 -32.5q0 -21 12.5 -33.5t33.5 -12.5q20 0 33 12.5t13 33.5q0 20 -13 32.5t-33 12.5q-21 0 -33.5 -12.5z" />
    <glyph glyph-name="uni0E25" unicode="&#xe25;" horiz-adv-x="602" 
d="M485 509.5q49 -48.5 49 -127.5v-382h-114v68q-4 85 -46.5 134.5t-109.5 49.5q-34 0 -56 -13t-28 -37h10q48 0 77 -28t29 -75q0 -49 -31.5 -79t-83.5 -30t-83.5 30t-31.5 79v75q0 82 51.5 128t142.5 46q52 0 94 -19.5t67 -55.5v110q0 34 -18 54.5t-48 20.5h-111
q-38 0 -61.5 -20.5t-23.5 -53.5h-113q0 78 54.5 126t143.5 48h111q81 0 130 -48.5zM213.5 131.5q-12.5 12.5 -33.5 12.5t-33.5 -12.5t-12.5 -33.5q0 -20 12.5 -32.5t33.5 -12.5t33.5 12.5t12.5 32.5q0 21 -12.5 33.5z" />
    <glyph glyph-name="uni0E26" unicode="&#xe26;" horiz-adv-x="640" 
d="M524 510.5q48 -47.5 48 -125.5v-585h-114v580q0 35 -21.5 56.5t-56.5 21.5h-93q-32 0 -59.5 -23t-43.5 -61q39 -19 60 -48t21 -64v-162q0 -50 -32 -80t-85 -30q-52 0 -83.5 30.5t-31.5 79.5q0 48 29.5 77.5t78.5 29.5q7 0 10 -1v56q0 30 -23.5 50t-66.5 28
q10 62 42 111.5t79.5 78t103.5 28.5h111q79 0 127 -47.5zM181.5 67q12.5 13 12.5 33t-12.5 33t-33.5 13q-20 0 -33 -13t-13 -33t13 -33t33 -13q21 0 33.5 13z" />
    <glyph glyph-name="uni0E27" unicode="&#xe27;" horiz-adv-x="550" 
d="M432.5 510q49.5 -48 49.5 -127v-279q0 -51 -33 -82.5t-87 -31.5t-87 31.5t-33 82.5t32 81t83 30h10v168q0 34 -18 54.5t-47 20.5h-89q-34 0 -54.5 -27t-20.5 -71h-114q0 89 52 143.5t137 54.5h89q81 0 130.5 -48zM396 70.5q13 12.5 13 33.5t-13 33.5t-34 12.5t-34 -12.5
t-13 -33.5t13 -33.5t34 -12.5t34 12.5z" />
    <glyph glyph-name="uni0E28" unicode="&#xe28;" horiz-adv-x="648" 
d="M561.5 540.5q-17.5 -23.5 -46.5 -37.5q64 -47 64 -139v-364h-114v364q0 42 -23.5 68t-62.5 26h-110q-42 0 -68 -26t-26 -68v-202h2l44 106q17 41 42 60t60 19q49 0 78.5 -28.5t29.5 -75.5q0 -46 -29 -74.5t-76 -28.5q-20 0 -37 7.5t-29 19.5l-78 -167h-114v364
q0 57 25 101t71 68.5t105 24.5h110q45 0 64 9t29 35l4 9h114l-3 -11q-8 -36 -25.5 -59.5zM292.5 275.5q-12.5 -12.5 -12.5 -32.5t12.5 -32t32.5 -12t32.5 12t12.5 32t-12.5 32.5t-32.5 12.5t-32.5 -12.5z" />
    <glyph glyph-name="uni0E29" unicode="&#xe29;" horiz-adv-x="719" 
d="M718 373l-2 -15q-9 -60 -36.5 -98.5t-70.5 -52.5v-57q0 -68 -40 -109t-108 -41h-232q-37 0 -59 21.5t-22 57.5v255h-10q-52 0 -83.5 30.5t-31.5 81.5t33 82.5t87 31.5t86.5 -31.5t32.5 -82.5v-346h190q23 0 35 14.5t12 40.5v43h-113q-44 0 -71 26.5t-27 70.5t26.5 70
t70.5 26q42 0 68 -25.5t26 -66.5q0 -6 -2 -18h22v270h110v-256q23 19 31 63l3 15h75zM109 412.5q13 -12.5 34 -12.5t34 12.5t13 33.5t-13 33.5t-34 12.5t-34 -12.5t-13 -33.5t13 -33.5zM414 265.5q11 11.5 11 29.5t-11 29.5t-29 11.5t-29.5 -11.5t-11.5 -29.5t11.5 -29.5
t29.5 -11.5t29 11.5z" />
    <glyph glyph-name="uni0E2A" unicode="&#xe2a;" horiz-adv-x="602" 
d="M528 539.5q-19 -24.5 -49 -39.5q26 -19 40.5 -48.5t14.5 -65.5v-386h-114v68q-4 85 -46.5 134.5t-109.5 49.5q-34 0 -56 -13t-28 -37h10q48 0 77 -28t29 -75q0 -49 -31.5 -79t-83.5 -30t-83.5 30t-31.5 79v75q0 82 51.5 128t142.5 46q52 0 94 -19.5t67 -55.5v110
q0 34 -18 54.5t-48 20.5h-111q-38 0 -61.5 -20.5t-23.5 -53.5h-113q0 78 54.5 126t143.5 48h117q35 0 52.5 10t27.5 34l3 9h115l-3 -11q-9 -36 -28 -60.5zM213.5 131.5q-12.5 12.5 -33.5 12.5t-33.5 -12.5t-12.5 -33.5q0 -20 12.5 -32.5t33.5 -12.5t33.5 12.5t12.5 32.5
q0 21 -12.5 33.5z" />
    <glyph glyph-name="uni0E2B" unicode="&#xe2b;" horiz-adv-x="660" 
d="M591 282v-282h-115v274q0 11 -3 16t-10 5l-206 -295h-109v335q-4 -1 -12 -1q-51 0 -82 30.5t-31 81.5t33 82.5t87 31.5t87 -31.5t33 -82.5v-294l151 216q-17 14 -26.5 35.5t-9.5 45.5q0 50 32 80.5t84 30.5q53 0 85.5 -30.5t32.5 -80.5q0 -29 -13.5 -53.5t-37.5 -39.5
q30 -27 30 -74zM528.5 414.5q12.5 12.5 12.5 34.5q0 21 -12.5 33.5t-34.5 12.5q-21 0 -33.5 -12.5t-12.5 -33.5q0 -22 12.5 -34.5t33.5 -12.5q22 0 34.5 12.5zM177 412.5q13 12.5 13 33.5t-13 33.5t-34 12.5t-34 -12.5t-13 -33.5t13 -33.5t34 -12.5t34 12.5z" />
    <glyph glyph-name="uni0E2C" unicode="&#xe2c;" horiz-adv-x="725" 
d="M749 750l-3 -17q-8 -48 -31.5 -86t-58.5 -61v-502q0 -38 -23 -61t-62 -23h-56l-111 353l-112 -353h-53q-40 0 -63.5 23t-23.5 61v251q-5 -1 -16 -1q-51 0 -82 30.5t-31 81.5t33 82.5t86 31.5q52 0 84 -31.5t32 -82.5v-313h2l118 365h26q13 0 23 -9.5t15 -24.5l106 -331h1
v424q-54 2 -86.5 31t-32.5 76q0 49 31 78.5t81 29.5q45 0 73.5 -26t32.5 -70q17 23 24 57l3 17h74zM510 633q12 -12 32 -12t32 12t12 31q0 20 -12 32t-32 12q-19 0 -31.5 -12t-12.5 -32q0 -19 12 -31zM107.5 412.5q12.5 -12.5 34.5 -12.5q21 0 33.5 12.5t12.5 33.5
t-12.5 33.5t-33.5 12.5q-22 0 -34.5 -12.5t-12.5 -33.5t12.5 -33.5z" />
    <glyph glyph-name="uni0E2D" unicode="&#xe2d;" horiz-adv-x="611" 
d="M494 509.5q49 -48.5 49 -127.5v-232q0 -70 -38.5 -110t-108.5 -40h-237q-37 0 -59 21.5t-22 57.5v169q0 49 31.5 78.5t83.5 29.5t83.5 -29.5t31.5 -78.5q0 -46 -29.5 -74t-78.5 -28q-8 0 -12 1v-52h192q50 0 50 56v232q0 34 -18 54.5t-47 20.5h-129q-38 0 -61.5 -20.5
t-23.5 -53.5h-113q0 79 53 126.5t145 47.5h129q80 0 129 -48.5zM160 280.5q-13 -12.5 -13 -32.5t13 -32.5t33 -12.5t32.5 12.5t12.5 32.5t-12.5 32.5t-32.5 12.5t-33 -12.5z" />
    <glyph glyph-name="uni0E2E" unicode="&#xe2e;" horiz-adv-x="611" 
d="M531.5 460q11.5 -32 11.5 -70v-240q0 -70 -38.5 -110t-109.5 -40h-235q-37 0 -59.5 21.5t-22.5 57.5v151q0 48 31.5 77.5t82.5 29.5t82.5 -29.5t31.5 -77.5q0 -46 -29 -73.5t-77 -27.5q-7 0 -11 1v-37h193q50 0 50 57v222q0 20 -2 27h-2q-47 -58 -129 -58h-112
q-65 0 -102 28t-37 79q0 52 38.5 81t106.5 29h190q15 0 22 -1q4 24 5 29l2 20h99l-2 -24q-6 -45 -10 -68q21 -22 32.5 -54zM398 484q-12 4 -25 4h-175q-25 0 -38.5 -10t-13.5 -28t12.5 -28t34.5 -10h106q86 0 99 72zM159.5 262.5q-12.5 -12.5 -12.5 -32.5t12.5 -32.5
t32.5 -12.5t32.5 12.5t12.5 32.5t-12.5 32.5t-32.5 12.5t-32.5 -12.5z" />
    <glyph glyph-name="uni0E2F" unicode="&#xe2f;" horiz-adv-x="565" 
d="M497 550v-362q0 -95 -45.5 -141.5t-139.5 -46.5h-49v100h49q70 0 70 88v149q-22 -27 -62.5 -42.5t-88.5 -15.5q-96 0 -154.5 45t-58.5 118q0 53 33 85t86 32t85 -31t32 -82q0 -48 -35 -77q16 -2 26 -2q66 0 105.5 49.5t40.5 133.5h106zM102 480q-13 -13 -13 -34t13 -33.5
t34 -12.5t34 12.5t13 33.5t-13 34t-34 13t-34 -13z" />
    <glyph glyph-name="uni0E30" unicode="&#xe30;" horiz-adv-x="513" 
d="M93 335.5q-55 37.5 -55 104.5q0 49 31 78.5t83 29.5q51 0 82 -29.5t31 -78.5q0 -34 -20 -57h10q52 0 85 41.5t37 116.5h103q-3 -116 -65.5 -179.5t-170.5 -63.5q-96 0 -151 37.5zM120 472q-12 -12 -12 -32t12 -32.5t32 -12.5t32.5 12.5t12.5 32.5t-12.5 32t-32.5 12
t-32 -12zM340 130.5q33 41.5 37 116.5h103q-3 -116 -65.5 -179.5t-170.5 -63.5q-96 0 -151 37.5t-55 104.5q0 49 31 78.5t83 29.5q51 0 82 -29.5t31 -78.5q0 -34 -20 -57h10q52 0 85 41.5zM184.5 113.5q12.5 12.5 12.5 32.5t-12.5 32t-32.5 12t-32 -12t-12 -32t12 -32.5
t32 -12.5t32.5 12.5z" />
    <glyph glyph-name="uni0E31" unicode="&#xe31;" 
d="M-324 663q-57 36 -57 100q0 46 29.5 73.5t77.5 27.5t77 -27t29 -73q0 -34 -24 -53l1 -1q15 -3 33 -3q61 0 93.5 39t32.5 112h99q-2 -109 -63 -170t-170 -61q-101 0 -158 36zM-242 732q12 12 12 31t-12 31t-32 12t-31.5 -11.5t-11.5 -31.5q0 -19 11.5 -31t31.5 -12t32 12z
" />
    <glyph glyph-name="uni0E32" unicode="&#xe32;" horiz-adv-x="535" 
d="M352 383q0 34 -17.5 54.5t-46.5 20.5h-75q-34 0 -55 -27.5t-21 -71.5h-113q0 59 23.5 104t66.5 70t99 25h75q80 0 129.5 -48t49.5 -127v-383h-115v383z" />
    <glyph glyph-name="uni0E33" unicode="&#xe33;" horiz-adv-x="535" 
d="M-223.5 659.5q-33.5 32.5 -33.5 85.5t33.5 85.5t88.5 32.5t88.5 -32.5t33.5 -85.5t-33.5 -85.5t-88.5 -32.5t-88.5 32.5zM-98 708.5q14 13.5 14 36.5t-14 37t-37 14t-37 -14t-14 -37t14 -36.5t37 -13.5t37 13.5zM352 383q0 34 -17.5 54.5t-46.5 20.5h-75q-34 0 -55 -27.5
t-21 -71.5h-113q0 59 23.5 104t66.5 70t99 25h75q80 0 129.5 -48t49.5 -127v-383h-115v383z" />
    <glyph glyph-name="uni0E34" unicode="&#xe34;" 
d="M-279 662.5q-94 10.5 -226 10.5h-31q15 91 79 145t157 54q108 0 170 -67.5t62 -183.5q-117 31 -211 41.5zM-212 776.5q-35 23.5 -92 23.5q-42 0 -73 -16.5t-48 -47.5q68 2 136 -5t121 -21q-9 43 -44 66.5z" />
    <glyph glyph-name="uni0E35" unicode="&#xe35;" 
d="M-68 907v-286q-117 31 -211 41.5t-226 10.5h-31q14 91 76 145t153 54q42 0 77.5 -14t58.5 -39v88h103zM-289 731q68 -7 121 -21q-9 43 -44 66.5t-92 23.5q-42 0 -73 -16.5t-48 -47.5q68 2 136 -5z" />
    <glyph glyph-name="uni0E36" unicode="&#xe36;" 
d="M-45 770q-18 -24 -49 -31q28 -50 26 -118q-118 31 -210.5 41.5t-224.5 10.5h-31q14 91 76 145t154 54q52 0 84 -17q9 30 34 48t60 18q44 0 71.5 -26t27.5 -69q0 -32 -18 -56zM-96.5 797q11.5 11 11.5 29q0 19 -11.5 30t-29.5 11t-29.5 -11t-11.5 -30q0 -18 11.5 -29
t29.5 -11t29.5 11zM-289.5 731q67.5 -7 120.5 -21q-9 41 -45 65.5t-90 24.5q-42 0 -73 -16.5t-48 -47.5q68 2 135.5 -5z" />
    <glyph glyph-name="uni0E37" unicode="&#xe37;" 
d="M-68 907v-285q-118 30 -211.5 40.5t-225.5 10.5h-31q14 90 71.5 141t147.5 52q8 0 11 -1v42h91v-60q32 -14 52 -38v98h95zM-289 731q68 -7 121 -21q-9 43 -46 66.5t-93 23.5q-84 0 -118 -64q68 2 136 -5z" />
    <glyph glyph-name="uni0E38" unicode="&#xe38;" 
d="M-99.5 -89.5q31.5 -29.5 31.5 -78.5v-191h-112v85h-8q-50 0 -80.5 29t-30.5 77q0 49 32 78.5t84 29.5t83.5 -29.5zM-215.5 -200.5q12.5 -12.5 32.5 -12.5t32.5 12.5t12.5 32.5t-12.5 32.5t-32.5 12.5t-32.5 -12.5t-12.5 -32.5t12.5 -32.5z" />
    <glyph glyph-name="uni0E39" unicode="&#xe39;" 
d="M-68 -63v-212q0 -38 -23 -60.5t-63 -22.5h-155q-18 0 -28 9t-10 25v58h-9q-49 0 -78.5 27.5t-29.5 72.5q0 48 30 77t79 29q50 0 80 -29t30 -77v-114h60q7 0 11 4.5t4 12.5v200h102zM-387 -198q12 -12 32 -12t32.5 12t12.5 32t-12.5 32.5t-32.5 12.5t-32 -12.5t-12 -32.5
t12 -32z" />
    <glyph glyph-name="uni0E3A" unicode="&#xe3a;" 
d="M-178 -185q-20 20 -20 53q0 32 20 52t53 20q32 0 52 -19.5t20 -50.5q0 -34 -20 -54.5t-52 -20.5q-33 0 -53 20z" />
    <glyph glyph-name="uni0E3F" unicode="&#xe3f;" horiz-adv-x="681" 
d="M619.5 316q29.5 -38 29.5 -86v-50q0 -83 -57 -131.5t-154 -48.5h-44v-105h-115v105h-125q-38 0 -62 23.5t-24 60.5v616h211v105h115v-105h5q93 0 149.5 -44.5t56.5 -117.5v-51q0 -35 -17 -66t-47 -50v-1q49 -16 78.5 -54zM185 401h220q37 0 60 24t23 62v41q0 32 -25.5 51
t-67.5 19h-210v-197zM532 230q0 34 -24 54.5t-64 20.5h-259v-203h243q49 0 76.5 22t27.5 61v45z" />
    <glyph glyph-name="uni0E40" unicode="&#xe40;" horiz-adv-x="331" 
d="M275.5 186q31.5 -30 31.5 -80q0 -52 -32.5 -83.5t-86.5 -31.5t-87 31.5t-33 83.5v444h115v-334h10q51 0 82.5 -30zM221.5 71.5q12.5 12.5 12.5 34.5q0 20 -12.5 33t-33.5 13t-34 -12.5t-13 -33.5q0 -22 12.5 -34.5t34.5 -12.5q21 0 33.5 12.5z" />
    <glyph glyph-name="uni0E41" unicode="&#xe41;" horiz-adv-x="622" 
d="M275.5 186q31.5 -30 31.5 -80q0 -52 -32.5 -83.5t-86.5 -31.5t-87 31.5t-33 83.5v445h115v-335h10q51 0 82.5 -30zM567.5 186q31.5 -30 31.5 -80q0 -52 -33 -83.5t-87 -31.5t-87 31.5t-33 83.5v445h115v-335h10q52 0 83.5 -30zM221.5 71.5q12.5 12.5 12.5 34.5
q0 20 -12.5 33t-33.5 13t-34 -12.5t-13 -33.5q0 -22 12.5 -34.5t34.5 -12.5q21 0 33.5 12.5zM513 71.5q13 12.5 13 34.5q0 20 -13 33t-34 13t-34 -13t-13 -33q0 -22 13 -34.5t34 -12.5t34 12.5z" />
    <glyph glyph-name="uni0E42" unicode="&#xe42;" horiz-adv-x="416" 
d="M364 913q23 10 41 28v-97q-15 -16 -39 -26t-52 -10q-23 0 -42.5 5.5t-44.5 16.5q-25 10 -42.5 15t-36.5 5q-29 0 -46.5 -16.5t-18.5 -44.5q63 -22 113 -49.5t72 -53.5v-470h10q51 0 82.5 -30t31.5 -80q0 -52 -32.5 -83.5t-86.5 -31.5t-87 31.5t-33 83.5v542
q-30 23 -78 45.5t-106 38.5q0 104 46.5 159t132.5 55q27 0 48.5 -6t47.5 -18q23 -10 39 -14.5t33 -4.5q25 0 48 10zM306.5 139q-12.5 13 -33.5 13t-34 -12.5t-13 -33.5q0 -22 12.5 -34.5t34.5 -12.5q21 0 33.5 12.5t12.5 34.5q0 20 -12.5 33z" />
    <glyph glyph-name="uni0E43" unicode="&#xe43;" horiz-adv-x="432" 
d="M376.5 186q31.5 -30 31.5 -80q0 -52 -32.5 -83.5t-86.5 -31.5t-87 31.5t-33 83.5v440q0 23 10.5 42.5t32.5 45.5q27 35 41.5 62.5t14.5 67.5v25q0 37 -22.5 60.5t-58.5 23.5h-27q-55 0 -79 -38l1 -1q12 5 23 5q42 0 68.5 -27t26.5 -70q0 -47 -30.5 -76t-80.5 -29
t-80.5 31t-30.5 81v37q0 76 50 122.5t131 46.5h37q79 0 127 -46t48 -121v-25q0 -44 -13.5 -74.5t-38.5 -68.5q-18 -25 -26.5 -42.5t-8.5 -37.5v-324h10q51 0 82.5 -30zM58 771.5q-12 -11.5 -12 -30.5t12 -31t31 -12q20 0 31.5 12t11.5 31t-12 30.5t-31 11.5t-31 -11.5z
M322.5 71.5q12.5 12.5 12.5 34.5q0 20 -12.5 33t-33.5 13t-34 -12.5t-13 -33.5q0 -22 12.5 -34.5t34.5 -12.5q21 0 33.5 12.5z" />
    <glyph glyph-name="uni0E44" unicode="&#xe44;" horiz-adv-x="448" 
d="M393.5 186q31.5 -30 31.5 -80q0 -52 -33 -83.5t-87 -31.5t-87 31.5t-33 83.5v707l-91 -118h-22q-15 0 -25.5 7t-18.5 22l-125 217h102l75 -135l108 140h21q44 0 67.5 -22.5t23.5 -64.5v-643h10q52 0 83.5 -30zM339 71.5q13 12.5 13 34.5q0 20 -13 33t-34 13t-34 -13
t-13 -33q0 -22 13 -34.5t34 -12.5t34 12.5z" />
    <glyph glyph-name="uni0E45" unicode="&#xe45;" horiz-adv-x="535" 
d="M352 383q0 34 -17.5 54.5t-46.5 20.5h-75q-34 0 -55 -27.5t-21 -71.5h-113q0 59 23.5 104t66.5 70t99 25h75q80 0 129.5 -48t49.5 -127v-583h-115v583z" />
    <glyph glyph-name="uni0E46" unicode="&#xe46;" horiz-adv-x="568" 
d="M467.5 519q32.5 -39 32.5 -116v-463q0 -97 -42.5 -142.5t-133.5 -45.5h-48v100h48q32 0 47 21.5t15 66.5v467q0 56 -21 56h-10l-74 -74l-80 75h-10q-19 0 -33 -18t-19 -50q14 2 22 2q49 0 79.5 -30t30.5 -79q0 -50 -31.5 -80.5t-84.5 -30.5t-85 33.5t-32 88.5v35
q0 105 42.5 164t118.5 59h18l64 -66l63 66h27q64 0 96.5 -39zM188.5 323q-12.5 13 -34.5 13q-21 0 -34 -13t-13 -34t13 -34t34 -13q22 0 34.5 13t12.5 34t-12.5 34z" />
    <glyph glyph-name="uni0E47" unicode="&#xe47;" 
d="M-100 773q24 -23 24 -61t-27 -61.5t-71 -23.5q-47 0 -85 15t-62 42l-27 -52h-23q-62 0 -97.5 33.5t-35.5 92.5q0 65 43 98t126 33h109q28 0 42 14.5t14 52.5h91q0 -75 -34 -107t-104 -32h-118q-41 0 -60 -15t-19 -46q0 -24 10.5 -38.5t27.5 -14.5h4l36 71h40
q5 -29 15.5 -45t29.5 -23v8q0 37 24 59.5t63 22.5q40 0 64 -23zM-139 686.5q10 9.5 10 25.5t-10 25.5t-26 9.5t-25.5 -9.5t-9.5 -25.5t9.5 -25.5t25.5 -9.5t26 9.5z" />
    <glyph glyph-name="uni0E48" unicode="&#xe48;" 
d="M-182 842h114v-210h-114v210z" />
    <glyph glyph-name="uni0E49" unicode="&#xe49;" 
d="M14 871q-7 -119 -75.5 -181.5t-193.5 -62.5q-86 0 -133 10v50q85 2 110 28q-12 -2 -20 -2q-41 0 -65.5 23t-24.5 60q0 41 27 66t71 25t70.5 -25t26.5 -66q0 -24 -6.5 -49.5t-18.5 -43.5v-1q62 7 96.5 50t42.5 119h93zM-317 769q10 -10 27 -10q16 0 26.5 10.5t10.5 26.5
t-10 26t-27 10t-27 -9.5t-10 -26.5t10 -27z" />
    <glyph glyph-name="uni0E4A" unicode="&#xe4a;" 
d="M0 857q0 -117 -35 -171t-116 -54h-57l-17 36q28 40 28 88q0 26 -5 41t-13 15h-4l-55 -59l-60 62h-9q-40 0 -60 -23q3 1 9 1q38 0 62 -22t24 -59q0 -39 -25.5 -62.5t-66.5 -23.5t-66 27t-25 71q0 71 44 114t117 43h14l44 -51l45 51h14q43 0 68.5 -33t25.5 -88
q0 -16 -3.5 -32.5t-9.5 -27.5l1 -1q31 5 44 44t13 114h74zM-374 738.5q-10 9.5 -26 9.5q-17 0 -27 -10t-10 -26t10 -26t27 -10q16 0 26 10t10 26q0 17 -10 26.5z" />
    <glyph glyph-name="uni0E4B" unicode="&#xe4b;" 
d="M-175 717h-108v83h108v85h101v-85h108v-83h-108v-85h-101v85z" />
    <glyph glyph-name="uni0E4C" unicode="&#xe4c;" 
d="M-9 903q-5 -71 -41.5 -111t-95.5 -40h-24q4 -14 4 -24q0 -46 -30 -73.5t-79 -27.5q-50 0 -79.5 28.5t-29.5 75.5t30 76t79 29h111q25 0 40.5 17.5t20.5 49.5h94zM-243 699q12 12 12 32t-12 31.5t-32 11.5t-32 -11.5t-12 -31.5t12 -32t32 -12t32 12z" />
    <glyph glyph-name="uni0E4D" unicode="&#xe4d;" 
d="M-223.5 659.5q-33.5 32.5 -33.5 85.5t33.5 85.5t88.5 32.5t88.5 -32.5t33.5 -85.5t-33.5 -85.5t-88.5 -32.5t-88.5 32.5zM-98 708.5q14 13.5 14 36.5t-14 37t-37 14t-37 -14t-14 -37t14 -36.5t37 -13.5t37 13.5z" />
    <glyph glyph-name="uni0E4E" unicode="&#xe4e;" 
d="M-204 876q0 -19 20.5 -31t62.5 -17v-60q-50 12 -102 12q-33 0 -48.5 -10t-15.5 -31q0 -40 63 -40q48 0 82 17v-67q-14 -10 -40.5 -16t-57.5 -6q-66 0 -103.5 28t-37.5 78q0 43 27.5 68.5t80.5 32.5q-23 20 -23 51q0 47 37 72.5t107 25.5q58 0 101 -18v-69q-54 15 -93 15
q-60 0 -60 -35z" />
    <glyph glyph-name="uni0E4F" unicode="&#xe4f;" horiz-adv-x="657" 
d="M179.5 27.5q-64.5 35.5 -100 99.5t-35.5 148q0 85 35.5 150t100 100.5t149.5 35.5q84 0 148.5 -35.5t100 -100.5t35.5 -150q0 -84 -35.5 -148t-100 -99.5t-148.5 -35.5q-85 0 -149.5 35.5zM434 98q46 25 71 71t25 106q0 61 -25 107.5t-71 72t-105 25.5q-60 0 -106 -25.5
t-71 -72t-25 -107.5q0 -60 25 -106t71 -71t106 -25q59 0 105 25zM223.5 170.5q-39.5 39.5 -39.5 104.5t39.5 104.5t105.5 39.5t106 -39.5t40 -104.5t-40 -104.5t-106 -39.5t-105.5 39.5zM381 223.5q20 19.5 20 51.5t-20 51.5t-52 19.5q-31 0 -51 -19.5t-20 -51.5
q0 -31 20 -51t51 -20q32 0 52 19.5z" />
    <glyph glyph-name="uni0E50" unicode="&#xe50;" horiz-adv-x="649" 
d="M170 21.5q-58 29.5 -90 83.5t-32 125v40q0 70 32 124t90 83.5t134 29.5h40q76 0 134.5 -29.5t90.5 -83.5t32 -124v-40q0 -71 -32 -125t-90.5 -83.5t-134.5 -29.5h-40q-76 0 -134 29.5zM343 91q64 0 103.5 38.5t39.5 100.5v40q0 62 -39 100t-104 38h-38q-64 0 -103 -38
t-39 -100v-40q0 -62 39 -100.5t103 -38.5h38z" />
    <glyph glyph-name="uni0E51" unicode="&#xe51;" horiz-adv-x="645" 
d="M274 35h45q77 0 120.5 49.5t43.5 135.5v46q0 69 -39 105.5t-105 36.5h-38q-68 0 -109 -31t-41 -92v-27q0 -35 15.5 -55.5t44.5 -23.5l1 1q-12 15 -12 40q0 43 30 70t79 27q52 0 83.5 -29.5t31.5 -78.5q0 -57 -41 -89t-114 -32q-108 0 -166.5 44.5t-58.5 125.5v27
q0 105 70 163.5t186 58.5h40q77 0 135 -28.5t90 -83t32 -129.5v-46q0 -131 -74 -206t-204 -75h-45v96zM342 174.5q13 12.5 13 32.5t-13 33t-33 13t-32.5 -13t-12.5 -33t12.5 -32.5t32.5 -12.5t33 12.5z" />
    <glyph glyph-name="uni0E52" unicode="&#xe52;" horiz-adv-x="749" 
d="M658.5 463.5q32.5 -40.5 32.5 -120.5v-151q0 -89 -58 -140.5t-158 -51.5h-193q-98 0 -154.5 51t-56.5 139v253q0 70 -22 113t-71 71l72 83q71 -44 102.5 -107t31.5 -160v-245q0 -46 26.5 -73.5t71.5 -27.5h192q49 0 78 27t29 74v145q0 32 -5 48t-19 16h-5l-46 -76h-32
q-9 40 -28 62t-43 22h-15q-24 0 -37 -15.5t-13 -40.5v-4q4 1 13 1q48 0 77 -28t29 -74q0 -47 -30.5 -76t-80.5 -29t-80 29t-30 76v81q0 81 35 126.5t98 45.5h24q31 0 58 -18.5t43 -50.5l41 66h27q64 0 96.5 -40.5zM378.5 286.5q-12.5 12.5 -32.5 12.5t-33 -12.5t-13 -32.5
t13 -32.5t33 -12.5t32.5 12.5t12.5 32.5t-12.5 32.5z" />
    <glyph glyph-name="uni0E53" unicode="&#xe53;" horiz-adv-x="673" 
d="M140 20q-44 30 -68 84.5t-24 125.5v25q0 75 22 132t62.5 88.5t93.5 31.5h26l89 -86l87 86h26q73 0 114 -44.5t41 -124.5v-338h-115v344q0 28 -10 44.5t-27 16.5h-9l-107 -100l-111 99h-8q-28 0 -45.5 -41t-17.5 -108v-25q0 -45 11 -70h2q8 22 30 35.5t50 13.5
q52 0 83 -30t31 -79t-34 -79.5t-90 -30.5q-58 0 -102 30zM283.5 67q12.5 13 12.5 33t-12.5 32.5t-32.5 12.5t-32.5 -12.5t-12.5 -32.5t12.5 -33t32.5 -13t32.5 13z" />
    <glyph glyph-name="uni0E54" unicode="&#xe54;" horiz-adv-x="642" 
d="M539 110.5q38 -12.5 98 -26.5l-23 -91q-45 15 -72.5 19.5t-60.5 4.5q-29 0 -89 -12q-24 -5 -50.5 -9t-50.5 -4q-120 0 -181.5 60.5t-61.5 178.5v30q0 115 67 176.5t192 61.5h92q65 0 96 49t31 152h108q0 -154 -57 -226t-178 -72h-92q-70 0 -108 -36.5t-38 -104.5v-30
q0 -143 130 -143q24 0 46 3t27 4q8 1 23.5 3t27.5 2v1q-52 35 -73.5 69t-21.5 75q0 50 31 81t82 31q52 0 83 -29.5t31 -78.5q0 -40 -22 -66.5t-61 -34.5q37 -25 75 -37.5zM401 281.5q-13 -12.5 -13 -32.5t13 -32.5t33 -12.5t32.5 12.5t12.5 32.5t-12.5 32.5t-32.5 12.5
t-33 -12.5z" />
    <glyph glyph-name="uni0E55" unicode="&#xe55;" horiz-adv-x="642" 
d="M539 110.5q38 -12.5 98 -26.5l-23 -91q-45 15 -72.5 19.5t-60.5 4.5q-29 0 -89 -12q-24 -5 -50.5 -9t-50.5 -4q-120 0 -181.5 60.5t-61.5 178.5v30q0 84 36.5 140t105.5 80q-26 29 -26 72q0 53 35 86t90 33t90 -33t35 -86q0 -30 -13 -54q64 1 94.5 49.5t30.5 151.5h108
q0 -154 -57 -226t-178 -72h-92q-70 0 -108 -36.5t-38 -104.5v-30q0 -143 130 -143q24 0 46 3t27 4q8 1 23.5 3t27.5 2v1q-52 35 -73.5 69t-21.5 75q0 50 31 81t82 31q52 0 83 -29.5t31 -78.5q0 -40 -22 -66.5t-61 -34.5q37 -25 75 -37.5zM255 587.5q-13 -13.5 -13 -34.5
t13 -34t34 -13t34 13t13 34t-13 34.5t-34 13.5t-34 -13.5zM401 281.5q-13 -12.5 -13 -32.5t13 -32.5t33 -12.5t32.5 12.5t12.5 32.5t-12.5 32.5t-32.5 12.5t-33 -12.5z" />
    <glyph glyph-name="uni0E56" unicode="&#xe56;" horiz-adv-x="657" 
d="M541.5 444q67.5 -63 67.5 -173v-39q0 -114 -70 -177t-188 -63h-40q-70 0 -125 22t-86 61.5t-31 91.5q0 51 31 82t83 31t83.5 -30t31.5 -80q0 -49 -36 -74q23 -5 49 -5h40q67 0 105.5 35.5t38.5 106.5v38q0 64 -37.5 100.5t-101.5 36.5h-40q-43 0 -81.5 -16t-65.5 -45h-68
q-13 98 -44 164t-96 132l82 67q54 -53 89 -112t54 -132q60 41 137 41h33q118 0 185.5 -63zM151 138.5q13 -12.5 33 -12.5t32.5 12.5t12.5 32.5t-12.5 32.5t-32.5 12.5t-33 -12.5t-13 -32.5t13 -32.5z" />
    <glyph glyph-name="uni0E57" unicode="&#xe57;" horiz-adv-x="846" 
d="M140 20q-44 30 -68 84.5t-24 125.5v25q0 75 22 132t62.5 88.5t93.5 31.5h26l79 -86l77 86h26q72 0 112 -44.5t40 -124.5v-238h43q19 0 29 15.5t10 42.5v542h114v-541q0 -75 -39.5 -117t-109.5 -42h-159v344q0 28 -10 44.5t-27 16.5h-9l-97 -100l-101 99h-8
q-28 0 -45.5 -41t-17.5 -108v-25q0 -45 11 -70h2q8 22 30 35.5t50 13.5q52 0 83 -30t31 -79t-34 -79.5t-90 -30.5q-58 0 -102 30zM283.5 67q12.5 13 12.5 33t-12.5 32.5t-32.5 12.5t-32.5 -12.5t-12.5 -32.5t12.5 -33t32.5 -13t32.5 13z" />
    <glyph glyph-name="uni0E58" unicode="&#xe58;" horiz-adv-x="701" 
d="M621 311.5q32 -31.5 32 -83.5v-20q0 -65 -23 -114t-64 -75.5t-94 -26.5h-22q-49 0 -90.5 29t-64.5 79l-54 -109q-89 10 -141 74t-52 165v33q0 70 31 123.5t87 83t129 29.5h119q48 0 75.5 19.5t39.5 62.5t12 119h108q0 -114 -22.5 -179t-72.5 -93.5t-138 -28.5h-121
q-60 0 -97 -36.5t-37 -99.5v-40q0 -42 13.5 -73t36.5 -46l75 156h41q10 -83 42 -128t83 -45h21q53 0 71 45h-12q-48 0 -77.5 28.5t-29.5 74.5q0 49 31 78.5t81 29.5q52 0 84 -31.5zM506 202.5q13 -12.5 33 -12.5t32.5 12.5t12.5 32.5t-12.5 32.5t-32.5 12.5t-33 -12.5
t-13 -32.5t13 -32.5z" />
    <glyph glyph-name="uni0E59" unicode="&#xe59;" horiz-adv-x="747" 
d="M745 700v-100q0 -104 -9.5 -169t-35.5 -100t-73 -35h-10q-38 0 -62 22.5t-51 63.5q-15 25 -25.5 37t-23.5 12h-9q-10 0 -19 -9t-13 -22q9 -76 63.5 -144.5t137.5 -113.5l-60 -85q-87 46 -150 123.5t-87 167.5q-7 27 -20.5 39t-36.5 12h-20q-35 0 -54.5 -35t-19.5 -98v-27
q0 -42 12 -74q12 21 32.5 32t47.5 11q52 0 83.5 -29.5t31.5 -79.5q0 -49 -34 -79t-89 -30q-57 0 -101.5 31t-69.5 87.5t-25 129.5v28q0 108 47.5 170.5t130.5 62.5h30q50 0 83 -28q16 27 38.5 43t48.5 16h15q43 0 67.5 -23t48.5 -65q14 -24 22 -34t19 -10h5q19 0 24.5 47.5
t5.5 154.5v100h105zM226.5 131.5q-12.5 -12.5 -12.5 -32.5t12.5 -32.5t32.5 -12.5t33 12.5t13 32.5t-13 32.5t-33 12.5t-32.5 -12.5z" />
    <glyph glyph-name="uni0E5A" unicode="&#xe5a;" horiz-adv-x="787" 
d="M719 550v-550h-114v356q-19 -21 -48.5 -36.5t-59.5 -20.5v-111q0 -95 -45.5 -141.5t-139.5 -46.5h-49v100h49q70 0 70 88v149q-22 -27 -62.5 -42.5t-88.5 -15.5q-96 0 -154.5 45t-58.5 118q0 53 33 85t86 32t85 -31t32 -82q0 -48 -35 -77q16 -2 26 -2q66 0 105.5 49.5
t40.5 133.5h106v-155q51 10 82 51.5t32 103.5h108zM102 480q-13 -13 -13 -34t13 -33.5t34 -12.5t34 12.5t13 33.5t-13 34t-34 13t-34 -13z" />
    <glyph glyph-name="uni0E5B" unicode="&#xe5b;" horiz-adv-x="1216" 
d="M1198 336v-72q-10 -8 -27 -12.5t-35 -4.5t-35 5.5t-28 14.5q-8 -25 -22.5 -48.5t-29.5 -37.5h-39q-1 31 -8 60t-16 41q-5 -37 -17 -76.5t-26 -62.5h-52q0 41 -8 83t-19 65q-4 -44 -18 -98.5t-33 -94.5h-64q0 61 -9 116.5t-25 85.5q-8 -143 -96.5 -223.5t-237.5 -80.5
q-95 0 -166.5 37.5t-110 106.5t-38.5 161q0 84 34.5 148t96.5 99t143 35q74 0 130.5 -30t87.5 -84.5t31 -125.5q0 -89 -51 -141t-137 -52q-78 0 -126 40t-48 106q0 52 32 83.5t84 31.5q51 0 82.5 -31.5t31.5 -82.5q0 -24 -10.5 -44t-28.5 -33h4q39 0 62 32t24 85
q0 72 -44 114t-121 42q-83 0 -131 -51.5t-48 -140.5q0 -101 57 -158t160 -57q122 0 190 68.5t68 189.5q0 34 -7.5 72.5t-19.5 72.5h71q39 -41 72 -102.5t43 -115.5q7 31 7 83q0 46 -6 88h42q31 -30 56 -75.5t31 -83.5q9 34 9 83q0 26 -3 48h37q23 -24 43.5 -58t30.5 -66
q6 10 9.5 30.5t3.5 41.5v12h49q6 -28 20.5 -40.5t40.5 -12.5q34 0 58 15zM279.5 263q13.5 -13 35.5 -13t35 13t13 34q0 22 -13 35.5t-35 13.5t-35.5 -13.5t-13.5 -36.5q0 -20 13.5 -33z" />
    <glyph glyph-name="uni1E0C" unicode="&#x1e0c;" horiz-adv-x="693" 
d="M91.5 23q-23.5 23 -23.5 61v616h319q78 0 137.5 -29.5t92 -83.5t32.5 -125v-204q0 -127 -65.5 -192.5t-192.5 -65.5h-237q-39 0 -62.5 23zM388 103q71 0 107.5 40.5t36.5 118.5v196q0 62 -41 100.5t-107 38.5h-199v-494h203zM303 -191q-20 20 -20 53t20 53t53 20t53 -20
t20 -53t-20 -53t-53 -20t-53 20z" />
    <glyph glyph-name="uni1E0D" unicode="&#x1e0d;" horiz-adv-x="595" 
d="M96.5 45.5q-52.5 53.5 -52.5 140.5v116q0 61 25 107.5t70.5 72t104.5 25.5h61q31 0 61.5 -14t50.5 -37v244h114v-700h-107v69q-21 -35 -56 -56t-71 -21h-63q-85 0 -137.5 53.5zM306 91q43 0 74.5 34.5t36.5 85.5v100q-7 43 -33.5 70t-63.5 27h-64q-44 0 -70.5 -31
t-26.5 -81v-103q0 -46 24.5 -74t62.5 -28h60zM240 -191q-20 20 -20 53t20 53t53 20t53 -20t20 -53t-20 -53t-53 -20t-53 20z" />
    <glyph glyph-name="uni1E0E" unicode="&#x1e0e;" horiz-adv-x="693" 
d="M91.5 23q-23.5 23 -23.5 61v616h319q78 0 137.5 -29.5t92 -83.5t32.5 -125v-204q0 -127 -65.5 -192.5t-192.5 -65.5h-237q-39 0 -62.5 23zM388 103q71 0 107.5 40.5t36.5 118.5v196q0 62 -41 100.5t-107 38.5h-199v-494h203zM207 -79h298v-90h-298v90z" />
    <glyph glyph-name="uni1E0F" unicode="&#x1e0f;" horiz-adv-x="595" 
d="M96.5 45.5q-52.5 53.5 -52.5 140.5v116q0 61 25 107.5t70.5 72t104.5 25.5h61q31 0 61.5 -14t50.5 -37v244h114v-700h-107v69q-21 -35 -56 -56t-71 -21h-63q-85 0 -137.5 53.5zM306 91q43 0 74.5 34.5t36.5 85.5v100q-7 43 -33.5 70t-63.5 27h-64q-44 0 -70.5 -31
t-26.5 -81v-103q0 -46 24.5 -74t62.5 -28h60zM144 -79h298v-90h-298v90z" />
    <glyph glyph-name="uni1E20" unicode="&#x1e20;" horiz-adv-x="703" 
d="M166.5 24.5q-56.5 32.5 -87.5 92t-31 137.5v192q0 78 31.5 137.5t89 92t132.5 32.5h110q72 0 127 -29.5t85 -83t30 -123.5h-115q0 60 -35 96.5t-92 36.5h-110q-61 0 -98.5 -44.5t-37.5 -118.5v-184q0 -74 36.5 -118.5t96.5 -44.5h114q58 0 95 41t37 105v34h-194v102h309
v-136q0 -73 -31 -129.5t-87 -88t-129 -31.5h-114q-75 0 -131.5 32.5zM204 874h298v-88h-298v88z" />
    <glyph glyph-name="uni1E21" unicode="&#x1e21;" horiz-adv-x="597" 
d="M122 -161q-50 42 -55 111h113q3 -25 21.5 -40t45.5 -15h88q38 0 60.5 28.5t22.5 76.5v57q-21 -24 -51.5 -39t-59.5 -15h-70q-86 0 -139.5 53.5t-53.5 140.5v107q0 60 25 106t70.5 71.5t104.5 25.5h62q34 0 67 -16.5t52 -43.5v52h108v-499q0 -93 -53.5 -148t-144.5 -55
h-88q-75 0 -125 42zM313 101q43 0 72 34t33 88v87q-4 43 -31 70.5t-65 27.5h-69q-42 0 -68 -30.5t-26 -80.5v-93q0 -46 23.5 -74.5t61.5 -28.5h69zM141 673h298v-88h-298v88z" />
    <glyph glyph-name="uni1E24" unicode="&#x1e24;" horiz-adv-x="715" 
d="M68 700h117v-297h346v297h116v-700h-116v301h-346v-301h-117v700zM302 -191q-20 20 -20 53t20 53t53 20t53 -20t20 -53t-20 -53t-53 -20t-53 20z" />
    <glyph glyph-name="uni1E25" unicode="&#x1e25;" horiz-adv-x="593" 
d="M64 700h115v-257q23 29 56.5 46.5t65.5 17.5h64q77 0 123.5 -49t46.5 -129v-329h-115v326q0 36 -18.5 58.5t-48.5 22.5h-64q-39 0 -70 -29t-40 -76v-302h-115v700zM247 -191q-20 20 -20 53t20 53t53 20t53 -20t20 -53t-20 -53t-53 -20t-53 20z" />
    <glyph glyph-name="uni1E2A" unicode="&#x1e2a;" horiz-adv-x="715" 
d="M68 700h117v-297h346v297h116v-700h-116v301h-346v-301h-117v700zM233 -184.5q-44 39.5 -44 104.5v16h90v-16q0 -31 19 -49t51 -18h12q32 0 51.5 18t19.5 49v16h89v-16q0 -65 -44 -104.5t-116 -39.5h-12q-72 0 -116 39.5z" />
    <glyph glyph-name="uni1E2B" unicode="&#x1e2b;" horiz-adv-x="593" 
d="M64 700h115v-257q23 29 56.5 46.5t65.5 17.5h64q77 0 123.5 -49t46.5 -129v-329h-115v326q0 36 -18.5 58.5t-48.5 22.5h-64q-39 0 -70 -29t-40 -76v-302h-115v700zM178 -184.5q-44 39.5 -44 104.5v16h90v-16q0 -31 19 -49t51 -18h12q32 0 51.5 18t19.5 49v16h89v-16
q0 -65 -44 -104.5t-116 -39.5h-12q-72 0 -116 39.5z" />
    <glyph glyph-name="uni1E36" unicode="&#x1e36;" horiz-adv-x="579" 
d="M91 23q-23 23 -23 61v616h117v-598h380v-102h-411q-40 0 -63 23zM268 -191q-20 20 -20 53t20 53t53 20t53 -20t20 -53t-20 -53t-53 -20t-53 20z" />
    <glyph glyph-name="uni1E37" unicode="&#x1e37;" horiz-adv-x="287" 
d="M102.5 35.5q-38.5 35.5 -38.5 112.5v552h115v-547q0 -29 12 -41.5t40 -12.5h48v-99h-54q-84 0 -122.5 35.5zM115 -191q-20 20 -20 53t20 53t53 20t53 -20t20 -53t-20 -53t-53 -20t-53 20z" />
    <glyph glyph-name="uni1E38" unicode="&#x1e38;" horiz-adv-x="579" 
d="M91 23q-23 23 -23 61v616h117v-598h380v-102h-411q-40 0 -63 23zM268 -191q-20 20 -20 53t20 53t53 20t53 -20t20 -53t-20 -53t-53 -20t-53 20zM-23 874h298v-88h-298v88z" />
    <glyph glyph-name="uni1E39" unicode="&#x1e39;" horiz-adv-x="287" 
d="M102.5 35.5q-38.5 35.5 -38.5 112.5v552h115v-547q0 -29 12 -41.5t40 -12.5h48v-99h-54q-84 0 -122.5 35.5zM115 -191q-20 20 -20 53t20 53t53 20t53 -20t20 -53t-20 -53t-53 -20t-53 20zM-28 874h298v-88h-298v88z" />
    <glyph glyph-name="uni1E3A" unicode="&#x1e3a;" horiz-adv-x="579" 
d="M91 23q-23 23 -23 61v616h117v-598h380v-102h-411q-40 0 -63 23zM172 -79h298v-90h-298v90z" />
    <glyph glyph-name="uni1E3B" unicode="&#x1e3b;" horiz-adv-x="287" 
d="M102.5 35.5q-38.5 35.5 -38.5 112.5v552h115v-547q0 -29 12 -41.5t40 -12.5h48v-99h-54q-84 0 -122.5 35.5zM19 -79h298v-90h-298v90z" />
    <glyph glyph-name="uni1E42" unicode="&#x1e42;" horiz-adv-x="814" 
d="M68 700h106l236 -432l230 432h106v-700h-115v483l-165 -306q-14 -24 -27 -34.5t-29 -10.5h-33l-195 351v-483h-114v700zM355 -191q-20 20 -20 53t20 53t53 20t53 -20t20 -53t-20 -53t-53 -20t-53 20z" />
    <glyph glyph-name="uni1E43" unicode="&#x1e43;" horiz-adv-x="844" 
d="M742.5 460q43.5 -47 43.5 -126v-334h-115v335q0 33 -15 52.5t-40 19.5h-48q-33 0 -56 -23.5t-30 -63.5v-320h-114v332q0 34 -15 54.5t-40 20.5h-45q-33 0 -57.5 -29.5t-31.5 -76.5v-301h-115v499h107v-63q19 33 48 52t59 19h57q38 0 68 -19.5t47 -54.5q22 35 53 54.5
t66 19.5h57q73 0 116.5 -47zM372 -191q-20 20 -20 53t20 53t53 20t53 -20t20 -53t-20 -53t-53 -20t-53 20z" />
    <glyph glyph-name="uni1E44" unicode="&#x1e44;" horiz-adv-x="709" 
d="M68 700h105l354 -512v512h114v-700h-106l-353 510v-510h-114v700zM301 788q-20 20 -20 52q0 33 20 53.5t53 20.5t53 -20.5t20 -53.5q0 -32 -20 -52t-53 -20t-53 20z" />
    <glyph glyph-name="uni1E45" unicode="&#x1e45;" horiz-adv-x="591" 
d="M64 499h107v-65q22 33 58 53t72 20h62q77 0 123.5 -49t46.5 -129v-329h-115v326q0 36 -18.5 58.5t-48.5 22.5h-62q-39 0 -70 -29.5t-40 -75.5v-302h-115v499zM250 587q-20 20 -20 52q0 33 20 53.5t53 20.5t53 -20.5t20 -53.5q0 -32 -20 -52t-53 -20t-53 20z" />
    <glyph glyph-name="uni1E46" unicode="&#x1e46;" horiz-adv-x="709" 
d="M68 700h105l354 -512v512h114v-700h-106l-353 510v-510h-114v700zM302 -191q-20 20 -20 53t20 53t53 20t53 -20t20 -53t-20 -53t-53 -20t-53 20z" />
    <glyph glyph-name="uni1E47" unicode="&#x1e47;" horiz-adv-x="591" 
d="M64 499h107v-65q22 33 58 53t72 20h62q77 0 123.5 -49t46.5 -129v-329h-115v326q0 36 -18.5 58.5t-48.5 22.5h-62q-39 0 -70 -29.5t-40 -75.5v-302h-115v499zM244 -191q-20 20 -20 53t20 53t53 20t53 -20t20 -53t-20 -53t-53 -20t-53 20z" />
    <glyph glyph-name="uni1E48" unicode="&#x1e48;" horiz-adv-x="709" 
d="M68 700h105l354 -512v512h114v-700h-106l-353 510v-510h-114v700zM206 -79h298v-90h-298v90z" />
    <glyph glyph-name="uni1E49" unicode="&#x1e49;" horiz-adv-x="591" 
d="M64 499h107v-65q22 33 58 53t72 20h62q77 0 123.5 -49t46.5 -129v-329h-115v326q0 36 -18.5 58.5t-48.5 22.5h-62q-39 0 -70 -29.5t-40 -75.5v-302h-115v499zM148 -79h298v-90h-298v90z" />
    <glyph glyph-name="uni1E5A" unicode="&#x1e5a;" horiz-adv-x="669" 
d="M68 700h361q86 0 139 -47t53 -124v-71q0 -52 -31.5 -91.5t-87.5 -58.5v-2q32 -19 51.5 -48.5t33.5 -76.5l56 -181h-121l-54 173q-13 45 -40 69t-63 24h-180v-266h-117v700zM403 367q46 0 73.5 25t27.5 65v69q0 32 -21 52t-56 20h-242v-231h218zM292 -191q-20 20 -20 53
t20 53t53 20t53 -20t20 -53t-20 -53t-53 -20t-53 20z" />
    <glyph glyph-name="uni1E5B" unicode="&#x1e5b;" horiz-adv-x="374" 
d="M64 499h107v-68q20 31 57.5 50.5t77.5 19.5h60v-100h-60q-57 0 -92 -35t-35 -91v-275h-115v499zM68 -191q-20 20 -20 53t20 53t53 20t53 -20t20 -53t-20 -53t-53 -20t-53 20z" />
    <glyph glyph-name="uni1E5C" unicode="&#x1e5c;" horiz-adv-x="669" 
d="M68 700h361q86 0 139 -47t53 -124v-71q0 -52 -31.5 -91.5t-87.5 -58.5v-2q32 -19 51.5 -48.5t33.5 -76.5l56 -181h-121l-54 173q-13 45 -40 69t-63 24h-180v-266h-117v700zM403 367q46 0 73.5 25t27.5 65v69q0 32 -21 52t-56 20h-242v-231h218zM292 -191q-20 20 -20 53
t20 53t53 20t53 -20t20 -53t-20 -53t-53 -20t-53 20zM181 874h298v-88h-298v88z" />
    <glyph glyph-name="uni1E5D" unicode="&#x1e5d;" horiz-adv-x="374" 
d="M64 499h107v-68q20 31 57.5 50.5t77.5 19.5h60v-100h-60q-57 0 -92 -35t-35 -91v-275h-115v499zM68 -191q-20 20 -20 53t20 53t53 20t53 -20t20 -53t-20 -53t-53 -20t-53 20zM62 673h298v-88h-298v88z" />
    <glyph glyph-name="uni1E5E" unicode="&#x1e5e;" horiz-adv-x="669" 
d="M68 700h361q86 0 139 -47t53 -124v-71q0 -52 -31.5 -91.5t-87.5 -58.5v-2q32 -19 51.5 -48.5t33.5 -76.5l56 -181h-121l-54 173q-13 45 -40 69t-63 24h-180v-266h-117v700zM403 367q46 0 73.5 25t27.5 65v69q0 32 -21 52t-56 20h-242v-231h218zM196 -79h298v-90h-298v90z
" />
    <glyph glyph-name="uni1E5F" unicode="&#x1e5f;" horiz-adv-x="374" 
d="M64 499h107v-68q20 31 57.5 50.5t77.5 19.5h60v-100h-60q-57 0 -92 -35t-35 -91v-275h-115v499zM-28 -79h298v-90h-298v90z" />
    <glyph glyph-name="uni1E60" unicode="&#x1e60;" horiz-adv-x="646" 
d="M104 52q-60 60 -60 164h115q0 -56 29.5 -88.5t81.5 -32.5h111q49 0 79 21.5t30 56.5v44q0 27 -21 45t-60 25l-182 31q-85 14 -130.5 56t-45.5 107v55q0 51 27.5 90t77.5 60.5t116 21.5h113q62 0 109.5 -25.5t73.5 -72.5t26 -108h-114q0 46 -26.5 74.5t-68.5 28.5h-113
q-47 0 -75.5 -20.5t-28.5 -55.5v-36q0 -28 20 -46.5t58 -24.5l182 -32q86 -15 132.5 -55.5t46.5 -103.5v-65q0 -51 -28 -90.5t-79 -61.5t-117 -22h-115q-104 0 -164 60zM272 788q-20 20 -20 52q0 33 20 53.5t53 20.5t53 -20.5t20 -53.5q0 -32 -20 -52t-53 -20t-53 20z" />
    <glyph glyph-name="uni1E61" unicode="&#x1e61;" horiz-adv-x="539" 
d="M91 38q-52 46 -52 122h113q0 -32 21 -51.5t56 -19.5h89q34 0 53.5 11.5t19.5 31.5v22q0 14 -11.5 24t-31.5 14l-173 30q-58 10 -92 42.5t-34 75.5v33q0 62 49.5 98t136.5 36h80q79 0 128 -43t49 -113h-113q0 27 -17.5 43t-46.5 16h-79q-35 0 -54 -11t-19 -31v-20
q0 -14 11.5 -24t30.5 -13l179 -32q55 -11 88 -42t33 -73v-37q0 -62 -51 -98.5t-136 -36.5h-89q-86 0 -138 46zM217 587q-20 20 -20 52q0 33 20 53.5t53 20.5t53 -20.5t20 -53.5q0 -32 -20 -52t-53 -20t-53 20z" />
    <glyph glyph-name="uni1E62" unicode="&#x1e62;" horiz-adv-x="646" 
d="M104 52q-60 60 -60 164h115q0 -56 29.5 -88.5t81.5 -32.5h111q49 0 79 21.5t30 56.5v44q0 27 -21 45t-60 25l-182 31q-85 14 -130.5 56t-45.5 107v55q0 51 27.5 90t77.5 60.5t116 21.5h113q62 0 109.5 -25.5t73.5 -72.5t26 -108h-114q0 46 -26.5 74.5t-68.5 28.5h-113
q-47 0 -75.5 -20.5t-28.5 -55.5v-36q0 -28 20 -46.5t58 -24.5l182 -32q86 -15 132.5 -55.5t46.5 -103.5v-65q0 -51 -28 -90.5t-79 -61.5t-117 -22h-115q-104 0 -164 60zM284 -191q-20 20 -20 53t20 53t53 20t53 -20t20 -53t-20 -53t-53 -20t-53 20z" />
    <glyph glyph-name="uni1E63" unicode="&#x1e63;" horiz-adv-x="539" 
d="M91 38q-52 46 -52 122h113q0 -32 21 -51.5t56 -19.5h89q34 0 53.5 11.5t19.5 31.5v22q0 14 -11.5 24t-31.5 14l-173 30q-58 10 -92 42.5t-34 75.5v33q0 62 49.5 98t136.5 36h80q79 0 128 -43t49 -113h-113q0 27 -17.5 43t-46.5 16h-79q-35 0 -54 -11t-19 -31v-20
q0 -14 11.5 -24t30.5 -13l179 -32q55 -11 88 -42t33 -73v-37q0 -62 -51 -98.5t-136 -36.5h-89q-86 0 -138 46zM231 -191q-20 20 -20 53t20 53t53 20t53 -20t20 -53t-20 -53t-53 -20t-53 20z" />
    <glyph glyph-name="uni1E6C" unicode="&#x1e6c;" horiz-adv-x="597" 
d="M240 599h-222v101h561v-101h-222v-599h-117v599zM243 -191q-20 20 -20 53t20 53t53 20t53 -20t20 -53t-20 -53t-53 -20t-53 20z" />
    <glyph glyph-name="uni1E6D" unicode="&#x1e6d;" horiz-adv-x="401" 
d="M151 38q-39 38 -39 120v242h-88v99h91v151h112v-151h130v-99h-130v-238q0 -33 13 -48t41 -15h76v-99h-82q-85 0 -124 38zM186 -191q-20 20 -20 53t20 53t53 20t53 -20t20 -53t-20 -53t-53 -20t-53 20z" />
    <glyph glyph-name="uni1E6E" unicode="&#x1e6e;" horiz-adv-x="597" 
d="M240 599h-222v101h561v-101h-222v-599h-117v599zM147 -79h298v-90h-298v90z" />
    <glyph glyph-name="uni1E6F" unicode="&#x1e6f;" horiz-adv-x="401" 
d="M151 38q-39 38 -39 120v242h-88v99h91v151h112v-151h130v-99h-130v-238q0 -33 13 -48t41 -15h76v-99h-82q-85 0 -124 38zM90 -79h298v-90h-298v90z" />
    <glyph glyph-name="Wgrave" unicode="&#x1e80;" horiz-adv-x="866" 
d="M173 17q-21 17 -29 57l-122 626h118l93 -533h2l155 496h44q47 0 64 -54l133 -441h2l93 532h118l-123 -626q-8 -38 -27.5 -56t-53.5 -18h-48l-156 508h-2l-160 -508h-48q-32 0 -53 17zM268 944h127l93 -171h-109z" />
    <glyph glyph-name="wgrave" unicode="&#x1e81;" horiz-adv-x="740" 
d="M720 499l-102 -428q-17 -71 -77 -71h-53l-115 336l-120 -336h-52q-59 0 -77 71l-104 428h119l73 -355l118 342h44q20 0 32.5 -9t19.5 -29l104 -301l71 352h119zM206 743h127l93 -171h-109z" />
    <glyph glyph-name="Wacute" unicode="&#x1e82;" horiz-adv-x="866" 
d="M173 17q-21 17 -29 57l-122 626h118l93 -533h2l155 496h44q47 0 64 -54l133 -441h2l93 532h118l-123 -626q-8 -38 -27.5 -56t-53.5 -18h-48l-156 508h-2l-160 -508h-48q-32 0 -53 17zM472 944h127l-111 -171h-109z" />
    <glyph glyph-name="wacute" unicode="&#x1e83;" horiz-adv-x="740" 
d="M720 499l-102 -428q-17 -71 -77 -71h-53l-115 336l-120 -336h-52q-59 0 -77 71l-104 428h119l73 -355l118 342h44q20 0 32.5 -9t19.5 -29l104 -301l71 352h119zM410 743h127l-111 -171h-109z" />
    <glyph glyph-name="Wdieresis" unicode="&#x1e84;" horiz-adv-x="866" 
d="M173 17q-21 17 -29 57l-122 626h118l93 -533h2l155 496h44q47 0 64 -54l133 -441h2l93 532h118l-123 -626q-8 -38 -27.5 -56t-53.5 -18h-48l-156 508h-2l-160 -508h-48q-32 0 -53 17zM271.5 792q-17.5 18 -17.5 46q0 29 17.5 46.5t46.5 17.5q28 0 46 -17.5t18 -46.5
q0 -28 -18 -46t-46 -18q-29 0 -46.5 18zM504 792q-18 18 -18 46q0 29 18 46.5t46 17.5q29 0 46.5 -17.5t17.5 -46.5q0 -28 -17.5 -46t-46.5 -18q-28 0 -46 18z" />
    <glyph glyph-name="wdieresis" unicode="&#x1e85;" horiz-adv-x="740" 
d="M720 499l-102 -428q-17 -71 -77 -71h-53l-115 336l-120 -336h-52q-59 0 -77 71l-104 428h119l73 -355l118 342h44q20 0 32.5 -9t19.5 -29l104 -301l71 352h119zM209.5 591q-17.5 18 -17.5 46q0 29 17.5 46.5t46.5 17.5q28 0 46 -17.5t18 -46.5q0 -28 -18 -46t-46 -18
q-29 0 -46.5 18zM442 591q-18 18 -18 46q0 29 18 46.5t46 17.5q29 0 46.5 -17.5t17.5 -46.5q0 -28 -17.5 -46t-46.5 -18q-28 0 -46 18z" />
    <glyph glyph-name="uni1E8E" unicode="&#x1e8e;" horiz-adv-x="642" 
d="M263 271l-259 429h127l190 -322l190 322h127l-259 -429v-271h-116v271zM268 788q-20 20 -20 52q0 33 20 53.5t53 20.5t53 -20.5t20 -53.5q0 -32 -20 -52t-53 -20t-53 20z" />
    <glyph glyph-name="uni1E8F" unicode="&#x1e8f;" horiz-adv-x="589" 
d="M121.5 -161q-49.5 42 -54.5 111h113q3 -25 21 -40t46 -15h81q38 0 60.5 28.5t22.5 76.5v74q-24 -33 -55.5 -52t-63.5 -19h-65q-76 0 -122.5 50.5t-46.5 133.5v312h115v-314q0 -38 18.5 -61t49.5 -23h59q37 0 68.5 31t42.5 79v288h114v-499q0 -93 -53.5 -148t-143.5 -55
h-81q-76 0 -125.5 42zM241 587q-20 20 -20 52q0 33 20 53.5t53 20.5t53 -20.5t20 -53.5q0 -32 -20 -52t-53 -20t-53 20z" />
    <glyph glyph-name="uni1E92" unicode="&#x1e92;" horiz-adv-x="597" 
d="M28 56l379 544h-361v100h523v-56l-381 -544h371v-100h-531v56zM245 -191q-20 20 -20 53t20 53t53 20t53 -20t20 -53t-20 -53t-53 -20t-53 20z" />
    <glyph glyph-name="uni1E93" unicode="&#x1e93;" horiz-adv-x="491" 
d="M24 56l279 346h-267v97h431v-56l-279 -346h274v-97h-438v56zM192 -191q-20 20 -20 53t20 53t53 20t53 -20t20 -53t-20 -53t-53 -20t-53 20z" />
    <glyph glyph-name="uni1E97" unicode="&#x1e97;" horiz-adv-x="401" 
d="M151 38q-39 38 -39 120v242h-88v99h91v151h112v-151h130v-99h-130v-238q0 -33 13 -48t41 -15h76v-99h-82q-85 0 -124 38zM19.5 742q-17.5 18 -17.5 46q0 29 17.5 46.5t46.5 17.5q28 0 46 -17.5t18 -46.5q0 -28 -18 -46t-46 -18q-29 0 -46.5 18zM252 742q-18 18 -18 46
q0 29 18 46.5t46 17.5q29 0 46.5 -17.5t17.5 -46.5q0 -28 -17.5 -46t-46.5 -18q-28 0 -46 18z" />
    <glyph glyph-name="uni1E9E" unicode="&#x1e9e;" horiz-adv-x="672" 
d="M289.5 37q-46.5 45 -46.5 118h106q0 -29 17 -46.5t46 -17.5h52q29 0 46.5 22t17.5 60v31q0 36 -15 57t-48 32l-141 50v66l125 191h-156q-54 0 -86 -31.5t-32 -83.5v-485h-115v485q0 64 28.5 112.5t81.5 75.5t123 27h290v-82l-138 -213l74 -28q64 -25 93.5 -67t29.5 -106
v-31q0 -82 -49 -131.5t-129 -49.5h-52q-76 0 -122.5 45z" />
    <glyph glyph-name="uni1EA0" unicode="&#x1ea0;" horiz-adv-x="670" 
d="M474 173h-278l-65 -173h-121l272 700h53q54 0 75 -53l250 -647h-122zM229 271h212l-105 284h-1zM282 -191q-20 20 -20 53t20 53t53 20t53 -20t20 -53t-20 -53t-53 -20t-53 20z" />
    <glyph glyph-name="uni1EA1" unicode="&#x1ea1;" horiz-adv-x="575" 
d="M94.5 30.5q-46.5 38.5 -46.5 102.5v36q0 63 48.5 101t127.5 38h62q28 0 60 -8t57 -21v62q0 31 -20 50t-52 19h-84q-33 0 -53 -15.5t-20 -40.5h-112q0 69 51 111t134 42h84q84 0 135 -45.5t51 -120.5v-341h-107v63q-24 -32 -60 -51.5t-71 -19.5h-62q-76 0 -122.5 38.5z
M286 82q40 0 72 22.5t45 59.5v24q-17 14 -48 22.5t-65 8.5h-63q-30 0 -48.5 -15t-18.5 -39v-28q0 -25 19 -40t50 -15h57zM245 -194q-20 20 -20 53t20 53t53 20t53 -20t20 -53t-20 -53t-53 -20t-53 20z" />
    <glyph glyph-name="uni1EA2" unicode="&#x1ea2;" horiz-adv-x="670" 
d="M474 173h-278l-65 -173h-121l272 700h53q54 0 75 -53l250 -647h-122zM229 271h212l-105 284h-1zM285 782q0 21 13.5 34t38.5 27q21 13 31 22t10 22v11q0 15 -8.5 23t-24.5 8h-20q-38 0 -38 -40h-81q0 56 30 84.5t89 28.5h20q57 0 87 -26.5t30 -77.5v-11q0 -28 -14 -44
t-40 -33q-16 -10 -23.5 -17.5t-7.5 -17.5v-13h-92v20z" />
    <glyph glyph-name="uni1EA3" unicode="&#x1ea3;" horiz-adv-x="575" 
d="M94.5 30.5q-46.5 38.5 -46.5 102.5v36q0 63 48.5 101t127.5 38h62q28 0 60 -8t57 -21v62q0 31 -20 50t-52 19h-84q-33 0 -53 -15.5t-20 -40.5h-112q0 69 51 111t134 42h84q84 0 135 -45.5t51 -120.5v-341h-107v63q-24 -32 -60 -51.5t-71 -19.5h-62q-76 0 -122.5 38.5z
M286 82q40 0 72 22.5t45 59.5v24q-17 14 -48 22.5t-65 8.5h-63q-30 0 -48.5 -15t-18.5 -39v-28q0 -25 19 -40t50 -15h57zM243 581q0 21 13.5 34t38.5 27q21 13 31 22t10 22v11q0 15 -8.5 23t-24.5 8h-20q-38 0 -38 -40h-81q0 56 30 84.5t89 28.5h20q57 0 87 -26.5t30 -77.5
v-11q0 -28 -14 -44t-40 -33q-16 -10 -23.5 -17.5t-7.5 -17.5v-13h-92v20z" />
    <glyph glyph-name="uni1EA4" unicode="&#x1ea4;" horiz-adv-x="670" 
d="M474 173h-278l-65 -173h-121l272 700h53q54 0 75 -53l250 -647h-122zM229 271h212l-105 284h-1zM520 1074h108l-92 -138h-92zM296 951h77l143 -178h-104l-77 102l-78 -102h-103z" />
    <glyph glyph-name="uni1EA5" unicode="&#x1ea5;" horiz-adv-x="575" 
d="M94.5 30.5q-46.5 38.5 -46.5 102.5v36q0 63 48.5 101t127.5 38h62q28 0 60 -8t57 -21v62q0 31 -20 50t-52 19h-84q-33 0 -53 -15.5t-20 -40.5h-112q0 69 51 111t134 42h84q84 0 135 -45.5t51 -120.5v-341h-107v63q-24 -32 -60 -51.5t-71 -19.5h-62q-76 0 -122.5 38.5z
M286 82q40 0 72 22.5t45 59.5v24q-17 14 -48 22.5t-65 8.5h-63q-30 0 -48.5 -15t-18.5 -39v-28q0 -25 19 -40t50 -15h57zM478 873h108l-92 -138h-92zM254 750h77l143 -178h-104l-77 102l-78 -102h-103z" />
    <glyph glyph-name="uni1EA6" unicode="&#x1ea6;" horiz-adv-x="670" 
d="M474 173h-278l-65 -173h-121l272 700h53q54 0 75 -53l250 -647h-122zM229 271h212l-105 284h-1zM390 1074h108l76 -138h-92zM296 951h77l143 -178h-104l-77 102l-78 -102h-103z" />
    <glyph glyph-name="uni1EA7" unicode="&#x1ea7;" horiz-adv-x="575" 
d="M94.5 30.5q-46.5 38.5 -46.5 102.5v36q0 63 48.5 101t127.5 38h62q28 0 60 -8t57 -21v62q0 31 -20 50t-52 19h-84q-33 0 -53 -15.5t-20 -40.5h-112q0 69 51 111t134 42h84q84 0 135 -45.5t51 -120.5v-341h-107v63q-24 -32 -60 -51.5t-71 -19.5h-62q-76 0 -122.5 38.5z
M286 82q40 0 72 22.5t45 59.5v24q-17 14 -48 22.5t-65 8.5h-63q-30 0 -48.5 -15t-18.5 -39v-28q0 -25 19 -40t50 -15h57zM348 873h108l76 -138h-92zM254 750h77l143 -178h-104l-77 102l-78 -102h-103z" />
    <glyph glyph-name="uni1EA8" unicode="&#x1ea8;" horiz-adv-x="670" 
d="M474 173h-278l-65 -173h-121l272 700h53q54 0 75 -53l250 -647h-122zM229 271h212l-105 284h-1zM465 927q0 17 11 27.5t32 23.5q19 12 27 19t8 18v12q0 24 -26 24h-17q-30 0 -30 -32h-72q0 97 102 97h17q102 0 102 -89v-12q0 -24 -12.5 -37.5t-34.5 -27.5
q-15 -11 -21 -16.5t-6 -13.5v-9h-80v16zM296 951h77l143 -178h-104l-77 102l-78 -102h-103z" />
    <glyph glyph-name="uni1EA9" unicode="&#x1ea9;" horiz-adv-x="575" 
d="M94.5 30.5q-46.5 38.5 -46.5 102.5v36q0 63 48.5 101t127.5 38h62q28 0 60 -8t57 -21v62q0 31 -20 50t-52 19h-84q-33 0 -53 -15.5t-20 -40.5h-112q0 69 51 111t134 42h84q84 0 135 -45.5t51 -120.5v-341h-107v63q-24 -32 -60 -51.5t-71 -19.5h-62q-76 0 -122.5 38.5z
M286 82q40 0 72 22.5t45 59.5v24q-17 14 -48 22.5t-65 8.5h-63q-30 0 -48.5 -15t-18.5 -39v-28q0 -25 19 -40t50 -15h57zM423 726q0 17 11 27.5t32 23.5q19 12 27 19t8 18v12q0 24 -26 24h-17q-30 0 -30 -32h-72q0 97 102 97h17q102 0 102 -89v-12q0 -24 -12.5 -37.5
t-34.5 -27.5q-15 -11 -21 -16.5t-6 -13.5v-9h-80v16zM254 750h77l143 -178h-104l-77 102l-78 -102h-103z" />
    <glyph glyph-name="uni1EAA" unicode="&#x1eaa;" horiz-adv-x="670" 
d="M474 173h-278l-65 -173h-121l272 700h53q54 0 75 -53l250 -647h-122zM229 271h212l-105 284h-1zM359.5 992q-15.5 8 -34.5 23q-2 2 -10.5 8t-15.5 9t-13 3h-6q-13 0 -21.5 -11.5t-8.5 -30.5h-76q0 51 28 82t73 31h7q20 0 35.5 -8t38.5 -24q9 -7 18.5 -13t16.5 -6h6
q12 0 19.5 11t7.5 30h77q-1 -51 -28 -81.5t-71 -30.5h-7q-20 0 -35.5 8zM296 951h77l143 -178h-104l-77 102l-78 -102h-103z" />
    <glyph glyph-name="uni1EAB" unicode="&#x1eab;" horiz-adv-x="575" 
d="M94.5 30.5q-46.5 38.5 -46.5 102.5v36q0 63 48.5 101t127.5 38h62q28 0 60 -8t57 -21v62q0 31 -20 50t-52 19h-84q-33 0 -53 -15.5t-20 -40.5h-112q0 69 51 111t134 42h84q84 0 135 -45.5t51 -120.5v-341h-107v63q-24 -32 -60 -51.5t-71 -19.5h-62q-76 0 -122.5 38.5z
M286 82q40 0 72 22.5t45 59.5v24q-17 14 -48 22.5t-65 8.5h-63q-30 0 -48.5 -15t-18.5 -39v-28q0 -25 19 -40t50 -15h57zM317.5 791q-15.5 8 -34.5 23q-2 2 -10.5 8t-15.5 9t-13 3h-6q-13 0 -21.5 -11.5t-8.5 -30.5h-76q0 51 28 82t73 31h7q20 0 35.5 -8t38.5 -24
q9 -7 18.5 -13t16.5 -6h6q12 0 19.5 11t7.5 30h77q-1 -51 -28 -81.5t-71 -30.5h-7q-20 0 -35.5 8zM254 750h77l143 -178h-104l-77 102l-78 -102h-103z" />
    <glyph glyph-name="uni1EAC" unicode="&#x1eac;" horiz-adv-x="670" 
d="M474 173h-278l-65 -173h-121l272 700h53q54 0 75 -53l250 -647h-122zM229 271h212l-105 284h-1zM282 -191q-20 20 -20 53t20 53t53 20t53 -20t20 -53t-20 -53t-53 -20t-53 20zM296 951h77l143 -178h-104l-77 102l-78 -102h-103z" />
    <glyph glyph-name="uni1EAD" unicode="&#x1ead;" horiz-adv-x="575" 
d="M94.5 30.5q-46.5 38.5 -46.5 102.5v36q0 63 48.5 101t127.5 38h62q28 0 60 -8t57 -21v62q0 31 -20 50t-52 19h-84q-33 0 -53 -15.5t-20 -40.5h-112q0 69 51 111t134 42h84q84 0 135 -45.5t51 -120.5v-341h-107v63q-24 -32 -60 -51.5t-71 -19.5h-62q-76 0 -122.5 38.5z
M286 82q40 0 72 22.5t45 59.5v24q-17 14 -48 22.5t-65 8.5h-63q-30 0 -48.5 -15t-18.5 -39v-28q0 -25 19 -40t50 -15h57zM245 -194q-20 20 -20 53t20 53t53 20t53 -20t20 -53t-20 -53t-53 -20t-53 20zM254 750h77l143 -178h-104l-77 102l-78 -102h-103z" />
    <glyph glyph-name="uni1EAE" unicode="&#x1eae;" horiz-adv-x="670" 
d="M474 173h-278l-65 -173h-121l272 700h53q54 0 75 -53l250 -647h-122zM229 271h212l-105 284h-1zM364 1112h107l-92 -139h-91zM213 804.5q-44 39.5 -44 104.5v16h90v-16q0 -31 19 -49t51 -18h12q32 0 51.5 18t19.5 49v16h89v-16q0 -65 -44 -104.5t-116 -39.5h-12
q-72 0 -116 39.5z" />
    <glyph glyph-name="uni1EAF" unicode="&#x1eaf;" horiz-adv-x="575" 
d="M94.5 30.5q-46.5 38.5 -46.5 102.5v36q0 63 48.5 101t127.5 38h62q28 0 60 -8t57 -21v62q0 31 -20 50t-52 19h-84q-33 0 -53 -15.5t-20 -40.5h-112q0 69 51 111t134 42h84q84 0 135 -45.5t51 -120.5v-341h-107v63q-24 -32 -60 -51.5t-71 -19.5h-62q-76 0 -122.5 38.5z
M286 82q40 0 72 22.5t45 59.5v24q-17 14 -48 22.5t-65 8.5h-63q-30 0 -48.5 -15t-18.5 -39v-28q0 -25 19 -40t50 -15h57zM322 911h107l-92 -139h-91zM171 603.5q-44 39.5 -44 104.5v16h90v-16q0 -31 19 -49t51 -18h12q32 0 51.5 18t19.5 49v16h89v-16q0 -65 -44 -104.5
t-116 -39.5h-12q-72 0 -116 39.5z" />
    <glyph glyph-name="uni1EB0" unicode="&#x1eb0;" horiz-adv-x="670" 
d="M474 173h-278l-65 -173h-121l272 700h53q54 0 75 -53l250 -647h-122zM229 271h212l-105 284h-1zM201 1112h107l76 -139h-91zM213 804.5q-44 39.5 -44 104.5v16h90v-16q0 -31 19 -49t51 -18h12q32 0 51.5 18t19.5 49v16h89v-16q0 -65 -44 -104.5t-116 -39.5h-12
q-72 0 -116 39.5z" />
    <glyph glyph-name="uni1EB1" unicode="&#x1eb1;" horiz-adv-x="575" 
d="M94.5 30.5q-46.5 38.5 -46.5 102.5v36q0 63 48.5 101t127.5 38h62q28 0 60 -8t57 -21v62q0 31 -20 50t-52 19h-84q-33 0 -53 -15.5t-20 -40.5h-112q0 69 51 111t134 42h84q84 0 135 -45.5t51 -120.5v-341h-107v63q-24 -32 -60 -51.5t-71 -19.5h-62q-76 0 -122.5 38.5z
M286 82q40 0 72 22.5t45 59.5v24q-17 14 -48 22.5t-65 8.5h-63q-30 0 -48.5 -15t-18.5 -39v-28q0 -25 19 -40t50 -15h57zM159 911h107l76 -139h-91zM171 603.5q-44 39.5 -44 104.5v16h90v-16q0 -31 19 -49t51 -18h12q32 0 51.5 18t19.5 49v16h89v-16q0 -65 -44 -104.5
t-116 -39.5h-12q-72 0 -116 39.5z" />
    <glyph glyph-name="uni1EB2" unicode="&#x1eb2;" horiz-adv-x="670" 
d="M474 173h-278l-65 -173h-121l272 700h53q54 0 75 -53l250 -647h-122zM229 271h212l-105 284h-1zM294 975q0 17 11 28t33 23q17 10 26 18t9 19v11q0 12 -7 18.5t-20 6.5h-17q-14 0 -22 -8.5t-8 -23.5h-72q0 47 26 72t76 25h17q50 0 76 -23t26 -67v-11q0 -24 -12.5 -38
t-34.5 -28q-14 -8 -20.5 -14.5t-6.5 -14.5v-9h-80v16zM213 804.5q-44 39.5 -44 104.5v16h90v-16q0 -31 19 -49t51 -18h12q32 0 51.5 18t19.5 49v16h89v-16q0 -65 -44 -104.5t-116 -39.5h-12q-72 0 -116 39.5z" />
    <glyph glyph-name="uni1EB3" unicode="&#x1eb3;" horiz-adv-x="575" 
d="M94.5 30.5q-46.5 38.5 -46.5 102.5v36q0 63 48.5 101t127.5 38h62q28 0 60 -8t57 -21v62q0 31 -20 50t-52 19h-84q-33 0 -53 -15.5t-20 -40.5h-112q0 69 51 111t134 42h84q84 0 135 -45.5t51 -120.5v-341h-107v63q-24 -32 -60 -51.5t-71 -19.5h-62q-76 0 -122.5 38.5z
M286 82q40 0 72 22.5t45 59.5v24q-17 14 -48 22.5t-65 8.5h-63q-30 0 -48.5 -15t-18.5 -39v-28q0 -25 19 -40t50 -15h57zM252 774q0 17 11 28t33 23q17 10 26 18t9 19v11q0 12 -7 18.5t-20 6.5h-17q-14 0 -22 -8.5t-8 -23.5h-72q0 47 26 72t76 25h17q50 0 76 -23t26 -67v-11
q0 -24 -12.5 -38t-34.5 -28q-14 -8 -20.5 -14.5t-6.5 -14.5v-9h-80v16zM171 603.5q-44 39.5 -44 104.5v16h90v-16q0 -31 19 -49t51 -18h12q32 0 51.5 18t19.5 49v16h89v-16q0 -65 -44 -104.5t-116 -39.5h-12q-72 0 -116 39.5z" />
    <glyph glyph-name="uni1EB4" unicode="&#x1eb4;" horiz-adv-x="670" 
d="M474 173h-278l-65 -173h-121l272 700h53q54 0 75 -53l250 -647h-122zM229 271h212l-105 284h-1zM362 991q-15 8 -35 24q-14 11 -22 16t-17 5h-6q-13 0 -21.5 -12t-8.5 -31h-76q0 52 28 83t73 31h7q20 0 35.5 -8.5t38.5 -25.5q12 -10 20 -15t15 -5h6q12 0 19.5 12t7.5 31
h77q-1 -51 -28 -82t-71 -31h-7q-20 0 -35 8zM213 804.5q-44 39.5 -44 104.5v16h90v-16q0 -31 19 -49t51 -18h12q32 0 51.5 18t19.5 49v16h89v-16q0 -65 -44 -104.5t-116 -39.5h-12q-72 0 -116 39.5z" />
    <glyph glyph-name="uni1EB5" unicode="&#x1eb5;" horiz-adv-x="575" 
d="M94.5 30.5q-46.5 38.5 -46.5 102.5v36q0 63 48.5 101t127.5 38h62q28 0 60 -8t57 -21v62q0 31 -20 50t-52 19h-84q-33 0 -53 -15.5t-20 -40.5h-112q0 69 51 111t134 42h84q84 0 135 -45.5t51 -120.5v-341h-107v63q-24 -32 -60 -51.5t-71 -19.5h-62q-76 0 -122.5 38.5z
M286 82q40 0 72 22.5t45 59.5v24q-17 14 -48 22.5t-65 8.5h-63q-30 0 -48.5 -15t-18.5 -39v-28q0 -25 19 -40t50 -15h57zM320 790q-15 8 -35 24q-14 11 -22 16t-17 5h-6q-13 0 -21.5 -12t-8.5 -31h-76q0 52 28 83t73 31h7q20 0 35.5 -8.5t38.5 -25.5q12 -10 20 -15t15 -5h6
q12 0 19.5 12t7.5 31h77q-1 -51 -28 -82t-71 -31h-7q-20 0 -35 8zM171 603.5q-44 39.5 -44 104.5v16h90v-16q0 -31 19 -49t51 -18h12q32 0 51.5 18t19.5 49v16h89v-16q0 -65 -44 -104.5t-116 -39.5h-12q-72 0 -116 39.5z" />
    <glyph glyph-name="uni1EB6" unicode="&#x1eb6;" horiz-adv-x="670" 
d="M474 173h-278l-65 -173h-121l272 700h53q54 0 75 -53l250 -647h-122zM229 271h212l-105 284h-1zM282 -191q-20 20 -20 53t20 53t53 20t53 -20t20 -53t-20 -53t-53 -20t-53 20zM213 804.5q-44 39.5 -44 104.5v16h90v-16q0 -31 19 -49t51 -18h12q32 0 51.5 18t19.5 49v16
h89v-16q0 -65 -44 -104.5t-116 -39.5h-12q-72 0 -116 39.5z" />
    <glyph glyph-name="uni1EB7" unicode="&#x1eb7;" horiz-adv-x="575" 
d="M94.5 30.5q-46.5 38.5 -46.5 102.5v36q0 63 48.5 101t127.5 38h62q28 0 60 -8t57 -21v62q0 31 -20 50t-52 19h-84q-33 0 -53 -15.5t-20 -40.5h-112q0 69 51 111t134 42h84q84 0 135 -45.5t51 -120.5v-341h-107v63q-24 -32 -60 -51.5t-71 -19.5h-62q-76 0 -122.5 38.5z
M286 82q40 0 72 22.5t45 59.5v24q-17 14 -48 22.5t-65 8.5h-63q-30 0 -48.5 -15t-18.5 -39v-28q0 -25 19 -40t50 -15h57zM245 -194q-20 20 -20 53t20 53t53 20t53 -20t20 -53t-20 -53t-53 -20t-53 20zM171 603.5q-44 39.5 -44 104.5v16h90v-16q0 -31 19 -49t51 -18h12
q32 0 51.5 18t19.5 49v16h89v-16q0 -65 -44 -104.5t-116 -39.5h-12q-72 0 -116 39.5z" />
    <glyph glyph-name="uni1EB8" unicode="&#x1eb8;" horiz-adv-x="619" 
d="M91.5 23.5q-23.5 23.5 -23.5 61.5v615h513v-101h-396v-190h366v-102h-366v-206h396v-101h-427q-39 0 -62.5 23.5zM279 -191q-20 20 -20 53t20 53t53 20t53 -20t20 -53t-20 -53t-53 -20t-53 20z" />
    <glyph glyph-name="uni1EB9" unicode="&#x1eb9;" horiz-adv-x="569" 
d="M141.5 15q-46.5 23 -72 65t-25.5 97v134q0 58 25.5 102.5t72 69t107.5 24.5h80q91 0 146 -53t55 -141v-100h-371v-36q0 -40 24.5 -64t65.5 -24h77q40 0 64.5 19.5t24.5 51.5h113q0 -76 -56 -122t-147 -46h-76q-61 0 -107.5 23zM417 299v14q0 44 -24 71t-63 27h-81
q-41 0 -66.5 -28.5t-25.5 -74.5v-9h260zM237 -191q-20 20 -20 53t20 53t53 20t53 -20t20 -53t-20 -53t-53 -20t-53 20z" />
    <glyph glyph-name="uni1EBA" unicode="&#x1eba;" horiz-adv-x="619" 
d="M91.5 23.5q-23.5 23.5 -23.5 61.5v615h513v-101h-396v-190h366v-102h-366v-206h396v-101h-427q-39 0 -62.5 23.5zM278 782q0 21 13.5 34t38.5 27q21 13 31 22t10 22v11q0 15 -8.5 23t-24.5 8h-20q-38 0 -38 -40h-81q0 56 30 84.5t89 28.5h20q57 0 87 -26.5t30 -77.5v-11
q0 -28 -14 -44t-40 -33q-16 -10 -23.5 -17.5t-7.5 -17.5v-13h-92v20z" />
    <glyph glyph-name="uni1EBB" unicode="&#x1ebb;" horiz-adv-x="569" 
d="M141.5 15q-46.5 23 -72 65t-25.5 97v134q0 58 25.5 102.5t72 69t107.5 24.5h80q91 0 146 -53t55 -141v-100h-371v-36q0 -40 24.5 -64t65.5 -24h77q40 0 64.5 19.5t24.5 51.5h113q0 -76 -56 -122t-147 -46h-76q-61 0 -107.5 23zM417 299v14q0 44 -24 71t-63 27h-81
q-41 0 -66.5 -28.5t-25.5 -74.5v-9h260zM237 581q0 21 13.5 34t38.5 27q21 13 31 22t10 22v11q0 15 -8.5 23t-24.5 8h-20q-38 0 -38 -40h-81q0 56 30 84.5t89 28.5h20q57 0 87 -26.5t30 -77.5v-11q0 -28 -14 -44t-40 -33q-16 -10 -23.5 -17.5t-7.5 -17.5v-13h-92v20z" />
    <glyph glyph-name="uni1EBC" unicode="&#x1ebc;" horiz-adv-x="619" 
d="M91.5 23.5q-23.5 23.5 -23.5 61.5v615h513v-101h-396v-190h366v-102h-366v-206h396v-101h-427q-39 0 -62.5 23.5zM350.5 775.5q-17.5 10.5 -38.5 28.5q-13 12 -22 18t-18 6h-7q-14 0 -22.5 -14.5t-9.5 -37.5h-85q0 59 31 96t81 37h8q24 0 42 -11t40 -30q12 -11 20 -16.5
t15 -5.5h8q12 0 20.5 14t9.5 38h84q0 -60 -30 -96.5t-79 -36.5h-7q-23 0 -40.5 10.5z" />
    <glyph glyph-name="uni1EBD" unicode="&#x1ebd;" horiz-adv-x="569" 
d="M141.5 15q-46.5 23 -72 65t-25.5 97v134q0 58 25.5 102.5t72 69t107.5 24.5h80q91 0 146 -53t55 -141v-100h-371v-36q0 -40 24.5 -64t65.5 -24h77q40 0 64.5 19.5t24.5 51.5h113q0 -76 -56 -122t-147 -46h-76q-61 0 -107.5 23zM417 299v14q0 44 -24 71t-63 27h-81
q-41 0 -66.5 -28.5t-25.5 -74.5v-9h260zM309.5 574.5q-17.5 10.5 -38.5 28.5q-13 12 -22 18t-18 6h-7q-14 0 -22.5 -14.5t-9.5 -37.5h-85q0 59 31 96t81 37h8q24 0 42 -11t40 -30q12 -11 20 -16.5t15 -5.5h8q12 0 20.5 14t9.5 38h84q0 -60 -30 -96.5t-79 -36.5h-7
q-23 0 -40.5 10.5z" />
    <glyph glyph-name="uni1EBE" unicode="&#x1ebe;" horiz-adv-x="619" 
d="M91.5 23.5q-23.5 23.5 -23.5 61.5v615h513v-101h-396v-190h366v-102h-366v-206h396v-101h-427q-39 0 -62.5 23.5zM513 1074h108l-92 -138h-92zM289 951h77l143 -178h-104l-77 102l-78 -102h-103z" />
    <glyph glyph-name="uni1EBF" unicode="&#x1ebf;" horiz-adv-x="569" 
d="M141.5 15q-46.5 23 -72 65t-25.5 97v134q0 58 25.5 102.5t72 69t107.5 24.5h80q91 0 146 -53t55 -141v-100h-371v-36q0 -40 24.5 -64t65.5 -24h77q40 0 64.5 19.5t24.5 51.5h113q0 -76 -56 -122t-147 -46h-76q-61 0 -107.5 23zM417 299v14q0 44 -24 71t-63 27h-81
q-41 0 -66.5 -28.5t-25.5 -74.5v-9h260zM472 873h108l-92 -138h-92zM248 750h77l143 -178h-104l-77 102l-78 -102h-103z" />
    <glyph glyph-name="uni1EC0" unicode="&#x1ec0;" horiz-adv-x="619" 
d="M91.5 23.5q-23.5 23.5 -23.5 61.5v615h513v-101h-396v-190h366v-102h-366v-206h396v-101h-427q-39 0 -62.5 23.5zM383 1074h108l76 -138h-92zM289 951h77l143 -178h-104l-77 102l-78 -102h-103z" />
    <glyph glyph-name="uni1EC1" unicode="&#x1ec1;" horiz-adv-x="569" 
d="M141.5 15q-46.5 23 -72 65t-25.5 97v134q0 58 25.5 102.5t72 69t107.5 24.5h80q91 0 146 -53t55 -141v-100h-371v-36q0 -40 24.5 -64t65.5 -24h77q40 0 64.5 19.5t24.5 51.5h113q0 -76 -56 -122t-147 -46h-76q-61 0 -107.5 23zM417 299v14q0 44 -24 71t-63 27h-81
q-41 0 -66.5 -28.5t-25.5 -74.5v-9h260zM342 873h108l76 -138h-92zM248 750h77l143 -178h-104l-77 102l-78 -102h-103z" />
    <glyph glyph-name="uni1EC2" unicode="&#x1ec2;" horiz-adv-x="619" 
d="M91.5 23.5q-23.5 23.5 -23.5 61.5v615h513v-101h-396v-190h366v-102h-366v-206h396v-101h-427q-39 0 -62.5 23.5zM458 927q0 17 11 27.5t32 23.5q19 12 27 19t8 18v12q0 24 -26 24h-17q-30 0 -30 -32h-72q0 97 102 97h17q102 0 102 -89v-12q0 -24 -12.5 -37.5
t-34.5 -27.5q-15 -11 -21 -16.5t-6 -13.5v-9h-80v16zM289 951h77l143 -178h-104l-77 102l-78 -102h-103z" />
    <glyph glyph-name="uni1EC3" unicode="&#x1ec3;" horiz-adv-x="569" 
d="M141.5 15q-46.5 23 -72 65t-25.5 97v134q0 58 25.5 102.5t72 69t107.5 24.5h80q91 0 146 -53t55 -141v-100h-371v-36q0 -40 24.5 -64t65.5 -24h77q40 0 64.5 19.5t24.5 51.5h113q0 -76 -56 -122t-147 -46h-76q-61 0 -107.5 23zM417 299v14q0 44 -24 71t-63 27h-81
q-41 0 -66.5 -28.5t-25.5 -74.5v-9h260zM417 726q0 17 11 27.5t32 23.5q19 12 27 19t8 18v12q0 24 -26 24h-17q-30 0 -30 -32h-72q0 97 102 97h17q102 0 102 -89v-12q0 -24 -12.5 -37.5t-34.5 -27.5q-15 -11 -21 -16.5t-6 -13.5v-9h-80v16zM248 750h77l143 -178h-104
l-77 102l-78 -102h-103z" />
    <glyph glyph-name="uni1EC4" unicode="&#x1ec4;" horiz-adv-x="619" 
d="M91.5 23.5q-23.5 23.5 -23.5 61.5v615h513v-101h-396v-190h366v-102h-366v-206h396v-101h-427q-39 0 -62.5 23.5zM352.5 992q-15.5 8 -34.5 23q-2 2 -10.5 8t-15.5 9t-13 3h-6q-13 0 -21.5 -11.5t-8.5 -30.5h-76q0 51 28 82t73 31h7q20 0 35.5 -8t38.5 -24q9 -7 18.5 -13
t16.5 -6h6q12 0 19.5 11t7.5 30h77q-1 -51 -28 -81.5t-71 -30.5h-7q-20 0 -35.5 8zM289 951h77l143 -178h-104l-77 102l-78 -102h-103z" />
    </font>
</defs>
</svg>
