<?xml version="1.0" standalone="no"?>
<!DOCTYPE svg PUBLIC "-//W3C//DTD SVG 1.1//EN" "http://www.w3.org/Graphics/SVG/1.1/DTD/svg11.dtd" >
<svg xmlns="http://www.w3.org/2000/svg" xmlns:xlink="http://www.w3.org/1999/xlink" version="1.1">
<metadata>
Created by FontForge 20170731 at Thu May 11 10:47:28 2023
 By Aleksey,,,
Copyright 2014-2017 Indian Type Foundry (info@indiantypefoundry.com)
</metadata>
<defs>
<font id="Poppins-SemiBold" horiz-adv-x="632" >
  <font-face 
    font-family="Poppins SemiBold"
    font-weight="600"
    font-stretch="normal"
    units-per-em="2048"
    panose-1="0 0 7 0 0 0 0 0 0 0"
    ascent="1638"
    descent="-410"
    x-height="1135"
    cap-height="1430"
    bbox="-1112 -1214 5140 2234"
    underline-thickness="102"
    underline-position="-307"
    unicode-range="U+000D-FB02"
  />
<missing-glyph horiz-adv-x="1024" 
d="M0 0v1434h1024v-1434h-1024zM512 809l348 522h-696zM573 717l349 -522v1044zM164 102h696l-348 523zM102 1239v-1044l349 522z" />
    <glyph glyph-name=".notdef" horiz-adv-x="1024" 
d="M0 0v1434h1024v-1434h-1024zM512 809l348 522h-696zM573 717l349 -522v1044zM164 102h696l-348 523zM102 1239v-1044l349 522z" />
    <glyph glyph-name=".null" horiz-adv-x="0" 
 />
    <glyph glyph-name="nonmarkingreturn" horiz-adv-x="682" 
 />
    <glyph glyph-name="NULL" horiz-adv-x="0" 
 />
    <glyph glyph-name="NULL" horiz-adv-x="0" 
 />
    <glyph glyph-name="CR" unicode="&#xd;" horiz-adv-x="487" 
 />
    <glyph glyph-name="space" unicode=" " horiz-adv-x="487" 
 />
    <glyph glyph-name="exclam" unicode="!" horiz-adv-x="724" 
d="M238 465l-35 989h309l-33 -989h-241zM539 154q0 -71 -49.5 -119.5t-124.5 -48.5q-77 0 -128 48.5t-51 119.5t51 119.5t128 48.5q75 0 124.5 -48.5t49.5 -119.5z" />
    <glyph glyph-name="quotedbl" unicode="&#x22;" horiz-adv-x="745" 
d="M102 1200l-26 434h246l-25 -434h-195zM449 1200l-27 434h248l-27 -434h-194z" />
    <glyph glyph-name="numbersign" unicode="#" horiz-adv-x="1816" 
d="M1061 604l67 316h-372l-68 -316h373zM932 0l74 348h-373l-74 -348h-270l73 348h-309v256h365l67 316h-307v256h363l71 340h271l-72 -340h373l71 340h273l-72 -340h262v-256h-317l-68 -316h260v-256h-315l-74 -348h-272z" />
    <glyph glyph-name="dollar" unicode="$" horiz-adv-x="1339" 
d="M567 -178v168q-204 18 -329 124t-129 285h307q13 -149 151 -178v391q-174 44 -250 81q-177 86 -203 264q-5 34 -5 71q0 178 127.5 291.5t330.5 128.5v166h131v-166q196 -15 315 -118.5t132 -282.5h-309q-6 60 -42 103t-96 62v-387q169 -44 237 -73q168 -75 210 -219
q16 -55 16 -121q0 -79 -31 -151.5t-88 -131t-146 -96.5t-198 -45v-166h-131zM864 399q0 67 -43 108t-123 68v-358q77 13 121.5 62.5t44.5 119.5zM408 1042q0 -68 41 -109.5t118 -68.5v355q-73 -11 -116 -56t-43 -121z" />
    <glyph glyph-name="percent" unicode="%" horiz-adv-x="1697" 
d="M76 1126q0 156 90.5 244t234.5 88t235 -88t91 -244q0 -157 -91 -245t-235 -88t-234.5 88t-90.5 245zM399 1286q-112 0 -112 -160q0 -161 112 -161q117 0 117 161q0 160 -117 160zM307 0l803 1434h281l-805 -1434h-279zM975 309q0 157 90.5 244.5t234.5 87.5
q143 0 232.5 -87.5t89.5 -244.5q0 -158 -89.5 -246t-232.5 -88q-144 0 -234.5 88t-90.5 246zM1298 469q-116 0 -116 -160q0 -162 116 -162q115 0 115 162q0 160 -115 160z" />
    <glyph glyph-name="ampersand" unicode="&#x26;" horiz-adv-x="1593" 
d="M1100 1098h-279q3 67 -32.5 103t-94.5 36q-58 0 -95.5 -34t-37.5 -87q0 -51 30.5 -101t100.5 -124l361 -356q2 2 5.5 8t4.5 8l117 194h299l-144 -251q-49 -93 -88 -152l346 -342h-352l-156 154q-200 -179 -485 -179q-239 0 -383.5 120t-144.5 319q0 141 79.5 254
t235.5 182q-56 68 -80 130t-24 134q0 150 113.5 248t305.5 98q194 0 300 -104t98 -258zM608 213q169 0 297 119l-352 348q-199 -87 -199 -250q0 -93 69.5 -155t184.5 -62z" />
    <glyph glyph-name="quotesingle" unicode="'" horiz-adv-x="399" 
d="M102 1200l-26 434h246l-25 -434h-195z" />
    <glyph glyph-name="parenleft" unicode="(" horiz-adv-x="993" 
d="M926 -403h-289q-199 192 -308.5 491t-109.5 641q0 351 115 659t334 504h288v-26q-226 -214 -343 -515.5t-117 -621.5q0 -312 111 -601t319 -503v-28z" />
    <glyph glyph-name="parenright" unicode=")" horiz-adv-x="993" 
d="M68 -403h288q199 192 308.5 491t109.5 641q0 351 -114.5 659t-333.5 504h-289v-26q226 -214 343.5 -516t117.5 -621q0 -312 -111 -601t-319 -503v-28z" />
    <glyph glyph-name="asterisk" unicode="*" horiz-adv-x="1060" 
d="M641 1511l-49 -284l225 178l103 -184l-267 -97l267 -96l-107 -190l-221 182l47 -283h-213l45 283l-219 -186l-113 196l267 96l-265 93l105 188l227 -180l-47 284h215z" />
    <glyph glyph-name="plus" unicode="+" horiz-adv-x="1380" 
d="M555 1251h270v-397h387v-250h-387v-397h-270v397h-387v250h387v397z" />
    <glyph glyph-name="comma" unicode="," horiz-adv-x="522" 
d="M25 -295l137 610h303l-254 -610h-186z" />
    <glyph glyph-name="hyphen" unicode="-" horiz-adv-x="1193" 
d="M145 610v242h869v-242h-869z" />
    <glyph glyph-name="period" unicode="." horiz-adv-x="532" 
d="M442 154q0 -71 -49.5 -119.5t-124.5 -48.5q-77 0 -127.5 48.5t-50.5 119.5t50.5 119.5t127.5 48.5q75 0 124.5 -48.5t49.5 -119.5z" />
    <glyph glyph-name="slash" unicode="/" horiz-adv-x="995" 
d="M76 -371l553 2310h280l-553 -2310h-280z" />
    <glyph glyph-name="zero" unicode="0" horiz-adv-x="1323" 
d="M109 766q0 135 16.5 245t56.5 207t102.5 163t158 103.5t219.5 37.5t219.5 -37.5t157.5 -103.5t102 -163t56.5 -207t16.5 -245q0 -136 -16.5 -247t-56.5 -209t-102 -164t-157.5 -104t-219.5 -38t-219.5 38t-158 104t-102.5 163.5t-56.5 209t-16.5 247.5zM932 766
q0 72 -3.5 126t-12.5 114t-28 101.5t-48 77t-74 53t-104 17.5t-104 -17.5t-74 -53t-48 -77.5t-28.5 -101.5t-13 -114t-3.5 -125.5q0 -74 3.5 -130t13 -116t28.5 -102.5t48 -77.5t74 -52.5t104 -17.5t104 17.5t74 53t48 77t28 102.5t12.5 116.5t3.5 129.5z" />
    <glyph glyph-name="one" unicode="1" horiz-adv-x="741" 
d="M272 0v1229h-198v264h493v-1493h-295z" />
    <glyph glyph-name="two" unicode="2" horiz-adv-x="1175" 
d="M92 20v213q35 30 100.5 85t102 85.5t95 82t93 84t81.5 80.5t74.5 83t59 80t48 83t27.5 80.5t11 82.5q0 104 -49 163.5t-151 59.5t-157.5 -68t-57.5 -188h-279q4 125 44 222t108.5 157t156 90.5t189.5 30.5q234 0 358.5 -124t124.5 -327q0 -81 -23.5 -161t-67 -151.5
t-95 -137t-117 -129t-123 -114.5t-123.5 -106q-15 -12 -22 -18h604v-238h-1012z" />
    <glyph glyph-name="three" unicode="3" horiz-adv-x="1226" 
d="M113 1100q10 204 144 316t353 112q223 0 347 -111t124 -284q0 -130 -66.5 -218.5t-158.5 -119.5v-9q118 -37 185 -130.5t67 -241.5q0 -188 -128 -306t-357 -118q-231 0 -376.5 117.5t-154.5 343.5h279q5 -100 69 -161t176 -61q104 0 161 58t57 151q0 123 -78 176.5
t-242 53.5h-59v235h59q291 0 291 195q0 88 -52.5 137t-150.5 49q-97 0 -149 -52.5t-60 -131.5h-280z" />
    <glyph glyph-name="four" unicode="4" horiz-adv-x="1353" 
d="M813 0v291h-717v225l670 959h334v-934h180v-250h-180v-291h-287zM412 541h419v626z" />
    <glyph glyph-name="five" unicode="5" horiz-adv-x="1318" 
d="M186 1497h926v-252h-663v-350q43 53 122 87t170 34q101 0 182 -29.5t133 -77.5t87.5 -113.5t50 -133.5t14.5 -140q0 -236 -134 -379t-382 -143q-234 0 -372.5 116t-157.5 306h278q20 -81 83.5 -130.5t164.5 -49.5q121 0 182.5 75.5t61.5 200.5q0 127 -62.5 193.5
t-183.5 66.5q-86 0 -143.5 -42.5t-81.5 -114.5h-275v876z" />
    <glyph glyph-name="six" unicode="6" horiz-adv-x="1310" 
d="M1149 1120h-266q-21 87 -71 129.5t-144 42.5q-141 0 -207.5 -113.5t-69.5 -369.5q50 83 143.5 128.5t204.5 45.5q204 0 328.5 -129t124.5 -358q0 -223 -132 -361.5t-366 -138.5q-130 0 -227 37t-159 101.5t-99.5 164t-52.5 212.5t-15 259q0 375 129.5 566.5t407.5 191.5
q110 0 198 -33.5t144 -92t88 -129.5t41 -153zM674 748q-108 0 -182 -63.5t-74 -184.5t68.5 -190.5t193.5 -69.5q111 0 175.5 67t64.5 182q0 119 -62.5 189t-183.5 70z" />
    <glyph glyph-name="seven" unicode="7" horiz-adv-x="1122" 
d="M72 1489h987v-213l-545 -1276h-291l549 1243h-700v246z" />
    <glyph glyph-name="eight" unicode="8" horiz-adv-x="1316" 
d="M358 791q-204 104 -204 329q0 82 31.5 153.5t92 127.5t158 88.5t221.5 32.5t222 -32.5t158.5 -89t92 -128t31.5 -152.5q0 -114 -55.5 -198t-147.5 -131q112 -48 176 -143.5t64 -223.5q0 -209 -152.5 -333t-388.5 -124q-234 0 -386 124t-152 333q0 130 63.5 225t175.5 142
zM657 874q99 0 162.5 56.5t63.5 148.5q0 100 -61 155.5t-165 55.5q-102 0 -162.5 -55.5t-60.5 -157.5q0 -91 62.5 -147t160.5 -56zM657 666q-117 0 -189.5 -60t-72.5 -170q0 -102 70.5 -166.5t191.5 -64.5q120 0 190.5 65t70.5 166q0 108 -71.5 169t-189.5 61z" />
    <glyph glyph-name="nine" unicode="9" horiz-adv-x="1282" 
d="M174 420h266q36 -187 232 -187q128 0 184.5 106t56.5 355q-47 -65 -131.5 -102t-183.5 -37q-98 0 -182 30.5t-147.5 89t-99.5 150.5t-36 207q0 226 135 361t369 135q120 0 211 -33t151.5 -93.5t98 -154.5t53.5 -207t16 -260q0 -198 -24 -337.5t-81.5 -242.5t-157 -152.5
t-245.5 -49.5q-115 0 -206.5 34.5t-149.5 94.5t-90.5 134t-38.5 159zM657 788q106 0 168 66t62 176q0 121 -64.5 187.5t-175.5 66.5t-175 -68t-64 -182q0 -108 62.5 -177t186.5 -69z" />
    <glyph glyph-name="colon" unicode=":" horiz-adv-x="538" 
d="M442 154q0 -71 -49.5 -119.5t-124.5 -48.5q-77 0 -127.5 48.5t-50.5 119.5t50.5 119.5t127.5 48.5q75 0 124.5 -48.5t49.5 -119.5zM442 1001q0 -71 -49.5 -119t-124.5 -48q-77 0 -127.5 48t-50.5 119t50.5 119.5t127.5 48.5q75 0 124.5 -48.5t49.5 -119.5z" />
    <glyph glyph-name="semicolon" unicode=";" horiz-adv-x="663" 
d="M494 993q0 -71 -50 -119.5t-125 -48.5q-77 0 -127.5 48.5t-50.5 119.5t50.5 119.5t127.5 48.5q75 0 125 -48.5t50 -119.5zM78 -295l137 610h303l-254 -610h-186z" />
    <glyph glyph-name="less" unicode="&#x3c;" horiz-adv-x="1196" 
d="M522 729l447 -459h-361l-446 459l446 459h361z" />
    <glyph glyph-name="equal" unicode="=" horiz-adv-x="1511" 
d="M197 358v250h1116v-250h-1116zM197 850v250h1116v-250h-1116z" />
    <glyph glyph-name="greater" unicode="&#x3e;" horiz-adv-x="1161" 
d="M182 270l449 459l-449 459h363l446 -459l-446 -459h-363z" />
    <glyph glyph-name="question" unicode="?" horiz-adv-x="1101" 
d="M72 1047q-3 190 123 311t346 121q213 0 343 -115.5t130 -319.5q0 -200 -129.5 -305.5t-341.5 -105.5l-8 -158h-252l-11 348h93q68 0 121 5.5t101.5 20.5t80 39.5t50 64.5t17.5 94q0 89 -51.5 140.5t-142.5 51.5q-94 0 -146.5 -50.5t-52.5 -141.5h-270zM582 154
q0 -71 -49.5 -119.5t-124.5 -48.5q-77 0 -128 48.5t-51 119.5t51 119.5t128 48.5q75 0 124.5 -48.5t49.5 -119.5z" />
    <glyph glyph-name="at" unicode="@" horiz-adv-x="2152" 
d="M1516 -12q-107 0 -172 44.5t-84 125.5q-60 -80 -154 -126t-199 -46q-156 0 -244 93.5t-88 254.5q0 153 61.5 285t176 214t256.5 82q176 0 242 -122l18 106h240l-96 -553q-7 -53 -6 -90.5t23 -58.5t66 -21q56 0 101 43t71 111t40 145.5t14 153.5q0 248 -151 384t-429 136
q-236 0 -427 -113.5t-297.5 -309.5t-106.5 -435q0 -254 150.5 -391.5t426.5 -137.5q197 0 350 72l41 -188q-195 -82 -432 -82q-346 0 -554 191.5t-208 512.5q0 226 82 425t225.5 342t346 225.5t434.5 82.5q237 0 412.5 -89t267.5 -247.5t92 -367.5q0 -125 -33 -240.5
t-93 -207.5t-154.5 -147.5t-208.5 -55.5zM1266 510q0 86 -47.5 139t-131.5 53q-112 0 -182.5 -96.5t-70.5 -224.5q0 -83 40.5 -132.5t122.5 -49.5q111 0 190 92.5t79 218.5z" />
    <glyph glyph-name="A" unicode="A" horiz-adv-x="1466" 
d="M1112 0l-94 272h-569l-95 -272h-301l514 1432h334l514 -1432h-303zM940 502l-207 598l-207 -598h414z" />
    <glyph glyph-name="B" unicode="B" horiz-adv-x="1316" 
d="M938 422q0 92 -61 144t-166 52h-283v-385h289q105 0 163 49.5t58 139.5zM903 1018q0 86 -56 133t-157 47h-262v-358h262q102 0 157.5 45.5t55.5 132.5zM1229 387q0 -173 -126 -280t-345 -107h-617v1430h590q219 0 342 -102.5t123 -266.5q0 -125 -67 -208.5t-177 -119.5
q121 -22 199 -120.5t78 -225.5z" />
    <glyph glyph-name="C" unicode="C" horiz-adv-x="1572" 
d="M72 717q0 158 55.5 294.5t152 232t230.5 150t287 54.5q240 0 420 -122.5t251 -340.5h-329q-50 102 -138.5 153.5t-205.5 51.5q-190 0 -309 -128.5t-119 -344.5q0 -215 119 -344t309 -129q117 0 205.5 52t138.5 155h329q-71 -219 -251 -341t-420 -122q-153 0 -287 54
t-230.5 149.5t-152 231.5t-55.5 294z" />
    <glyph glyph-name="D" unicode="D" horiz-adv-x="1468" 
d="M641 1430q226 0 397.5 -88.5t264 -251t92.5 -377.5q0 -324 -205.5 -518.5t-548.5 -194.5h-500v1430h500zM428 244h203q225 0 348 123t123 346q0 224 -123 349.5t-348 125.5h-203v-944z" />
    <glyph glyph-name="E" unicode="E" horiz-adv-x="1089" 
d="M971 1432v-234h-543v-358h481v-228h-481v-379h543v-233h-830v1432h830z" />
    <glyph glyph-name="F" unicode="F" horiz-adv-x="1085" 
d="M141 0v1430h883v-232h-596v-367h457v-227h-457v-604h-287z" />
    <glyph glyph-name="G" unicode="G" horiz-adv-x="1572" 
d="M801 1448q242 0 419.5 -118t245.5 -331h-329q-49 90 -135.5 137.5t-200.5 47.5q-194 0 -314 -127.5t-120 -339.5q0 -216 122.5 -343.5t323.5 -127.5q163 0 268 87t138 242h-492v220h774v-250q-22 -110 -80.5 -210t-146 -177.5t-210.5 -123.5t-261 -46q-154 0 -289.5 54
t-232.5 149.5t-153 231.5t-56 294t56 294.5t153 232t232 150t288 54.5z" />
    <glyph glyph-name="H" unicode="H" horiz-adv-x="1468" 
d="M1040 0v608h-612v-608h-287v1430h287v-588h612v588h287v-1430h-287z" />
    <glyph glyph-name="I" unicode="I" horiz-adv-x="569" 
d="M141 0v1430h287v-1430h-287z" />
    <glyph glyph-name="J" unicode="J" horiz-adv-x="1167" 
d="M686 426v1004h289v-1004q0 -208 -121.5 -324t-323.5 -116q-206 0 -331 119t-125 331h286q2 -92 44 -143t122 -51q78 0 119 49t41 135z" />
    <glyph glyph-name="K" unicode="K" horiz-adv-x="1357" 
d="M948 0l-520 637v-637h-287v1430h287v-642l520 642h346l-589 -709l606 -721h-363z" />
    <glyph glyph-name="L" unicode="L" horiz-adv-x="940" 
d="M141 1430h287v-1203h471v-227h-758v1430z" />
    <glyph glyph-name="M" unicode="M" horiz-adv-x="1841" 
d="M141 0v1430h326l455 -1063l454 1063h324v-1430h-287v930l-383 -930h-217l-385 930v-930h-287z" />
    <glyph glyph-name="N" unicode="N" horiz-adv-x="1505" 
d="M1077 1432h287v-1432h-287l-649 981v-981h-287v1432h287l649 -983v983z" />
    <glyph glyph-name="O" unicode="O" horiz-adv-x="1607" 
d="M1536 719q0 -210 -98 -379t-264.5 -261.5t-368.5 -92.5q-200 0 -367.5 92.5t-266.5 261.5t-99 379q0 209 99 377.5t266.5 261t367.5 92.5q203 0 369.5 -92.5t264 -260.5t97.5 -378zM367 719q0 -217 121 -347t317 -130q195 0 315.5 130t120.5 347q0 216 -120.5 344.5
t-315.5 128.5q-197 0 -317.5 -128.5t-120.5 -344.5z" />
    <glyph glyph-name="P" unicode="P" horiz-adv-x="1245" 
d="M428 780h227q118 0 176 54.5t58 152.5q0 209 -234 209h-227v-416zM1184 987q0 -85 -29.5 -160.5t-89 -139t-162 -101t-235.5 -37.5h-240v-549h-287v1430h527q248 0 382 -124t134 -319z" />
    <glyph glyph-name="Q" unicode="Q" horiz-adv-x="1611" 
d="M367 719q0 -217 121 -347t317 -130q195 0 315.5 130t120.5 347q0 216 -120.5 344.5t-315.5 128.5q-197 0 -317.5 -128.5t-120.5 -344.5zM1536 719q0 -191 -80.5 -347t-220.5 -255l328 -369h-357l-217 260q-90 -22 -184 -22q-200 0 -367.5 92.5t-266.5 261.5t-99 379
q0 209 99 377.5t266.5 261t367.5 92.5q203 0 369.5 -92.5t264 -260.5t97.5 -378z" />
    <glyph glyph-name="R" unicode="R" horiz-adv-x="1312" 
d="M899 985q0 98 -57 152.5t-174 54.5h-240v-420h240q116 0 173.5 56.5t57.5 156.5zM141 1430h537q125 0 225 -34.5t162.5 -95t95.5 -139.5t33 -170t-32.5 -170.5t-108 -145.5t-185.5 -95l342 -580h-331l-316 557h-135v-557h-287v1430z" />
    <glyph glyph-name="S" unicode="S" horiz-adv-x="1247" 
d="M1141 414q0 -85 -34 -162t-96.5 -136.5t-159.5 -94.5t-216 -35q-229 0 -378.5 114.5t-152.5 311.5h308q6 -88 62.5 -139.5t154.5 -51.5q100 0 157.5 48t57.5 126q0 49 -25 86t-68 60t-98 42t-116 36.5t-122 37.5t-116.5 51.5t-97.5 73t-67 106.5t-25 148q0 191 139 302.5
t364 111.5q222 0 360.5 -108t151.5 -300h-315q-5 73 -60 121t-145 49q-88 3 -142 -40t-54 -128q0 -58 40.5 -98.5t105 -64.5t142.5 -46t156.5 -52.5t143 -73t105 -118t40.5 -177.5z" />
    <glyph glyph-name="T" unicode="T" horiz-adv-x="1181" 
d="M66 1198v232h1048v-232h-381v-1198h-287v1198h-380z" />
    <glyph glyph-name="U" unicode="U" horiz-adv-x="1427" 
d="M137 547v883h287v-885q0 -146 75.5 -222.5t213.5 -76.5q139 0 215 76.5t76 222.5v885h288v-883q0 -110 -30.5 -202.5t-84.5 -158t-127.5 -111t-159.5 -67.5t-181 -22q-119 0 -221.5 35.5t-181.5 103t-124 176.5t-45 246z" />
    <glyph glyph-name="V" unicode="V" horiz-adv-x="1456" 
d="M729 293l391 1137h305l-524 -1430h-348l-524 1430h307z" />
    <glyph glyph-name="W" unicode="W" horiz-adv-x="2097" 
d="M430 -2l-385 1432h307l252 -1111l291 1111h319l275 -1104l254 1104h309l-399 -1430h-338l-268 1018l-281 -1018z" />
    <glyph glyph-name="X" unicode="X" horiz-adv-x="1404" 
d="M997 0l-309 481l-280 -481h-324l451 721l-457 709h330l309 -480l278 480h324l-449 -719l457 -711h-330z" />
    <glyph glyph-name="Y" unicode="Y" horiz-adv-x="1302" 
d="M508 498l-485 932h323l307 -654l305 654h320l-483 -932v-498h-287v498z" />
    <glyph glyph-name="Z" unicode="Z" horiz-adv-x="1179" 
d="M1077 1430v-222l-643 -966h643v-242h-975v221l639 967h-639v242h975z" />
    <glyph glyph-name="bracketleft" unicode="[" horiz-adv-x="1017" 
d="M276 -403v2295h515v-233h-244v-1825h244v-237h-515z" />
    <glyph glyph-name="backslash" unicode="\" horiz-adv-x="1548" 
d="M633 1939l586 -2310h-281l-584 2310h279z" />
    <glyph glyph-name="bracketright" unicode="]" horiz-adv-x="1015" 
d="M739 -403v2295h-514v-233h244v-1825h-244v-237h514z" />
    <glyph glyph-name="asciicircum" unicode="^" horiz-adv-x="1392" 
d="M1030 342l-332 752l-338 -752h-292l491 1092h275l491 -1092h-295z" />
    <glyph glyph-name="underscore" unicode="_" horiz-adv-x="1617" 
d="M219 -354v272h1202v-272h-1202z" />
    <glyph glyph-name="grave" unicode="`" horiz-adv-x="555" 
d="M20 1430v233l472 -244v-205z" />
    <glyph glyph-name="a" unicode="a" horiz-adv-x="1388" 
d="M68 571q0 260 148.5 421t369.5 161q127 0 222.5 -51t152.5 -129v162h288v-1135h-288v166q-56 -80 -153 -132t-224 -52q-107 0 -201.5 42.5t-164 118.5t-110 187t-40.5 241zM961 567q0 154 -88.5 244t-213.5 90q-123 0 -211 -88t-88 -242t88.5 -246t210.5 -92
q125 0 213.5 90t88.5 244z" />
    <glyph glyph-name="b" unicode="b" horiz-adv-x="1388" 
d="M428 969q55 82 153 133t222 51q145 0 262.5 -71t186.5 -204.5t69 -306.5q0 -261 -148 -425t-370 -164q-126 0 -222 50t-153 130v-162h-287v1516h287v-547zM1028 571q0 154 -88.5 242t-212.5 88q-123 0 -211 -90t-88 -244t88 -244t211 -90q59 0 113 23t96 65t67 107
t25 143z" />
    <glyph glyph-name="c" unicode="c" horiz-adv-x="1232" 
d="M68 567q0 265 156.5 425.5t404.5 160.5q211 0 349.5 -105t184.5 -296h-309q-26 74 -83 115.5t-144 41.5q-122 0 -194.5 -89.5t-72.5 -252.5t72 -251.5t195 -88.5q173 0 227 156h309q-47 -185 -186.5 -293t-347.5 -108q-248 0 -404.5 160t-156.5 425z" />
    <glyph glyph-name="d" unicode="d" horiz-adv-x="1388" 
d="M68 571q0 130 40.5 240t110.5 184.5t165 116t204 41.5q112 0 211.5 -48t158.5 -128v539h291v-1516h-291v168q-55 -83 -150 -134.5t-222 -51.5q-108 0 -203 42.5t-164.5 118.5t-110 187t-40.5 241zM961 567q0 154 -88.5 244t-213.5 90q-123 0 -211 -88t-88 -242t88.5 -246
t210.5 -92q125 0 213.5 90t88.5 244z" />
    <glyph glyph-name="e" unicode="e" horiz-adv-x="1263" 
d="M629 918q-105 0 -178.5 -64.5t-90.5 -179.5h539q-3 110 -80 177t-190 67zM1167 356q-48 -164 -187.5 -269t-342.5 -105q-250 0 -409.5 160.5t-159.5 424.5q0 266 157.5 426t411.5 160q248 0 403.5 -154.5t155.5 -406.5q0 -62 -8 -111h-830q10 -123 86 -192.5t187 -69.5
q160 0 227 137h309z" />
    <glyph glyph-name="f" unicode="f" horiz-adv-x="706" 
d="M172 0v899h-129v236h129v57q0 208 118.5 306.5t358.5 92.5v-241q-104 3 -145 -34.5t-41 -133.5v-47h199v-236h-199v-899h-291z" />
    <glyph glyph-name="g" unicode="g" horiz-adv-x="1388" 
d="M68 571q0 260 148.5 421t369.5 161q126 0 223 -50.5t152 -129.5v162h288v-1143q0 -116 -36 -215.5t-104 -175t-176.5 -118t-244.5 -42.5q-240 0 -394.5 113t-176.5 307h284q22 -77 97.5 -123.5t181.5 -46.5q126 0 203.5 75t77.5 226v176q-56 -81 -153 -133.5t-222 -52.5
q-108 0 -203 42.5t-164.5 118.5t-110 187t-40.5 241zM961 567q0 154 -88.5 244t-213.5 90q-123 0 -211 -88t-88 -242t88.5 -246t210.5 -92q125 0 213.5 90t88.5 244z" />
    <glyph glyph-name="h" unicode="h" horiz-adv-x="1353" 
d="M141 0v1516h287v-523q57 74 148.5 116t203.5 42q198 0 320.5 -128t122.5 -357v-666h-287v627q0 134 -68 207t-184 73q-119 0 -187.5 -73t-68.5 -207v-627h-287z" />
    <glyph glyph-name="i" unicode="i" horiz-adv-x="569" 
d="M141 0v1135h287v-1135h-287zM287 1270q-76 0 -126 48.5t-50 119.5t50 119.5t126 48.5q75 0 125.5 -48.5t50.5 -119.5t-50.5 -119.5t-125.5 -48.5z" />
    <glyph glyph-name="j" unicode="j" horiz-adv-x="569" 
d="M287 1270q-77 0 -127.5 48.5t-50.5 119.5t50.5 119.5t127.5 48.5q75 0 124.5 -48.5t49.5 -119.5t-49.5 -119.5t-124.5 -48.5zM141 1135h287v-1321q0 -188 -93.5 -271.5t-266.5 -83.5h-127v244h82q65 0 91.5 25.5t26.5 83.5v1323z" />
    <glyph glyph-name="k" unicode="k" horiz-adv-x="1196" 
d="M141 0v1516h287v-863l381 482h373l-500 -570l504 -565h-373l-385 483v-483h-287z" />
    <glyph glyph-name="l" unicode="l" horiz-adv-x="569" 
d="M141 0v1516h287v-1516h-287z" />
    <glyph glyph-name="m" unicode="m" horiz-adv-x="2146" 
d="M1729 0v627q0 132 -67.5 203t-184.5 71q-118 0 -186 -70.5t-68 -203.5v-627h-287v627q0 132 -67.5 203t-184.5 71q-119 0 -187.5 -70.5t-68.5 -203.5v-627h-287v1135h287v-138q55 72 142.5 113t191.5 41q133 0 237 -56t162 -161q56 98 161 157.5t228 59.5
q209 0 337 -127.5t128 -357.5v-666h-286z" />
    <glyph glyph-name="n" unicode="n" horiz-adv-x="1353" 
d="M936 0v627q0 134 -68 207t-184 73q-119 0 -187.5 -73t-68.5 -207v-627h-287v1135h287v-142q57 73 146 115.5t196 42.5q203 0 328 -128t125 -357v-666h-287z" />
    <glyph glyph-name="o" unicode="o" horiz-adv-x="1306" 
d="M1237 567q0 -174 -79.5 -308.5t-213.5 -205.5t-299 -71q-164 0 -294 71t-205.5 205.5t-75.5 308.5q0 175 77.5 309.5t209.5 205.5t296 71t296.5 -71t210 -205.5t77.5 -309.5zM360 567q0 -161 81.5 -248.5t203.5 -87.5q123 0 210 88t87 248q0 161 -85 248.5t-208 87.5
q-122 0 -205.5 -87t-83.5 -249z" />
    <glyph glyph-name="p" unicode="p" horiz-adv-x="1388" 
d="M428 971q56 79 153.5 130.5t221.5 51.5q145 0 262.5 -71t186.5 -204.5t69 -306.5q0 -261 -148 -425t-370 -164q-124 0 -220 51t-155 129v-703h-287v1676h287v-164zM1028 571q0 154 -88.5 242t-212.5 88q-123 0 -211 -90t-88 -244t88 -244t211 -90q59 0 113 23t96 65
t67 107t25 143z" />
    <glyph glyph-name="q" unicode="q" horiz-adv-x="1388" 
d="M68 569q0 170 71 304t191 206t266 72q120 0 214 -46t151 -118v148h288v-1676h-288v697q-58 -74 -154 -123t-217 -49q-219 0 -370.5 164.5t-151.5 420.5zM961 567q0 155 -90.5 244.5t-211.5 89.5q-76 0 -142.5 -36t-111.5 -113.5t-45 -182.5q0 -155 90 -245.5t209 -90.5
q121 0 211.5 89.5t90.5 244.5z" />
    <glyph glyph-name="r" unicode="r" horiz-adv-x="827" 
d="M428 565v-565h-287v1135h287v-177q56 91 144.5 142t203.5 51v-301h-76q-135 0 -203.5 -64t-68.5 -221z" />
    <glyph glyph-name="s" unicode="s" horiz-adv-x="1116" 
d="M1022 324q0 -149 -122 -245.5t-325 -96.5q-210 0 -348 107.5t-147 268.5h289q8 -66 63.5 -108.5t140.5 -42.5q82 0 128.5 33t46.5 84q0 41 -35.5 69t-92 44.5t-125 32.5t-137 40.5t-125 59t-92 96.5t-35.5 147q0 146 122 243t327 97q203 0 324 -102t133 -273h-275
q-6 67 -56.5 107.5t-133.5 40.5q-78 0 -120 -29.5t-42 -79.5q0 -42 34.5 -70.5t90.5 -45.5t123 -33.5t135 -40.5t124 -59t92 -97t38 -147z" />
    <glyph glyph-name="t" unicode="t" horiz-adv-x="794" 
d="M186 352v547h-135v236h135v280h289v-280h254v-236h-254v-549q0 -58 27 -83t94 -25h133v-242h-180q-363 0 -363 352z" />
    <glyph glyph-name="u" unicode="u" horiz-adv-x="1353" 
d="M1212 1135v-1135h-288v143q-55 -73 -144 -115t-194 -42q-203 0 -329 127.5t-126 355.5v666h287v-625q0 -134 68 -207.5t184 -73.5q119 0 186.5 73t67.5 208v625h288z" />
    <glyph glyph-name="v" unicode="v" horiz-adv-x="1226" 
d="M20 1135h308l286 -871l287 871h305l-420 -1135h-348z" />
    <glyph glyph-name="w" unicode="w" horiz-adv-x="1728" 
d="M348 0l-334 1135h291l201 -865l217 865h303l213 -863l201 863h274l-332 -1135h-309l-207 793l-207 -793h-311z" />
    <glyph glyph-name="x" unicode="x" horiz-adv-x="1105" 
d="M768 0l-233 352l-207 -352h-308l371 569l-375 566h324l231 -351l209 351h307l-372 -566l377 -569h-324z" />
    <glyph glyph-name="y" unicode="y" horiz-adv-x="1239" 
d="M625 342l297 793h305l-703 -1672h-305l246 566l-455 1106h322z" />
    <glyph glyph-name="z" unicode="z" horiz-adv-x="989" 
d="M903 1135v-232l-500 -667h506v-236h-831v231l495 668h-493v236h823z" />
    <glyph glyph-name="braceleft" unicode="{" horiz-adv-x="1040" 
d="M424 459q0 76 -50.5 121.5t-148.5 52.5v223q99 9 149 53.5t50 120.5q0 69 -19.5 256.5t-19.5 272.5q0 159 95.5 248t252.5 89h141v-241h-86q-126 0 -126 -121q0 -60 17 -244.5t17 -269.5q0 -108 -53 -179.5t-162 -92.5v-5q109 -23 162 -94t53 -180q0 -84 -17 -268.5
t-17 -243.5q0 -63 30.5 -92t95.5 -29h86v-244h-141q-157 0 -252.5 89t-95.5 249q0 85 19.5 273t19.5 256z" />
    <glyph glyph-name="bar" unicode="|" 
d="M172 1655h289v-1903h-289v1903z" />
    <glyph glyph-name="braceright" unicode="}" horiz-adv-x="1040" 
d="M616 459q0 76 50.5 121.5t148.5 52.5v223q-99 9 -149 53.5t-50 120.5q0 69 19.5 256.5t19.5 272.5q0 159 -95.5 248t-252.5 89h-141v-241h86q127 0 127 -121q0 -60 -17.5 -244.5t-17.5 -269.5q0 -108 53 -179.5t162 -92.5v-5q-109 -23 -162 -94t-53 -180
q0 -84 17.5 -268.5t17.5 -243.5q0 -63 -31 -92t-96 -29h-86v-244h141q157 0 252.5 89t95.5 249q0 85 -19.5 273t-19.5 256z" />
    <glyph glyph-name="asciitilde" unicode="~" horiz-adv-x="1212" 
d="M66 459q34 199 128 293t236 94q57 0 112.5 -21t92 -45.5t82 -45.5t84.5 -21q53 0 88.5 33t44.5 98h213q-34 -197 -129.5 -292t-237.5 -95q-57 0 -112 21t-90.5 45.5t-80.5 45.5t-85 21q-54 0 -91 -33.5t-47 -97.5h-208z" />
    <glyph glyph-name="uni00A0" unicode="&#xa0;" horiz-adv-x="487" 
 />
    <glyph glyph-name="exclamdown" unicode="&#xa1;" horiz-adv-x="724" 
d="M238 686l-35 -989h309l-33 989h-241zM539 997q0 71 -49.5 119.5t-124.5 48.5q-77 0 -128 -48.5t-51 -119.5t51 -119.5t128 -48.5q75 0 124.5 48.5t49.5 119.5z" />
    <glyph glyph-name="cent" unicode="&#xa2;" horiz-adv-x="1357" 
d="M1155 373q-15 -156 -134 -258t-300 -119v-174h-131v174q-228 21 -352.5 165.5t-124.5 366.5t124.5 367t352.5 166v174h131v-174q181 -17 300 -119t134 -258h-266q-47 145 -230 145q-127 0 -200.5 -80.5t-73.5 -220.5t73.5 -220.5t200.5 -80.5q93 0 151 38.5t79 107.5h266
z" />
    <glyph glyph-name="sterling" unicode="&#xa3;" horiz-adv-x="1339" 
d="M209 1053q0 209 132 328.5t347 119.5q116 0 206.5 -35t147 -97t86.5 -142t33 -174h-264q-2 97 -51 154t-154 57q-97 0 -153 -58t-56 -176q0 -84 45 -229h385v-197h-333q4 -32 4 -49q0 -89 -34.5 -176t-103.5 -156h725v-229h-993l-45 147q92 91 135 184t43 232q0 15 -4 47
h-227v197h170q-41 143 -41 252z" />
    <glyph glyph-name="currency" unicode="&#xa4;" horiz-adv-x="1148" 
d="M745 772q0 93 -49.5 145t-120.5 52q-72 0 -120.5 -51.5t-48.5 -145.5t47.5 -144t119.5 -50q71 0 121.5 50.5t50.5 143.5zM909 324l-129 127q-92 -45 -207 -45q-116 0 -204 45l-127 -127l-119 118l117 117q-64 89 -64 213q0 125 66 217l-119 119l119 119l131 -131
q85 43 202 43q118 0 203 -43l131 131l117 -119l-115 -117q68 -90 68 -219q0 -122 -68 -215l115 -115z" />
    <glyph glyph-name="yen" unicode="&#xa5;" horiz-adv-x="1302" 
d="M508 498l-72 139l-338 2v199h234l-309 592h323l305 -668l303 668h324l-307 -592h233v-199l-338 -4l-71 -137v-19h409v-198h-409v-281h-287v281h-410v198h410v19z" />
    <glyph glyph-name="brokenbar" unicode="&#xa6;" horiz-adv-x="716" 
d="M215 569h287v-817h-287v817zM502 838h-287v817h287v-817z" />
    <glyph glyph-name="section" unicode="&#xa7;" horiz-adv-x="1191" 
d="M143 1094q0 151 123 251.5t332 100.5q198 0 319 -97.5t125 -263.5h-286q-5 77 -45 118.5t-115 41.5q-78 0 -121 -33.5t-43 -97.5q0 -66 64 -112t254 -119q186 -72 277 -162t91 -221q0 -216 -233 -318q164 -113 164 -276q0 -151 -123 -251.5t-332 -100.5q-198 0 -319 97
t-125 263h286q13 -160 160 -160q78 0 121 33.5t43 97.5q0 66 -64.5 112.5t-253.5 119.5q-186 72 -277 162t-91 221q0 107 57.5 189t175.5 128q-164 113 -164 277zM819 500q0 80 -61.5 134t-161.5 54q-101 0 -161 -54.5t-60 -133.5t61 -134t162 -55t161 54.5t60 134.5z" />
    <glyph glyph-name="dieresis" unicode="&#xa8;" horiz-adv-x="692" 
d="M156 1270q-57 0 -96.5 39t-39.5 96t39.5 97t96.5 40t97 -40t40 -97t-40 -96t-97 -39zM535 1270q-57 0 -96.5 39t-39.5 96t39.5 97t96.5 40t97 -40t40 -97t-40 -96t-97 -39z" />
    <glyph glyph-name="copyright" unicode="&#xa9;" horiz-adv-x="1607" 
d="M86 717q0 213 90.5 380t254.5 260t374 93q157 0 290.5 -54.5t227 -150.5t146.5 -232.5t53 -295.5t-53 -295.5t-146.5 -232.5t-227 -150.5t-290.5 -54.5q-210 0 -374 93t-254.5 260t-90.5 380zM1409 717q0 288 -163 458.5t-441 170.5q-279 0 -442.5 -170.5t-163.5 -458.5
q0 -285 164 -458t442 -173q276 0 440 173t164 458zM1225 866q-35 149 -148.5 233.5t-273.5 84.5q-197 0 -324 -127.5t-127 -337.5q0 -211 127 -339t324 -128q158 0 272 87t150 230h-252q-23 -58 -64.5 -88t-111.5 -30q-93 0 -148 69t-55 199t54.5 198t148.5 68
q66 0 111.5 -31t64.5 -88h252z" />
    <glyph glyph-name="ordfeminine" unicode="&#xaa;" horiz-adv-x="946" 
d="M406 713q-149 0 -249 103.5t-100 268.5q0 164 99 266.5t243 102.5q168 0 252 -106v94h221v-719h-221v92q-81 -102 -245 -102zM469 1282q-76 0 -130 -53.5t-54 -145.5t54 -145t130 -53t129 52.5t53 145.5q0 92 -53 145.5t-129 53.5z" />
    <glyph glyph-name="guillemotleft" unicode="&#xab;" horiz-adv-x="1067" 
d="M356 604l189 -358h-273l-180 358l180 359h273zM780 604l189 -358h-271l-182 358l182 359h271z" />
    <glyph glyph-name="logicalnot" unicode="&#xac;" horiz-adv-x="1394" 
d="M84 676v221h1208v-498h-286v277h-922z" />
    <glyph glyph-name="uni00AD" unicode="&#xad;" horiz-adv-x="1193" 
d="M145 610v242h869v-242h-869z" />
    <glyph glyph-name="registered" unicode="&#xae;" horiz-adv-x="1056" 
d="M528 1348q-148 0 -235.5 -91t-87.5 -241q0 -149 87.5 -239.5t235.5 -90.5t237 90.5t89 239.5q0 150 -88.5 241t-237.5 91zM528 582q-190 0 -313 122.5t-123 311.5q0 192 122.5 314t313.5 122t313 -122t122 -314q0 -189 -122.5 -311.5t-312.5 -122.5zM721 1098
q0 -90 -82 -127l106 -168h-159l-88 153h-13v-153h-137v438h215q71 0 114.5 -39.5t43.5 -103.5zM549 1122h-66v-63h66q15 0 25 8.5t10 24.5q0 30 -35 30z" />
    <glyph glyph-name="macron" unicode="&#xaf;" horiz-adv-x="823" 
d="M20 1294v205h783v-205h-783z" />
    <glyph glyph-name="degree" unicode="&#xb0;" horiz-adv-x="909" 
d="M55 1079q0 167 111.5 266t290.5 99q176 0 286.5 -99t110.5 -266t-112 -267.5t-289 -100.5t-287.5 100.5t-110.5 267.5zM629 1077q0 100 -51.5 154.5t-124.5 54.5q-72 0 -123 -54.5t-51 -154.5q0 -99 50.5 -152t123.5 -53q72 0 124 53.5t52 151.5z" />
    <glyph glyph-name="plusminus" unicode="&#xb1;" horiz-adv-x="1384" 
d="M557 1276h272v-279h385v-249h-385v-254h385v-250h-1044v250h387v254h-387v249h387v279z" />
    <glyph glyph-name="twosuperior" unicode="&#xb2;" horiz-adv-x="737" 
d="M61 1221q6 107 88 172t224 65q135 0 212 -68t77 -161q0 -74 -50 -130.5t-166 -123.5l-141 -80h352v-174h-587v164l233 157q127 87 127 172q0 38 -20.5 60t-53.5 22q-63 0 -73 -75h-222z" />
    <glyph glyph-name="threesuperior" unicode="&#xb3;" horiz-adv-x="731" 
d="M45 1231q5 100 87.5 163.5t229.5 63.5q130 0 215 -62t85 -153q0 -62 -35.5 -102t-96.5 -54v-6q66 -20 104 -62t38 -104q0 -89 -88 -146.5t-226 -57.5q-151 0 -234 63t-89 174h221q12 -78 92 -78q39 0 63.5 21.5t24.5 58.5q0 38 -26.5 59t-71.5 21h-72v117h64q96 0 96 78
q0 34 -22 53.5t-62 19.5q-76 0 -88 -67h-209z" />
    <glyph glyph-name="acute" unicode="&#xb4;" horiz-adv-x="512" 
d="M20 1419l472 244v-233l-472 -216v205z" />
    <glyph glyph-name="uni00B5" unicode="&#xb5;" horiz-adv-x="1388" 
d="M1235 1135v-1135h-289v174q-53 -91 -144.5 -139.5t-209.5 -48.5q-92 0 -154 39v-566h-284v1676h284v-625q0 -132 69 -204.5t185 -72.5q118 0 186 72t68 205v625h289z" />
    <glyph glyph-name="paragraph" unicode="&#xb6;" horiz-adv-x="1363" 
d="M551 1430h659v-1430h-243v1208h-133v-1208h-246v569h-37q-124 0 -219 34.5t-152 94.5t-85.5 136t-28.5 165q0 70 17.5 133t55.5 118t94 94.5t137.5 62.5t180.5 23z" />
    <glyph glyph-name="periodcentered" unicode="&#xb7;" horiz-adv-x="552" 
d="M457 668q0 -71 -49.5 -119.5t-124.5 -48.5q-77 0 -128 48.5t-51 119.5t51 119.5t128 48.5q75 0 124.5 -48.5t49.5 -119.5z" />
    <glyph glyph-name="cedilla" unicode="&#xb8;" horiz-adv-x="604" 
d="M317 14v-102q112 0 189.5 -57t77.5 -166q0 -110 -79 -170t-194 -60h-291v168h244q101 0 101 66q0 36 -25.5 49.5t-75.5 13.5h-127v258h180z" />
    <glyph glyph-name="onesuperior" unicode="&#xb9;" horiz-adv-x="466" 
d="M158 721v553h-117v168h336v-721h-219z" />
    <glyph glyph-name="ordmasculine" unicode="&#xba;" horiz-adv-x="921" 
d="M57 1081q0 166 113.5 268.5t290.5 102.5q178 0 290.5 -102.5t112.5 -268.5q0 -163 -114.5 -266.5t-290.5 -103.5q-177 0 -289.5 103t-112.5 267zM639 1079q0 96 -52.5 149.5t-127.5 53.5q-73 0 -123.5 -53t-50.5 -150q0 -93 50 -144.5t124 -51.5t127 52t53 144z" />
    <glyph glyph-name="guillemotright" unicode="&#xbb;" horiz-adv-x="1067" 
d="M797 246h-271l189 358l-189 359h271l182 -359zM373 246h-271l187 358l-187 359h271l182 -359z" />
    <glyph glyph-name="onequarter" unicode="&#xbc;" horiz-adv-x="1495" 
d="M154 0l786 1432h272l-784 -1432h-274zM1337 264h86v-131h-86v-133h-221v133h-389v119l305 471h305v-459zM942 266h182v299zM193 721v553h-117v168h336v-721h-219z" />
    <glyph glyph-name="onehalf" unicode="&#xbd;" horiz-adv-x="1550" 
d="M154 0l772 1434h276l-774 -1434h-274zM193 721v553h-117v168h336v-721h-219zM844 498q6 107 88 172t223 65q135 0 212 -68t77 -161q0 -74 -49.5 -130.5t-165.5 -123.5l-142 -80h353v-174h-588v164l233 157q127 87 127 173q0 38 -20 59.5t-53 21.5q-64 0 -74 -75h-221z
" />
    <glyph glyph-name="threequarters" unicode="&#xbe;" horiz-adv-x="1660" 
d="M346 0l807 1434h274l-806 -1434h-275zM1526 264h88v-131h-88v-133h-219v133h-389v119l292 471h316v-459zM1130 264h185v311zM94 1231q5 100 88 163.5t230 63.5q130 0 214.5 -62t84.5 -153q0 -63 -35 -102.5t-96 -53.5v-6q66 -20 103.5 -62t37.5 -104q0 -89 -87.5 -146.5
t-225.5 -57.5q-151 0 -234.5 63t-89.5 174h221q12 -78 92 -78q39 0 63.5 21.5t24.5 58.5q0 38 -26.5 59t-71.5 21h-72v117h64q96 0 96 78q0 34 -22 53.5t-62 19.5q-76 0 -88 -67h-209z" />
    <glyph glyph-name="questiondown" unicode="&#xbf;" horiz-adv-x="1101" 
d="M1030 98q3 -190 -123 -311t-346 -121q-213 0 -343 115.5t-130 318.5q0 200 129.5 306t341.5 106l8 158h252l10 -348h-92q-68 0 -121 -5.5t-101.5 -20.5t-80 -39.5t-50 -64.5t-17.5 -94q0 -89 51.5 -140.5t142.5 -51.5q94 0 146.5 50.5t52.5 141.5h270zM520 991
q0 71 49.5 119.5t124.5 48.5q77 0 127.5 -48.5t50.5 -119.5t-50.5 -119.5t-127.5 -48.5q-75 0 -124.5 48.5t-49.5 119.5z" />
    <glyph glyph-name="Agrave" unicode="&#xc0;" horiz-adv-x="1466" 
d="M1112 0l-94 272h-569l-95 -272h-301l514 1432h334l514 -1432h-303zM485 1726v234l471 -244v-205zM940 502l-207 598l-207 -598h414z" />
    <glyph glyph-name="Aacute" unicode="&#xc1;" horiz-adv-x="1466" 
d="M1112 0l-94 272h-569l-95 -272h-301l514 1432h334l514 -1432h-303zM485 1716l471 244v-234l-471 -215v205zM940 502l-207 598l-207 -598h414z" />
    <glyph glyph-name="Acircumflex" unicode="&#xc2;" horiz-adv-x="1466" 
d="M1112 0l-94 272h-569l-95 -272h-301l514 1432h334l514 -1432h-303zM1038 1720v-209l-303 172l-305 -172v209l305 166zM940 502l-207 598l-207 -598h414z" />
    <glyph glyph-name="Atilde" unicode="&#xc3;" horiz-adv-x="1466" 
d="M1112 0l-94 272h-569l-95 -272h-301l514 1432h334l514 -1432h-303zM365 1540q20 136 85.5 202t167.5 66q50 0 95.5 -22.5t84.5 -45t72 -22.5q76 0 88 88h154q-20 -135 -86 -201.5t-168 -66.5q-50 0 -95.5 23t-84.5 46t-72 23q-75 0 -90 -90h-151zM940 502l-207 598
l-207 -598h414z" />
    <glyph glyph-name="Adieresis" unicode="&#xc4;" horiz-adv-x="1466" 
d="M1112 0l-94 272h-569l-95 -272h-301l514 1432h334l514 -1432h-303zM543 1567q-57 0 -96 39t-39 96t39 97t96 40t97 -40t40 -97t-40 -96t-97 -39zM922 1567q-57 0 -96.5 39t-39.5 96t39.5 97t96.5 40t97 -40t40 -97t-40 -96t-97 -39zM940 502l-207 598l-207 -598h414z" />
    <glyph glyph-name="Aring" unicode="&#xc5;" horiz-adv-x="1466" 
d="M1112 0l-94 272h-569l-95 -272h-301l514 1432h334l514 -1432h-303zM735 1663q41 0 70 29.5t29 72.5q0 46 -29 74.5t-70 28.5t-69.5 -28.5t-28.5 -74.5q0 -44 29 -73t69 -29zM735 2001q102 0 171 -65t69 -171t-69 -170.5t-171 -64.5q-101 0 -170 64.5t-69 170.5t69 171
t170 65zM940 502l-207 598l-207 -598h414z" />
    <glyph glyph-name="AE" unicode="&#xc6;" horiz-adv-x="1918" 
d="M975 1223l-385 -734h385v734zM1800 1206h-536v-368h475v-222h-475v-389h536v-227h-825v268h-502l-141 -268h-314l762 1432h1020v-226z" />
    <glyph glyph-name="Ccedilla" unicode="&#xc7;" horiz-adv-x="1572" 
d="M72 717q0 158 55.5 294.5t152 232t230.5 150t287 54.5q240 0 420 -122.5t251 -340.5h-329q-50 102 -138.5 153.5t-205.5 51.5q-190 0 -309 -128.5t-119 -344.5q0 -215 119 -344t309 -129q117 0 205.5 52t138.5 155h329q-64 -197 -218 -317t-363 -142v-84q112 0 189 -57
t77 -166q0 -110 -78.5 -170t-193.5 -60h-291v168h244q49 0 74.5 15t25.5 51t-25 49.5t-75 13.5h-127v240q-278 31 -456.5 231.5t-178.5 493.5z" />
    <glyph glyph-name="Egrave" unicode="&#xc8;" horiz-adv-x="1089" 
d="M971 1432v-234h-543v-358h481v-228h-481v-379h543v-233h-830v1432h830zM299 1726v234l471 -244v-205z" />
    <glyph glyph-name="Eacute" unicode="&#xc9;" horiz-adv-x="1089" 
d="M971 1432v-234h-543v-358h481v-228h-481v-379h543v-233h-830v1432h830zM299 1716l471 244v-234l-471 -215v205z" />
    <glyph glyph-name="Ecircumflex" unicode="&#xca;" horiz-adv-x="1089" 
d="M971 1432v-234h-543v-358h481v-228h-481v-379h543v-233h-830v1432h830zM850 1720v-209l-303 172l-305 -172v209l305 166z" />
    <glyph glyph-name="Edieresis" unicode="&#xcb;" horiz-adv-x="1089" 
d="M971 1432v-234h-543v-358h481v-228h-481v-379h543v-233h-830v1432h830zM356 1567q-57 0 -96 39t-39 96t39 97t96 40t97.5 -40t40.5 -97t-40.5 -96t-97.5 -39zM735 1567q-57 0 -96 39t-39 96t39 97t96 40t97 -40t40 -97t-40 -96t-97 -39z" />
    <glyph glyph-name="Igrave" unicode="&#xcc;" horiz-adv-x="569" 
d="M141 0v1430h287v-1430h-287zM37 1726v234l471 -244v-205z" />
    <glyph glyph-name="Iacute" unicode="&#xcd;" horiz-adv-x="569" 
d="M141 0v1430h287v-1430h-287zM37 1716l471 244v-234l-471 -215v205z" />
    <glyph glyph-name="Icircumflex" unicode="&#xce;" horiz-adv-x="569" 
d="M141 0v1430h287v-1430h-287zM590 1720v-209l-303 172l-305 -172v209l305 166z" />
    <glyph glyph-name="Idieresis" unicode="&#xcf;" horiz-adv-x="569" 
d="M141 0v1430h287v-1430h-287zM94 1567q-57 0 -96 39t-39 96t39 97t96 40t97 -40t40 -97t-40 -96t-97 -39zM473 1567q-57 0 -96 39t-39 96t39 97t96 40t97 -40t40 -97t-40 -96t-97 -39z" />
    <glyph glyph-name="Eth" unicode="&#xd0;" horiz-adv-x="1486" 
d="M659 1430q226 0 397.5 -88.5t264 -251t92.5 -377.5q0 -324 -205.5 -518.5t-548.5 -194.5h-501v588h-144v250h144v592h501zM446 233h203q224 0 346.5 127.5t122.5 352.5q0 224 -122.5 350.5t-346.5 126.5h-203v-352h342v-250h-342v-355z" />
    <glyph glyph-name="Ntilde" unicode="&#xd1;" horiz-adv-x="1505" 
d="M1077 1432h287v-1432h-287l-649 981v-981h-287v1432h287l649 -983v983zM385 1540q20 135 86 201.5t168 66.5q50 0 95.5 -22.5t84.5 -45t72 -22.5q76 0 88 88h154q-20 -135 -86 -201.5t-168 -66.5q-50 0 -95.5 23t-84.5 46t-72 23q-75 0 -90 -90h-152z" />
    <glyph glyph-name="Ograve" unicode="&#xd2;" horiz-adv-x="1607" 
d="M1536 719q0 -210 -98 -379t-264.5 -261.5t-368.5 -92.5q-200 0 -367.5 92.5t-266.5 261.5t-99 379q0 209 99 377.5t266.5 261t367.5 92.5q203 0 369.5 -92.5t264 -260.5t97.5 -378zM367 719q0 -217 121 -347t317 -130q195 0 315.5 130t120.5 347q0 216 -120.5 344.5
t-315.5 128.5q-197 0 -317.5 -128.5t-120.5 -344.5zM557 1726v234l471 -244v-205z" />
    <glyph glyph-name="Oacute" unicode="&#xd3;" horiz-adv-x="1607" 
d="M1536 719q0 -210 -98 -379t-264.5 -261.5t-368.5 -92.5q-200 0 -367.5 92.5t-266.5 261.5t-99 379q0 209 99 377.5t266.5 261t367.5 92.5q203 0 369.5 -92.5t264 -260.5t97.5 -378zM367 719q0 -217 121 -347t317 -130q195 0 315.5 130t120.5 347q0 216 -120.5 344.5
t-315.5 128.5q-197 0 -317.5 -128.5t-120.5 -344.5zM557 1716l471 244v-234l-471 -215v205z" />
    <glyph glyph-name="Ocircumflex" unicode="&#xd4;" horiz-adv-x="1607" 
d="M1536 719q0 -210 -98 -379t-264.5 -261.5t-368.5 -92.5q-200 0 -367.5 92.5t-266.5 261.5t-99 379q0 209 99 377.5t266.5 261t367.5 92.5q203 0 369.5 -92.5t264 -260.5t97.5 -378zM367 719q0 -217 121 -347t317 -130q195 0 315.5 130t120.5 347q0 216 -120.5 344.5
t-315.5 128.5q-197 0 -317.5 -128.5t-120.5 -344.5zM1108 1720v-209l-303 172l-305 -172v209l305 166z" />
    <glyph glyph-name="Otilde" unicode="&#xd5;" horiz-adv-x="1607" 
d="M1536 719q0 -210 -98 -379t-264.5 -261.5t-368.5 -92.5q-200 0 -367.5 92.5t-266.5 261.5t-99 379q0 209 99 377.5t266.5 261t367.5 92.5q203 0 369.5 -92.5t264 -260.5t97.5 -378zM367 719q0 -217 121 -347t317 -130q195 0 315.5 130t120.5 347q0 216 -120.5 344.5
t-315.5 128.5q-197 0 -317.5 -128.5t-120.5 -344.5zM436 1540q20 135 86 201.5t168 66.5q50 0 95.5 -22.5t84.5 -45t72 -22.5q76 0 88 88h154q-20 -135 -86 -201.5t-168 -66.5q-50 0 -95.5 23t-84.5 46t-72 23q-75 0 -90 -90h-152z" />
    <glyph glyph-name="Odieresis" unicode="&#xd6;" horiz-adv-x="1607" 
d="M1536 719q0 -210 -98 -379t-264.5 -261.5t-368.5 -92.5q-200 0 -367.5 92.5t-266.5 261.5t-99 379q0 209 99 377.5t266.5 261t367.5 92.5q203 0 369.5 -92.5t264 -260.5t97.5 -378zM367 719q0 -217 121 -347t317 -130q195 0 315.5 130t120.5 347q0 216 -120.5 344.5
t-315.5 128.5q-197 0 -317.5 -128.5t-120.5 -344.5zM614 1567q-57 0 -96 39t-39 96t39 97t96 40t97.5 -40t40.5 -97t-40.5 -96t-97.5 -39zM993 1567q-57 0 -96 39t-39 96t39 97t96 40t97 -40t40 -97t-40 -96t-97 -39z" />
    <glyph glyph-name="multiply" unicode="&#xd7;" horiz-adv-x="1372" 
d="M387 254l-186 186l297 299l-289 289l186 186l289 -288l289 288l188 -186l-289 -289l299 -301l-188 -186l-299 299z" />
    <glyph glyph-name="Oslash" unicode="&#xd8;" horiz-adv-x="1607" 
d="M1536 719q0 -210 -98 -379t-264.5 -261.5t-368.5 -92.5q-250 0 -443 141l-114 -127h-199l205 225q-182 205 -182 494q0 209 99 377.5t266.5 261t367.5 92.5q248 0 442 -139l113 123h199l-203 -224q180 -199 180 -491zM367 719q0 -170 75 -289l623 682q-110 80 -260 80
q-197 0 -317.5 -128.5t-120.5 -344.5zM805 242q195 0 315.5 130t120.5 347q0 167 -76 285l-622 -682q113 -80 262 -80z" />
    <glyph glyph-name="Ugrave" unicode="&#xd9;" horiz-adv-x="1427" 
d="M137 547v883h287v-885q0 -146 75.5 -222.5t213.5 -76.5q139 0 215 76.5t76 222.5v885h288v-883q0 -110 -30.5 -202.5t-84.5 -158t-127.5 -111t-159.5 -67.5t-181 -22q-119 0 -221.5 35.5t-181.5 103t-124 176.5t-45 246zM465 1726v234l471 -244v-205z" />
    <glyph glyph-name="Uacute" unicode="&#xda;" horiz-adv-x="1427" 
d="M137 547v883h287v-885q0 -146 75.5 -222.5t213.5 -76.5q139 0 215 76.5t76 222.5v885h288v-883q0 -110 -30.5 -202.5t-84.5 -158t-127.5 -111t-159.5 -67.5t-181 -22q-119 0 -221.5 35.5t-181.5 103t-124 176.5t-45 246zM465 1716l471 244v-234l-471 -215v205z" />
    <glyph glyph-name="Ucircumflex" unicode="&#xdb;" horiz-adv-x="1427" 
d="M137 547v883h287v-885q0 -146 75.5 -222.5t213.5 -76.5q139 0 215 76.5t76 222.5v885h288v-883q0 -110 -30.5 -202.5t-84.5 -158t-127.5 -111t-159.5 -67.5t-181 -22q-119 0 -221.5 35.5t-181.5 103t-124 176.5t-45 246zM1018 1720v-209l-303 172l-305 -172v209l305 166z
" />
    <glyph glyph-name="Udieresis" unicode="&#xdc;" horiz-adv-x="1427" 
d="M137 547v883h287v-885q0 -146 75.5 -222.5t213.5 -76.5q139 0 215 76.5t76 222.5v885h288v-883q0 -110 -30.5 -202.5t-84.5 -158t-127.5 -111t-159.5 -67.5t-181 -22q-119 0 -221.5 35.5t-181.5 103t-124 176.5t-45 246zM524 1567q-57 0 -96 39t-39 96t39 97t96 40
t97.5 -40t40.5 -97t-40.5 -96t-97.5 -39zM903 1567q-57 0 -96 39t-39 96t39 97t96 40t97 -40t40 -97t-40 -96t-97 -39z" />
    <glyph glyph-name="Yacute" unicode="&#xdd;" horiz-adv-x="1302" 
d="M508 498l-485 932h323l307 -654l305 654h320l-483 -932v-498h-287v498zM403 1716l471 244v-234l-471 -215v205z" />
    <glyph glyph-name="Thorn" unicode="&#xde;" horiz-adv-x="1245" 
d="M428 502h227q118 0 176 57t58 158t-58 158t-176 57h-227v-430zM1184 717q0 -85 -29.5 -160t-89 -137.5t-162 -99.5t-235.5 -37h-240v-283h-287v1432h285v-279h242q248 0 382 -122t134 -314z" />
    <glyph glyph-name="germandbls" unicode="&#xdf;" horiz-adv-x="1488" 
d="M106 0v1124q0 98 34.5 180.5t101 144t170.5 96t235 34.5q226 0 360 -106.5t134 -255.5q0 -68 -26 -127t-63 -98.5t-74 -72.5t-63 -62t-26 -54q0 -34 40 -61t161 -70q157 -55 225.5 -136.5t68.5 -205.5q0 -157 -115.5 -253.5t-312.5 -96.5q-195 0 -314.5 99.5
t-139.5 282.5h276q6 -77 51 -121t123 -44q71 0 109.5 29t38.5 85q0 57 -37.5 93.5t-140.5 70.5q-172 60 -247 123.5t-75 159.5q0 53 26 102.5t63.5 87.5t75 74.5t63.5 77.5t26 82q0 74 -58 115.5t-159 41.5q-128 0 -186 -61.5t-58 -181.5v-1096h-287z" />
    <glyph glyph-name="agrave" unicode="&#xe0;" horiz-adv-x="1388" 
d="M68 571q0 260 148.5 421t369.5 161q127 0 222.5 -51t152.5 -129v162h288v-1135h-288v166q-56 -80 -153 -132t-224 -52q-107 0 -201.5 42.5t-164 118.5t-110 187t-40.5 241zM961 567q0 154 -88.5 244t-213.5 90q-123 0 -211 -88t-88 -242t88.5 -246t210.5 -92
q125 0 213.5 90t88.5 244zM451 1430v233l471 -244v-205z" />
    <glyph glyph-name="aacute" unicode="&#xe1;" horiz-adv-x="1388" 
d="M68 571q0 260 148.5 421t369.5 161q127 0 222.5 -51t152.5 -129v162h288v-1135h-288v166q-56 -80 -153 -132t-224 -52q-107 0 -201.5 42.5t-164 118.5t-110 187t-40.5 241zM961 567q0 154 -88.5 244t-213.5 90q-123 0 -211 -88t-88 -242t88.5 -246t210.5 -92
q125 0 213.5 90t88.5 244zM451 1419l471 244v-233l-471 -216v205z" />
    <glyph glyph-name="acircumflex" unicode="&#xe2;" horiz-adv-x="1388" 
d="M68 571q0 260 148.5 421t369.5 161q127 0 222.5 -51t152.5 -129v162h288v-1135h-288v166q-56 -80 -153 -132t-224 -52q-107 0 -201.5 42.5t-164 118.5t-110 187t-40.5 241zM961 567q0 154 -88.5 244t-213.5 90q-123 0 -211 -88t-88 -242t88.5 -246t210.5 -92
q125 0 213.5 90t88.5 244zM1001 1423v-209l-303 172l-305 -172v209l305 166z" />
    <glyph glyph-name="atilde" unicode="&#xe3;" horiz-adv-x="1388" 
d="M68 571q0 260 148.5 421t369.5 161q127 0 222.5 -51t152.5 -129v162h288v-1135h-288v166q-56 -80 -153 -132t-224 -52q-107 0 -201.5 42.5t-164 118.5t-110 187t-40.5 241zM961 567q0 154 -88.5 244t-213.5 90q-123 0 -211 -88t-88 -242t88.5 -246t210.5 -92
q125 0 213.5 90t88.5 244zM330 1243q20 135 86 201.5t168 66.5q50 0 95.5 -22.5t84.5 -45t72 -22.5q76 0 88 88h153q-20 -135 -86 -201.5t-168 -66.5q-50 0 -95.5 23t-84.5 46t-72 23q-75 0 -90 -90h-151z" />
    <glyph glyph-name="adieresis" unicode="&#xe4;" horiz-adv-x="1388" 
d="M68 571q0 260 148.5 421t369.5 161q127 0 222.5 -51t152.5 -129v162h288v-1135h-288v166q-56 -80 -153 -132t-224 -52q-107 0 -201.5 42.5t-164 118.5t-110 187t-40.5 241zM961 567q0 154 -88.5 244t-213.5 90q-123 0 -211 -88t-88 -242t88.5 -246t210.5 -92
q125 0 213.5 90t88.5 244zM508 1270q-57 0 -96 39t-39 96t39 97t96 40t97 -40t40 -97t-40 -96t-97 -39zM887 1270q-57 0 -96 39t-39 96t39 97t96 40t97 -40t40 -97t-40 -96t-97 -39z" />
    <glyph glyph-name="aring" unicode="&#xe5;" horiz-adv-x="1388" 
d="M68 571q0 260 148.5 421t369.5 161q127 0 222.5 -51t152.5 -129v162h288v-1135h-288v166q-56 -80 -153 -132t-224 -52q-107 0 -201.5 42.5t-164 118.5t-110 187t-40.5 241zM961 567q0 154 -88.5 244t-213.5 90q-123 0 -211 -88t-88 -242t88.5 -246t210.5 -92
q125 0 213.5 90t88.5 244zM698 1704q102 0 171 -65t69 -171t-69 -170.5t-171 -64.5q-101 0 -170 64.5t-69 170.5t69 171t170 65zM698 1366q40 0 69.5 29t29.5 73q0 46 -29 74.5t-70 28.5t-69.5 -28.5t-28.5 -74.5q0 -44 29 -73t69 -29z" />
    <glyph glyph-name="ae" unicode="&#xe6;" horiz-adv-x="2205" 
d="M1554 918q-112 0 -195.5 -68.5t-103.5 -187.5h588q-1 116 -83 186t-206 70zM2109 356q-46 -164 -175 -269t-314 -105q-124 0 -227.5 51t-163.5 135v-168h-262v168q-64 -84 -162 -135t-219 -51q-108 0 -203 42.5t-164.5 118.5t-110 187t-40.5 241q0 261 150 421.5
t378 160.5q238 0 375 -178v160h258v-160q142 178 391 178q229 0 374.5 -156t145.5 -403q0 -45 -10 -107h-875q18 -129 102.5 -198.5t190.5 -69.5q99 0 162.5 37t89.5 100h309zM360 571q0 -154 88.5 -246t210.5 -92q125 0 213.5 90t88.5 244t-88.5 244t-213.5 90
q-123 0 -211 -88t-88 -242z" />
    <glyph glyph-name="ccedilla" unicode="&#xe7;" horiz-adv-x="1232" 
d="M68 567q0 265 156.5 425.5t404.5 160.5q211 0 349.5 -105t184.5 -296h-309q-26 74 -83 115.5t-144 41.5q-122 0 -194.5 -89.5t-72.5 -252.5t72 -251.5t195 -88.5q173 0 227 156h309q-42 -165 -158 -269.5t-290 -125.5v-80q112 0 189 -57t77 -166q0 -110 -78.5 -170
t-193.5 -60h-291v168h244q49 0 74.5 15t25.5 51t-25 49.5t-75 13.5h-127v236q-210 31 -338.5 186t-128.5 393z" />
    <glyph glyph-name="egrave" unicode="&#xe8;" horiz-adv-x="1263" 
d="M629 918q-105 0 -178.5 -64.5t-90.5 -179.5h539q-3 110 -80 177t-190 67zM1167 356q-48 -164 -187.5 -269t-342.5 -105q-250 0 -409.5 160.5t-159.5 424.5q0 266 157.5 426t411.5 160q248 0 403.5 -154.5t155.5 -406.5q0 -62 -8 -111h-830q10 -123 86 -192.5t187 -69.5
q160 0 227 137h309zM385 1434v233l471 -244v-204z" />
    <glyph glyph-name="eacute" unicode="&#xe9;" horiz-adv-x="1263" 
d="M629 918q-105 0 -178.5 -64.5t-90.5 -179.5h539q-3 110 -80 177t-190 67zM1167 356q-48 -164 -187.5 -269t-342.5 -105q-250 0 -409.5 160.5t-159.5 424.5q0 266 157.5 426t411.5 160q248 0 403.5 -154.5t155.5 -406.5q0 -62 -8 -111h-830q10 -123 86 -192.5t187 -69.5
q160 0 227 137h309zM385 1423l471 244v-233l-471 -215v204z" />
    <glyph glyph-name="ecircumflex" unicode="&#xea;" horiz-adv-x="1263" 
d="M629 918q-105 0 -178.5 -64.5t-90.5 -179.5h539q-3 110 -80 177t-190 67zM1167 356q-48 -164 -187.5 -269t-342.5 -105q-250 0 -409.5 160.5t-159.5 424.5q0 266 157.5 426t411.5 160q248 0 403.5 -154.5t155.5 -406.5q0 -62 -8 -111h-830q10 -123 86 -192.5t187 -69.5
q160 0 227 137h309zM936 1427v-208l-303 172l-305 -172v208l305 166z" />
    <glyph glyph-name="edieresis" unicode="&#xeb;" horiz-adv-x="1263" 
d="M629 918q-105 0 -178.5 -64.5t-90.5 -179.5h539q-3 110 -80 177t-190 67zM1167 356q-48 -164 -187.5 -269t-342.5 -105q-250 0 -409.5 160.5t-159.5 424.5q0 266 157.5 426t411.5 160q248 0 403.5 -154.5t155.5 -406.5q0 -62 -8 -111h-830q10 -123 86 -192.5t187 -69.5
q160 0 227 137h309zM442 1274q-57 0 -96 39t-39 96t39 97t96 40t97.5 -40t40.5 -97t-40.5 -96t-97.5 -39zM821 1274q-57 0 -96 39t-39 96t39 97t96 40t97 -40t40 -97t-40 -96t-97 -39z" />
    <glyph glyph-name="igrave" unicode="&#xec;" horiz-adv-x="593" 
d="M154 0v1135h286v-1135h-286zM49 1430v233l471 -244v-205z" />
    <glyph glyph-name="iacute" unicode="&#xed;" horiz-adv-x="593" 
d="M154 0v1135h286v-1135h-286zM49 1419l471 244v-233l-471 -216v205z" />
    <glyph glyph-name="icircumflex" unicode="&#xee;" horiz-adv-x="593" 
d="M154 0v1135h286v-1135h-286zM602 1423v-209l-303 172l-305 -172v209l305 166z" />
    <glyph glyph-name="idieresis" unicode="&#xef;" horiz-adv-x="593" 
d="M154 0v1135h286v-1135h-286zM106 1270q-57 0 -96 39t-39 96t39 97t96 40t97.5 -40t40.5 -97t-40.5 -96t-97.5 -39zM485 1270q-57 0 -96 39t-39 96t39 97t96 40t97.5 -40t40.5 -97t-40.5 -96t-97.5 -39z" />
    <glyph glyph-name="eth" unicode="&#xf0;" horiz-adv-x="1306" 
d="M541 1335l145 47q-55 58 -145 134h274q27 -23 74 -70l229 72v-132l-137 -43q258 -319 258 -694q0 -161 -45.5 -289t-125.5 -209.5t-186.5 -124t-232.5 -42.5q-163 0 -294.5 70.5t-209 205t-77.5 309.5q0 130 44 240.5t119.5 184.5t178 115.5t217.5 41.5q156 0 284 -92
q-48 111 -133 219l-237 -74v131zM362 567q0 -163 83 -251.5t204 -88.5q122 0 208.5 89t86.5 251q0 83 -25 149.5t-66.5 107t-93.5 62t-108 21.5q-121 0 -205 -88.5t-84 -251.5z" />
    <glyph glyph-name="ntilde" unicode="&#xf1;" horiz-adv-x="1353" 
d="M428 627v-627h-287v1135h287v-142q57 73 146 115.5t196 42.5q203 0 328 -128t125 -357v-666h-287v627q0 134 -68 207t-184 73q-119 0 -187.5 -73t-68.5 -207zM342 1243q20 135 86 201.5t168 66.5q50 0 95.5 -22.5t84.5 -45t72 -22.5q76 0 88 88h154q-20 -135 -86 -201.5
t-168 -66.5q-50 0 -95.5 23t-84.5 46t-72 23q-75 0 -90 -90h-152z" />
    <glyph glyph-name="ograve" unicode="&#xf2;" horiz-adv-x="1306" 
d="M1237 567q0 -174 -79.5 -308.5t-213.5 -205.5t-299 -71q-164 0 -294 71t-205.5 205.5t-75.5 308.5q0 175 77.5 309.5t209.5 205.5t296 71t296.5 -71t210 -205.5t77.5 -309.5zM360 567q0 -161 81.5 -248.5t203.5 -87.5q123 0 210 88t87 248q0 161 -85 248.5t-208 87.5
q-122 0 -205.5 -87t-83.5 -249zM418 1444v233l471 -243v-205z" />
    <glyph glyph-name="oacute" unicode="&#xf3;" horiz-adv-x="1306" 
d="M1237 567q0 -174 -79.5 -308.5t-213.5 -205.5t-299 -71q-164 0 -294 71t-205.5 205.5t-75.5 308.5q0 175 77.5 309.5t209.5 205.5t296 71t296.5 -71t210 -205.5t77.5 -309.5zM360 567q0 -161 81.5 -248.5t203.5 -87.5q123 0 210 88t87 248q0 161 -85 248.5t-208 87.5
q-122 0 -205.5 -87t-83.5 -249zM418 1434l471 243v-233l-471 -215v205z" />
    <glyph glyph-name="ocircumflex" unicode="&#xf4;" horiz-adv-x="1306" 
d="M1237 567q0 -174 -79.5 -308.5t-213.5 -205.5t-299 -71q-164 0 -294 71t-205.5 205.5t-75.5 308.5q0 175 77.5 309.5t209.5 205.5t296 71t296.5 -71t210 -205.5t77.5 -309.5zM360 567q0 -161 81.5 -248.5t203.5 -87.5q123 0 210 88t87 248q0 161 -85 248.5t-208 87.5
q-122 0 -205.5 -87t-83.5 -249zM969 1438v-209l-303 172l-306 -172v209l306 166z" />
    <glyph glyph-name="otilde" unicode="&#xf5;" horiz-adv-x="1306" 
d="M1237 567q0 -174 -79.5 -308.5t-213.5 -205.5t-299 -71q-164 0 -294 71t-205.5 205.5t-75.5 308.5q0 175 77.5 309.5t209.5 205.5t296 71t296.5 -71t210 -205.5t77.5 -309.5zM360 567q0 -161 81.5 -248.5t203.5 -87.5q123 0 210 88t87 248q0 161 -85 248.5t-208 87.5
q-122 0 -205.5 -87t-83.5 -249zM297 1257q20 136 86 202.5t168 66.5q50 0 95.5 -22.5t84.5 -45t72 -22.5q76 0 88 88h153q-20 -136 -86 -202.5t-167 -66.5q-50 0 -95.5 23.5t-84.5 46.5t-72 23q-75 0 -90 -91h-152z" />
    <glyph glyph-name="odieresis" unicode="&#xf6;" horiz-adv-x="1306" 
d="M1237 567q0 -174 -79.5 -308.5t-213.5 -205.5t-299 -71q-164 0 -294 71t-205.5 205.5t-75.5 308.5q0 175 77.5 309.5t209.5 205.5t296 71t296.5 -71t210 -205.5t77.5 -309.5zM360 567q0 -161 81.5 -248.5t203.5 -87.5q123 0 210 88t87 248q0 161 -85 248.5t-208 87.5
q-122 0 -205.5 -87t-83.5 -249zM475 1284q-57 0 -96 39t-39 96t39 97t96 40t97 -40t40 -97t-40 -96t-97 -39zM854 1284q-57 0 -96 39t-39 96t39 97t96 40t97 -40t40 -97t-40 -96t-97 -39z" />
    <glyph glyph-name="divide" unicode="&#xf7;" horiz-adv-x="1327" 
d="M150 606v250h1044v-250h-1044zM852 281q0 -71 -49.5 -119.5t-124.5 -48.5q-77 0 -127.5 48.5t-50.5 119.5t50.5 119.5t127.5 48.5q75 0 124.5 -48.5t49.5 -119.5zM852 1184q0 -71 -49.5 -119.5t-124.5 -48.5q-77 0 -127.5 48.5t-50.5 119.5t50.5 119.5t127.5 48.5
q75 0 124.5 -48.5t49.5 -119.5z" />
    <glyph glyph-name="oslash" unicode="&#xf8;" horiz-adv-x="1298" 
d="M1233 567q0 -174 -79.5 -308.5t-213.5 -205.5t-299 -71q-199 0 -346 104l-78 -86h-174l158 172q-135 161 -135 395q0 175 77.5 309.5t209.5 205.5t296 71q204 0 352 -106l80 88h174l-159 -174q137 -156 137 -394zM356 567q0 -105 37 -184l426 465q-76 55 -174 55
q-122 0 -205.5 -87t-83.5 -249zM641 231q123 0 210 88t87 248q0 102 -37 181l-424 -465q70 -52 164 -52z" />
    <glyph glyph-name="ugrave" unicode="&#xf9;" horiz-adv-x="1353" 
d="M1212 1135v-1135h-288v143q-55 -73 -144 -115t-194 -42q-203 0 -329 127.5t-126 355.5v666h287v-625q0 -134 68 -207.5t184 -73.5q119 0 186.5 73t67.5 208v625h288zM430 1430v233l471 -244v-205z" />
    <glyph glyph-name="uacute" unicode="&#xfa;" horiz-adv-x="1353" 
d="M1212 1135v-1135h-288v143q-55 -73 -144 -115t-194 -42q-203 0 -329 127.5t-126 355.5v666h287v-625q0 -134 68 -207.5t184 -73.5q119 0 186.5 73t67.5 208v625h288zM430 1419l471 244v-233l-471 -216v205z" />
    <glyph glyph-name="ucircumflex" unicode="&#xfb;" horiz-adv-x="1353" 
d="M1212 1135v-1135h-288v143q-55 -73 -144 -115t-194 -42q-203 0 -329 127.5t-126 355.5v666h287v-625q0 -134 68 -207.5t184 -73.5q119 0 186.5 73t67.5 208v625h288zM981 1423v-209l-303 172l-305 -172v209l305 166z" />
    <glyph glyph-name="udieresis" unicode="&#xfc;" horiz-adv-x="1353" 
d="M1212 1135v-1135h-288v143q-55 -73 -144 -115t-194 -42q-203 0 -329 127.5t-126 355.5v666h287v-625q0 -134 68 -207.5t184 -73.5q119 0 186.5 73t67.5 208v625h288zM487 1270q-57 0 -96 39t-39 96t39 97t96 40t97.5 -40t40.5 -97t-40.5 -96t-97.5 -39zM866 1270
q-57 0 -96 39t-39 96t39 97t96 40t97.5 -40t40.5 -97t-40.5 -96t-97.5 -39z" />
    <glyph glyph-name="yacute" unicode="&#xfd;" horiz-adv-x="1239" 
d="M625 342l297 793h305l-703 -1672h-305l246 566l-455 1106h322zM373 1419l471 244v-233l-471 -216v205z" />
    <glyph glyph-name="thorn" unicode="&#xfe;" horiz-adv-x="1388" 
d="M428 958q58 90 151 141.5t216 51.5q146 0 265.5 -72t190 -206t70.5 -304q0 -257 -151.5 -421t-374.5 -164q-240 0 -367 206v-731h-287v2057h287v-558zM1028 569q0 155 -89 243.5t-210 88.5q-57 0 -110.5 -22t-96 -62.5t-68.5 -105.5t-26 -144t26 -144t68.5 -105.5
t96 -62.5t110.5 -22t110 22t95.5 63t68 106.5t25.5 144.5z" />
    <glyph glyph-name="ydieresis" unicode="&#xff;" horiz-adv-x="1239" 
d="M625 342l297 793h305l-703 -1672h-305l246 566l-455 1106h322zM430 1270q-57 0 -96 39t-39 96t39 97t96 40t97 -40t40 -97t-40 -96t-97 -39zM809 1270q-57 0 -96 39t-39 96t39 97t96 40t97 -40t40 -97t-40 -96t-97 -39z" />
    <glyph glyph-name="Amacron" unicode="&#x100;" horiz-adv-x="1466" 
d="M1112 0l-94 272h-569l-95 -272h-301l514 1432h334l514 -1432h-303zM342 1591v205h782v-205h-782zM940 502l-207 598l-207 -598h414z" />
    <glyph glyph-name="amacron" unicode="&#x101;" horiz-adv-x="1388" 
d="M68 571q0 260 148.5 421t369.5 161q127 0 222.5 -51t152.5 -129v162h288v-1135h-288v166q-56 -80 -153 -132t-224 -52q-107 0 -201.5 42.5t-164 118.5t-110 187t-40.5 241zM961 567q0 154 -88.5 244t-213.5 90q-123 0 -211 -88t-88 -242t88.5 -246t210.5 -92
q125 0 213.5 90t88.5 244zM307 1294v205h783v-205h-783z" />
    <glyph glyph-name="Abreve" unicode="&#x102;" horiz-adv-x="1466" 
d="M1112 0l-94 272h-569l-95 -272h-301l514 1432h334l514 -1432h-303zM1061 1837q0 -147 -88 -231t-240 -84q-149 0 -237 85t-88 232v41h151q0 -70 39.5 -105.5t134.5 -35.5t134.5 35.5t39.5 105.5h154v-43zM940 502l-207 598l-207 -598h414z" />
    <glyph glyph-name="abreve" unicode="&#x103;" horiz-adv-x="1388" 
d="M68 571q0 260 148.5 421t369.5 161q127 0 222.5 -51t152.5 -129v162h288v-1135h-288v166q-56 -80 -153 -132t-224 -52q-107 0 -201.5 42.5t-164 118.5t-110 187t-40.5 241zM961 567q0 154 -88.5 244t-213.5 90q-123 0 -211 -88t-88 -242t88.5 -246t210.5 -92
q125 0 213.5 90t88.5 244zM1026 1540q0 -147 -88 -231t-240 -84q-149 0 -237 85t-88 232v41h151q0 -70 39.5 -105.5t134.5 -35.5t134.5 35.5t39.5 105.5h154v-43z" />
    <glyph glyph-name="Aogonek" unicode="&#x104;" horiz-adv-x="1466" 
d="M567 1432h334l514 -1432l-98 -49q-70 -33 -97.5 -65t-27.5 -68q0 -38 27.5 -61t74.5 -23q68 0 144 30v-172q-85 -30 -183 -30q-78 0 -140 22t-104 75.5t-42 131.5q0 128 137 229l-88 252h-569l-95 -272h-301zM940 502l-207 598l-207 -598h414z" />
    <glyph glyph-name="aogonek" unicode="&#x105;" horiz-adv-x="1388" 
d="M68 571q0 260 148.5 421t369.5 161q127 0 222.5 -51t152.5 -129v162h288v-1135h-2l-96 -49q-127 -63 -127 -135q0 -37 27.5 -59.5t74.5 -22.5q66 0 146 30v-172q-88 -30 -182 -30q-78 0 -140.5 22t-104.5 75t-42 130q0 137 158 240v137q-56 -80 -153 -132t-224 -52
q-107 0 -201.5 42.5t-164 118.5t-110 187t-40.5 241zM961 567q0 154 -88.5 244t-213.5 90q-123 0 -211 -88t-88 -242t88.5 -246t210.5 -92q125 0 213.5 90t88.5 244z" />
    <glyph glyph-name="Cacute" unicode="&#x106;" horiz-adv-x="1572" 
d="M72 717q0 158 55.5 294.5t152 232t230.5 150t287 54.5q240 0 420 -122.5t251 -340.5h-329q-50 102 -138.5 153.5t-205.5 51.5q-190 0 -309 -128.5t-119 -344.5q0 -215 119 -344t309 -129q117 0 205.5 52t138.5 155h329q-71 -219 -251 -341t-420 -122q-153 0 -287 54
t-230.5 149.5t-152 231.5t-55.5 294zM547 1731l471 243v-233l-471 -215v205z" />
    <glyph glyph-name="cacute" unicode="&#x107;" horiz-adv-x="1232" 
d="M68 567q0 265 156.5 425.5t404.5 160.5q211 0 349.5 -105t184.5 -296h-309q-26 74 -83 115.5t-144 41.5q-122 0 -194.5 -89.5t-72.5 -252.5t72 -251.5t195 -88.5q173 0 227 156h309q-47 -185 -186.5 -293t-347.5 -108q-248 0 -404.5 160t-156.5 425zM367 1419l471 244
v-233l-471 -216v205z" />
    <glyph glyph-name="Cdotaccent" unicode="&#x10a;" horiz-adv-x="1572" 
d="M72 717q0 158 55.5 294.5t152 232t230.5 150t287 54.5q240 0 420 -122.5t251 -340.5h-329q-50 102 -138.5 153.5t-205.5 51.5q-190 0 -309 -128.5t-119 -344.5q0 -215 119 -344t309 -129q117 0 205.5 52t138.5 155h329q-71 -219 -251 -341t-420 -122q-153 0 -287 54
t-230.5 149.5t-152 231.5t-55.5 294zM795 1581q-57 0 -96.5 39t-39.5 96t39.5 97t96.5 40t97 -40t40 -97t-40 -96t-97 -39z" />
    <glyph glyph-name="cdotaccent" unicode="&#x10b;" horiz-adv-x="1232" 
d="M68 567q0 265 156.5 425.5t404.5 160.5q211 0 349.5 -105t184.5 -296h-309q-26 74 -83 115.5t-144 41.5q-122 0 -194.5 -89.5t-72.5 -252.5t72 -251.5t195 -88.5q173 0 227 156h309q-47 -185 -186.5 -293t-347.5 -108q-248 0 -404.5 160t-156.5 425zM612 1270
q-57 0 -96 39t-39 96t39 97t96 40t97.5 -40t40.5 -97t-40.5 -96t-97.5 -39z" />
    <glyph glyph-name="Ccaron" unicode="&#x10c;" horiz-adv-x="1572" 
d="M72 717q0 158 55.5 294.5t152 232t230.5 150t287 54.5q240 0 420 -122.5t251 -340.5h-329q-50 102 -138.5 153.5t-205.5 51.5q-190 0 -309 -128.5t-119 -344.5q0 -215 119 -344t309 -129q117 0 205.5 52t138.5 155h329q-71 -219 -251 -341t-420 -122q-153 0 -287 54
t-230.5 149.5t-152 231.5t-55.5 294zM797 1724l303 177v-209l-303 -166l-305 166v209z" />
    <glyph glyph-name="ccaron" unicode="&#x10d;" horiz-adv-x="1232" 
d="M68 567q0 265 156.5 425.5t404.5 160.5q211 0 349.5 -105t184.5 -296h-309q-26 74 -83 115.5t-144 41.5q-122 0 -194.5 -89.5t-72.5 -252.5t72 -251.5t195 -88.5q173 0 227 156h309q-47 -185 -186.5 -293t-347.5 -108q-248 0 -404.5 160t-156.5 425zM614 1413l304 176
v-209l-304 -166l-305 166v209z" />
    <glyph glyph-name="Dcaron" unicode="&#x10e;" horiz-adv-x="1468" 
d="M641 1430q226 0 397.5 -88.5t264 -251t92.5 -377.5q0 -324 -205.5 -518.5t-548.5 -194.5h-500v1430h500zM428 244h203q225 0 348 123t123 346q0 224 -123 349.5t-348 125.5h-203v-944zM729 1710l303 176v-209l-303 -166l-305 166v209z" />
    <glyph glyph-name="dcaron" unicode="&#x10f;" horiz-adv-x="1650" 
d="M1358 1516h237q35 -122 35 -222q0 -134 -65 -207t-193 -73v116q103 0 103 123v39h-117v224zM68 571q0 130 40.5 240t110.5 184.5t165 116t204 41.5q112 0 211.5 -48t158.5 -128v539h291v-1516h-291v168q-55 -83 -150 -134.5t-222 -51.5q-108 0 -203 42.5t-164.5 118.5
t-110 187t-40.5 241zM961 567q0 154 -88.5 244t-213.5 90q-123 0 -211 -88t-88 -242t88.5 -246t210.5 -92q125 0 213.5 90t88.5 244z" />
    <glyph glyph-name="Dcroat" unicode="&#x110;" horiz-adv-x="1486" 
d="M659 1430q226 0 397.5 -88.5t264 -251t92.5 -377.5q0 -324 -205.5 -518.5t-548.5 -194.5h-501v588h-144v250h144v592h501zM446 233h203q224 0 346.5 127.5t122.5 352.5q0 224 -122.5 350.5t-346.5 126.5h-203v-352h342v-250h-342v-355z" />
    <glyph glyph-name="dcroat" unicode="&#x111;" horiz-adv-x="1400" 
d="M68 571q0 130 40.5 240t110.5 184.5t165 116t204 41.5q112 0 211.5 -48t158.5 -128v231h-155v152h155v156h291v-156h123v-152h-123v-1208h-291v168q-55 -83 -150 -134.5t-222 -51.5q-108 0 -203 42.5t-164.5 118.5t-110 187t-40.5 241zM961 567q0 154 -88.5 244
t-213.5 90q-123 0 -211 -88t-88 -242t88.5 -246t210.5 -92q125 0 213.5 90t88.5 244z" />
    <glyph glyph-name="Emacron" unicode="&#x112;" horiz-adv-x="1089" 
d="M971 1432v-234h-543v-358h481v-228h-481v-379h543v-233h-830v1432h830zM156 1591v205h782v-205h-782z" />
    <glyph glyph-name="emacron" unicode="&#x113;" horiz-adv-x="1263" 
d="M629 918q-105 0 -178.5 -64.5t-90.5 -179.5h539q-3 110 -80 177t-190 67zM1167 356q-48 -164 -187.5 -269t-342.5 -105q-250 0 -409.5 160.5t-159.5 424.5q0 266 157.5 426t411.5 160q248 0 403.5 -154.5t155.5 -406.5q0 -62 -8 -111h-830q10 -123 86 -192.5t187 -69.5
q160 0 227 137h309zM242 1298v205h782v-205h-782z" />
    <glyph glyph-name="Ebreve" unicode="&#x114;" horiz-adv-x="1089" 
d="M971 1432v-234h-543v-358h481v-228h-481v-379h543v-233h-830v1432h830zM874 1837q0 -147 -88 -231t-239 -84q-149 0 -237.5 85t-88.5 232v41h152q0 -70 39.5 -105.5t134.5 -35.5t134.5 35.5t39.5 105.5h153v-43z" />
    <glyph glyph-name="ebreve" unicode="&#x115;" horiz-adv-x="1263" 
d="M629 918q-105 0 -178.5 -64.5t-90.5 -179.5h539q-3 110 -80 177t-190 67zM1167 356q-48 -164 -187.5 -269t-342.5 -105q-250 0 -409.5 160.5t-159.5 424.5q0 266 157.5 426t411.5 160q248 0 403.5 -154.5t155.5 -406.5q0 -62 -8 -111h-830q10 -123 86 -192.5t187 -69.5
q160 0 227 137h309zM958 1544q0 -147 -88 -231t-239 -84q-149 0 -237.5 85t-88.5 232v41h152q0 -70 39.5 -105.5t134.5 -35.5t134.5 35.5t39.5 105.5h153v-43z" />
    <glyph glyph-name="Edotaccent" unicode="&#x116;" horiz-adv-x="1089" 
d="M971 1432v-234h-543v-358h481v-228h-481v-379h543v-233h-830v1432h830zM545 1567q-57 0 -96 39t-39 96t39 97t96 40t97 -40t40 -97t-40 -96t-97 -39z" />
    <glyph glyph-name="edotaccent" unicode="&#x117;" horiz-adv-x="1263" 
d="M629 918q-105 0 -178.5 -64.5t-90.5 -179.5h539q-3 110 -80 177t-190 67zM1167 356q-48 -164 -187.5 -269t-342.5 -105q-250 0 -409.5 160.5t-159.5 424.5q0 266 157.5 426t411.5 160q248 0 403.5 -154.5t155.5 -406.5q0 -62 -8 -111h-830q10 -123 86 -192.5t187 -69.5
q160 0 227 137h309zM631 1274q-57 0 -96 39t-39 96t39 97t96 40t97 -40t40 -97t-40 -96t-97 -39z" />
    <glyph glyph-name="Eogonek" unicode="&#x118;" horiz-adv-x="1089" 
d="M971 1432v-234h-543v-358h481v-228h-481v-379h543v-233l-97 -49q-68 -34 -97 -66t-29 -69t27.5 -59.5t74.5 -22.5q66 0 145 30v-172q-88 -30 -182 -30q-78 0 -140.5 22t-104.5 75t-42 130q0 118 117 211h-502v1432h830z" />
    <glyph glyph-name="eogonek" unicode="&#x119;" horiz-adv-x="1263" 
d="M629 918q-105 0 -178.5 -64.5t-90.5 -179.5h539q-3 110 -80 177t-190 67zM872 -381q-91 -31 -182 -31q-77 0 -140 22.5t-105 75.5t-42 130q0 104 84 182q-191 45 -305 196.5t-114 372.5q0 266 157.5 426t411.5 160q248 0 403.5 -154.5t155.5 -406.5q0 -62 -8 -111h-830
q10 -123 86 -192.5t187 -69.5q160 0 227 137h309q-38 -129 -132.5 -223t-235.5 -131l-47 -25q-127 -63 -127 -135q0 -37 27.5 -59.5t74.5 -22.5q63 0 145 31v-172z" />
    <glyph glyph-name="Ecaron" unicode="&#x11a;" horiz-adv-x="1089" 
d="M971 1432v-234h-543v-358h481v-228h-481v-379h543v-233h-830v1432h830zM547 1710l303 176v-209l-303 -166l-305 166v209z" />
    <glyph glyph-name="ecaron" unicode="&#x11b;" horiz-adv-x="1263" 
d="M629 918q-105 0 -178.5 -64.5t-90.5 -179.5h539q-3 110 -80 177t-190 67zM1167 356q-48 -164 -187.5 -269t-342.5 -105q-250 0 -409.5 160.5t-159.5 424.5q0 266 157.5 426t411.5 160q248 0 403.5 -154.5t155.5 -406.5q0 -62 -8 -111h-830q10 -123 86 -192.5t187 -69.5
q160 0 227 137h309zM633 1417l303 176v-209l-303 -165l-305 165v209z" />
    <glyph glyph-name="Gbreve" unicode="&#x11e;" horiz-adv-x="1572" 
d="M801 1448q242 0 419.5 -118t245.5 -331h-329q-49 90 -135.5 137.5t-200.5 47.5q-194 0 -314 -127.5t-120 -339.5q0 -216 122.5 -343.5t323.5 -127.5q163 0 268 87t138 242h-492v220h774v-250q-22 -110 -80.5 -210t-146 -177.5t-210.5 -123.5t-261 -46q-154 0 -289.5 54
t-232.5 149.5t-153 231.5t-56 294t56 294.5t153 232t232 150t288 54.5zM1112 1837q0 -147 -88 -231t-240 -84q-149 0 -237 85t-88 232v41h151q0 -70 39.5 -105.5t134.5 -35.5t134.5 35.5t39.5 105.5h154v-43z" />
    <glyph glyph-name="gbreve" unicode="&#x11f;" horiz-adv-x="1388" 
d="M68 571q0 260 148.5 421t369.5 161q126 0 223 -50.5t152 -129.5v162h288v-1143q0 -116 -36 -215.5t-104 -175t-176.5 -118t-244.5 -42.5q-240 0 -394.5 113t-176.5 307h284q22 -77 97.5 -123.5t181.5 -46.5q126 0 203.5 75t77.5 226v176q-56 -81 -153 -133.5t-222 -52.5
q-108 0 -203 42.5t-164.5 118.5t-110 187t-40.5 241zM961 567q0 154 -88.5 244t-213.5 90q-123 0 -211 -88t-88 -242t88.5 -246t210.5 -92q125 0 213.5 90t88.5 244zM1026 1540q0 -147 -88 -231t-240 -84q-149 0 -237 85t-88 232v41h151q0 -70 39.5 -105.5t134.5 -35.5
t134.5 35.5t39.5 105.5h154v-43z" />
    <glyph glyph-name="Gdotaccent" unicode="&#x120;" horiz-adv-x="1572" 
d="M801 1448q242 0 419.5 -118t245.5 -331h-329q-49 90 -135.5 137.5t-200.5 47.5q-194 0 -314 -127.5t-120 -339.5q0 -216 122.5 -343.5t323.5 -127.5q163 0 268 87t138 242h-492v220h774v-250q-22 -110 -80.5 -210t-146 -177.5t-210.5 -123.5t-261 -46q-154 0 -289.5 54
t-232.5 149.5t-153 231.5t-56 294t56 294.5t153 232t232 150t288 54.5zM784 1567q-57 0 -96 39t-39 96t39 97t96 40t97.5 -40t40.5 -97t-40.5 -96t-97.5 -39z" />
    <glyph glyph-name="gdotaccent" unicode="&#x121;" horiz-adv-x="1388" 
d="M68 571q0 260 148.5 421t369.5 161q126 0 223 -50.5t152 -129.5v162h288v-1143q0 -116 -36 -215.5t-104 -175t-176.5 -118t-244.5 -42.5q-240 0 -394.5 113t-176.5 307h284q22 -77 97.5 -123.5t181.5 -46.5q126 0 203.5 75t77.5 226v176q-56 -81 -153 -133.5t-222 -52.5
q-108 0 -203 42.5t-164.5 118.5t-110 187t-40.5 241zM961 567q0 154 -88.5 244t-213.5 90q-123 0 -211 -88t-88 -242t88.5 -246t210.5 -92q125 0 213.5 90t88.5 244zM696 1270q-57 0 -96 39t-39 96t39 97t96 40t97.5 -40t40.5 -97t-40.5 -96t-97.5 -39z" />
    <glyph glyph-name="uni0122" unicode="&#x122;" horiz-adv-x="1574" 
d="M664 -88h237q35 -125 35 -221q0 -134 -65.5 -208.5t-192.5 -74.5v117q102 0 102 127v37h-116v223zM801 1448q242 0 419.5 -118t245.5 -331h-329q-49 90 -135.5 137.5t-200.5 47.5q-194 0 -314 -127.5t-120 -339.5q0 -216 122.5 -343.5t323.5 -127.5q163 0 268 87t138 242
h-492v220h774v-250q-22 -110 -80.5 -210t-146 -177.5t-210.5 -123.5t-261 -46q-154 0 -289.5 54t-232.5 149.5t-153 231.5t-56 294t56 294.5t153 232t232 150t288 54.5z" />
    <glyph glyph-name="uni0123" unicode="&#x123;" horiz-adv-x="1388" 
d="M827 1223h-237q-33 118 -33 221q0 136 64.5 209t191.5 73v-116q-102 0 -102 -125v-37h116v-225zM68 571q0 260 148.5 421t369.5 161q126 0 223 -50.5t152 -129.5v162h288v-1143q0 -116 -36 -215.5t-104 -175t-176.5 -118t-244.5 -42.5q-240 0 -394.5 113t-176.5 307h284
q22 -77 97.5 -123.5t181.5 -46.5q126 0 203.5 75t77.5 226v176q-56 -81 -153 -133.5t-222 -52.5q-108 0 -203 42.5t-164.5 118.5t-110 187t-40.5 241zM961 567q0 154 -88.5 244t-213.5 90q-123 0 -211 -88t-88 -242t88.5 -246t210.5 -92q125 0 213.5 90t88.5 244z" />
    <glyph glyph-name="Itilde" unicode="&#x128;" horiz-adv-x="569" 
d="M141 0v1430h287v-1430h-287zM-84 1540q20 135 86 201.5t168 66.5q50 0 95.5 -22.5t84.5 -45t72 -22.5q76 0 88 88h154q-20 -135 -86 -201.5t-168 -66.5q-50 0 -95.5 23t-84.5 46t-72 23q-75 0 -90 -90h-152z" />
    <glyph glyph-name="itilde" unicode="&#x129;" horiz-adv-x="593" 
d="M154 0v1135h286v-1135h-286zM-70 1243q20 135 86 201.5t168 66.5q50 0 95.5 -22.5t84.5 -45t72 -22.5q76 0 88 88h154q-20 -135 -86 -201.5t-168 -66.5q-50 0 -95.5 23t-84.5 46t-72 23q-75 0 -90 -90h-152z" />
    <glyph glyph-name="Imacron" unicode="&#x12a;" horiz-adv-x="569" 
d="M141 0v1430h287v-1430h-287zM-104 1591v205h782v-205h-782z" />
    <glyph glyph-name="imacron" unicode="&#x12b;" horiz-adv-x="593" 
d="M154 0v1135h286v-1135h-286zM-92 1294v205h782v-205h-782z" />
    <glyph glyph-name="uni012C" unicode="&#x12c;" horiz-adv-x="569" 
d="M141 0v1430h287v-1430h-287zM612 1837q0 -147 -88 -231t-239 -84q-149 0 -237.5 85t-88.5 232v41h152q0 -70 39.5 -105.5t134.5 -35.5t134.5 35.5t39.5 105.5h153v-43z" />
    <glyph glyph-name="uni012D" unicode="&#x12d;" horiz-adv-x="593" 
d="M154 0v1135h286v-1135h-286zM625 1540q0 -147 -88 -231t-240 -84q-149 0 -237.5 85t-88.5 232v41h152q0 -70 39.5 -105.5t134.5 -35.5t134.5 35.5t39.5 105.5h154v-43z" />
    <glyph glyph-name="Iogonek" unicode="&#x12e;" horiz-adv-x="569" 
d="M453 -406q-88 -30 -183 -30q-57 0 -107 13t-91 39.5t-64.5 71t-23.5 103.5q0 138 157 240v1399h287v-1430h-4l-92 -47q-127 -63 -127 -135q0 -37 27.5 -59.5t74.5 -22.5q64 0 146 31v-173z" />
    <glyph glyph-name="iogonek" unicode="&#x12f;" horiz-adv-x="569" 
d="M453 -406q-88 -30 -183 -30q-57 0 -107 13t-91 39.5t-64.5 71t-23.5 103.5q0 138 157 240v1104h287v-1135h-4l-92 -47q-127 -63 -127 -135q0 -37 27.5 -59.5t74.5 -22.5q64 0 146 31v-173zM287 1270q-76 0 -126 48.5t-50 119.5t50 119.5t126 48.5q75 0 125.5 -48.5
t50.5 -119.5t-50.5 -119.5t-125.5 -48.5z" />
    <glyph glyph-name="Idotaccent" unicode="&#x130;" horiz-adv-x="569" 
d="M141 0v1430h287v-1430h-287zM285 1567q-57 0 -96 39t-39 96t39 97t96 40t97 -40t40 -97t-40 -96t-97 -39z" />
    <glyph glyph-name="dotlessi" unicode="&#x131;" horiz-adv-x="593" 
d="M154 0v1135h286v-1135h-286z" />
    <glyph glyph-name="uni0136" unicode="&#x136;" horiz-adv-x="1378" 
d="M565 -88h238q35 -115 35 -221q0 -134 -65 -208.5t-191 -74.5v117q102 0 102 127v37h-119v223zM948 0l-520 637v-637h-287v1430h287v-642l520 642h346l-589 -709l606 -721h-363z" />
    <glyph glyph-name="uni0137" unicode="&#x137;" horiz-adv-x="1196" 
d="M477 -88h238q33 -118 33 -221q0 -134 -65 -208.5t-191 -74.5v117q102 0 102 127v37h-117v223zM141 0v1516h287v-863l381 482h373l-500 -570l504 -565h-373l-385 483v-483h-287z" />
    <glyph glyph-name="Lacute" unicode="&#x139;" horiz-adv-x="940" 
d="M141 1430h287v-1203h471v-227h-758v1430zM211 1716l471 244v-234l-471 -215v205z" />
    <glyph glyph-name="lacute" unicode="&#x13a;" horiz-adv-x="569" 
d="M141 0v1516h287v-1516h-287zM37 1800l471 244v-234l-471 -215v205z" />
    <glyph glyph-name="uni013B" unicode="&#x13b;" horiz-adv-x="942" 
d="M403 -88h238q35 -115 35 -221q0 -135 -65 -209t-193 -74v117q54 0 79 31t25 96v37h-119v223zM141 1430h287v-1203h471v-227h-758v1430z" />
    <glyph glyph-name="uni013C" unicode="&#x13c;" horiz-adv-x="569" 
d="M164 -88h237q35 -125 35 -221q0 -134 -65.5 -208.5t-192.5 -74.5v117q105 0 105 127v37h-119v223zM141 0v1516h287v-1516h-287z" />
    <glyph glyph-name="Lcaron" unicode="&#x13d;" horiz-adv-x="1005" 
d="M645 1430h238q32 -102 32 -220q0 -136 -63.5 -209t-189.5 -73v116q100 0 100 125v39h-117v222zM141 1430h287v-1203h471v-227h-758v1430z" />
    <glyph glyph-name="lcaron" unicode="&#x13e;" horiz-adv-x="919" 
d="M575 1516h238q35 -112 35 -222q0 -134 -64.5 -207t-191.5 -73v116q102 0 102 123v39h-119v224zM141 0v1516h287v-1516h-287z" />
    <glyph glyph-name="Ldot" unicode="&#x13f;" horiz-adv-x="940" 
d="M141 1430h287v-1203h471v-227h-758v1430zM459 1567q-57 0 -96 39t-39 96t39 97t96 40t97 -40t40 -97t-40 -96t-97 -39z" />
    <glyph glyph-name="ldot" unicode="&#x140;" horiz-adv-x="569" 
d="M285 1583q-59 0 -97 38.5t-38 96.5q0 57 38.5 96t96.5 39q57 0 96 -39t39 -96q0 -58 -39 -96.5t-96 -38.5zM141 0v1516h287v-1516h-287z" />
    <glyph glyph-name="Lslash" unicode="&#x141;" horiz-adv-x="948" 
d="M166 1430h289v-527l180 55v-233l-180 -55v-451h469v-219h-758v580l-148 -45v231l148 45v619z" />
    <glyph glyph-name="lslash" unicode="&#x142;" horiz-adv-x="593" 
d="M154 0v586l-136 -43v235l136 43v695h286v-603l138 43v-233l-138 -45v-678h-286z" />
    <glyph glyph-name="Nacute" unicode="&#x143;" horiz-adv-x="1505" 
d="M1077 1432h287v-1432h-287l-649 981v-981h-287v1432h287l649 -983v983zM506 1716l471 244v-234l-471 -215v205z" />
    <glyph glyph-name="nacute" unicode="&#x144;" horiz-adv-x="1353" 
d="M463 1419l471 244v-233l-471 -216v205zM936 0v627q0 134 -68 207t-184 73q-119 0 -187.5 -73t-68.5 -207v-627h-287v1135h287v-142q57 73 146 115.5t196 42.5q203 0 328 -128t125 -357v-666h-287z" />
    <glyph glyph-name="uni0145" unicode="&#x145;" horiz-adv-x="1529" 
d="M641 -88h238q34 -112 34 -221q0 -135 -64.5 -209t-191.5 -74v117q103 0 103 127v37h-119v223zM1077 1432h287v-1432h-287l-649 981v-981h-287v1432h287l649 -983v983z" />
    <glyph glyph-name="uni0146" unicode="&#x146;" horiz-adv-x="1353" 
d="M565 -88h238q33 -108 33 -221q0 -135 -64.5 -209t-189.5 -74v117q100 0 100 127v37h-117v223zM936 0v627q0 134 -68 207t-184 73q-119 0 -187.5 -73t-68.5 -207v-627h-287v1135h287v-142q57 73 146 115.5t196 42.5q203 0 328 -128t125 -357v-666h-287z" />
    <glyph glyph-name="Ncaron" unicode="&#x147;" horiz-adv-x="1505" 
d="M1077 1432h287v-1432h-287l-649 981v-981h-287v1432h287l649 -983v983zM754 1710l303 176v-209l-303 -166l-305 166v209z" />
    <glyph glyph-name="ncaron" unicode="&#x148;" horiz-adv-x="1353" 
d="M936 0v627q0 134 -68 207t-184 73q-119 0 -187.5 -73t-68.5 -207v-627h-287v1135h287v-142q57 73 146 115.5t196 42.5q203 0 328 -128t125 -357v-666h-287zM711 1413l303 176v-209l-303 -166l-305 166v209z" />
    <glyph glyph-name="Omacron" unicode="&#x14c;" horiz-adv-x="1607" 
d="M1536 719q0 -210 -98 -379t-264.5 -261.5t-368.5 -92.5q-200 0 -367.5 92.5t-266.5 261.5t-99 379q0 209 99 377.5t266.5 261t367.5 92.5q203 0 369.5 -92.5t264 -260.5t97.5 -378zM367 719q0 -217 121 -347t317 -130q195 0 315.5 130t120.5 347q0 216 -120.5 344.5
t-315.5 128.5q-197 0 -317.5 -128.5t-120.5 -344.5zM414 1591v205h782v-205h-782z" />
    <glyph glyph-name="omacron" unicode="&#x14d;" horiz-adv-x="1306" 
d="M1237 567q0 -174 -79.5 -308.5t-213.5 -205.5t-299 -71q-164 0 -294 71t-205.5 205.5t-75.5 308.5q0 175 77.5 309.5t209.5 205.5t296 71t296.5 -71t210 -205.5t77.5 -309.5zM360 567q0 -161 81.5 -248.5t203.5 -87.5q123 0 210 88t87 248q0 161 -85 248.5t-208 87.5
q-122 0 -205.5 -87t-83.5 -249zM274 1309v204h783v-204h-783z" />
    <glyph glyph-name="uni014E" unicode="&#x14e;" horiz-adv-x="1607" 
d="M1536 719q0 -210 -98 -379t-264.5 -261.5t-368.5 -92.5q-200 0 -367.5 92.5t-266.5 261.5t-99 379q0 209 99 377.5t266.5 261t367.5 92.5q203 0 369.5 -92.5t264 -260.5t97.5 -378zM367 719q0 -217 121 -347t317 -130q195 0 315.5 130t120.5 347q0 216 -120.5 344.5
t-315.5 128.5q-197 0 -317.5 -128.5t-120.5 -344.5zM1130 1837q0 -147 -88 -231t-239 -84q-149 0 -237.5 85t-88.5 232v41h152q0 -70 39.5 -105.5t134.5 -35.5t134.5 35.5t39.5 105.5h153v-43z" />
    <glyph glyph-name="uni014F" unicode="&#x14f;" horiz-adv-x="1306" 
d="M1237 567q0 -174 -79.5 -308.5t-213.5 -205.5t-299 -71q-164 0 -294 71t-205.5 205.5t-75.5 308.5q0 175 77.5 309.5t209.5 205.5t296 71t296.5 -71t210 -205.5t77.5 -309.5zM360 567q0 -161 81.5 -248.5t203.5 -87.5q123 0 210 88t87 248q0 161 -85 248.5t-208 87.5
q-122 0 -205.5 -87t-83.5 -249zM993 1554q0 -147 -88 -231t-239 -84q-149 0 -237.5 85t-88.5 232v41h152q0 -70 39.5 -105.5t134.5 -35.5t134.5 35.5t39.5 105.5h153v-43z" />
    <glyph glyph-name="Ohungarumlaut" unicode="&#x150;" horiz-adv-x="1607" 
d="M1536 719q0 -210 -98 -379t-264.5 -261.5t-368.5 -92.5q-200 0 -367.5 92.5t-266.5 261.5t-99 379q0 209 99 377.5t266.5 261t367.5 92.5q203 0 369.5 -92.5t264 -260.5t97.5 -378zM367 719q0 -217 121 -347t317 -130q195 0 315.5 130t120.5 347q0 216 -120.5 344.5
t-315.5 128.5q-197 0 -317.5 -128.5t-120.5 -344.5zM657 1913h238l-205 -385h-180zM1036 1913h238l-223 -385h-183z" />
    <glyph glyph-name="ohungarumlaut" unicode="&#x151;" horiz-adv-x="1306" 
d="M1237 567q0 -174 -79.5 -308.5t-213.5 -205.5t-299 -71q-164 0 -294 71t-205.5 205.5t-75.5 308.5q0 175 77.5 309.5t209.5 205.5t296 71t296.5 -71t210 -205.5t77.5 -309.5zM360 567q0 -161 81.5 -248.5t203.5 -87.5q123 0 210 88t87 248q0 161 -85 248.5t-208 87.5
q-122 0 -205.5 -87t-83.5 -249zM518 1630h238l-205 -385h-180zM897 1630h238l-224 -385h-182z" />
    <glyph glyph-name="OE" unicode="&#x152;" horiz-adv-x="2195" 
d="M2077 1204h-543v-370h481v-220h-481v-387h543v-227h-830v190q-165 -203 -465 -206q-145 0 -275.5 54.5t-226.5 150t-152 233t-56 295.5t56.5 296t152.5 233t225.5 149.5t273.5 54.5q297 0 467 -203v183h830v-226zM805 1186q-196 0 -317 -127.5t-121 -341.5
q0 -213 121 -342t317 -129q195 0 315.5 129t120.5 342q0 214 -120.5 341.5t-315.5 127.5z" />
    <glyph glyph-name="oe" unicode="&#x153;" horiz-adv-x="2154" 
d="M942 567q0 162 -85.5 251t-209.5 89q-120 0 -203.5 -89t-83.5 -251t81.5 -251t203.5 -89t209.5 90t87.5 250zM1507 918q-109 0 -182.5 -70t-85.5 -193h539q-3 120 -79.5 191.5t-191.5 71.5zM68 567q0 175 78 309.5t210.5 205.5t296.5 71q131 0 244 -54t190 -151
q71 98 182.5 151.5t246.5 53.5q247 0 403 -154t156 -405q0 -52 -9 -107h-829q9 -128 81 -198t185 -70q161 0 228 137h309q-48 -164 -189 -269t-344 -105q-133 0 -241.5 54t-180.5 154q-76 -100 -191 -154t-249 -54q-251 0 -414 161t-163 424z" />
    <glyph glyph-name="Racute" unicode="&#x154;" horiz-adv-x="1312" 
d="M899 985q0 98 -57 152.5t-174 54.5h-240v-420h240q116 0 173.5 56.5t57.5 156.5zM141 1430h537q125 0 225 -34.5t162.5 -95t95.5 -139.5t33 -170t-32.5 -170.5t-108 -145.5t-185.5 -95l342 -580h-331l-316 557h-135v-557h-287v1430zM403 1716l471 244v-234l-471 -215v205
z" />
    <glyph glyph-name="racute" unicode="&#x155;" horiz-adv-x="827" 
d="M428 565v-565h-287v1135h287v-177q56 91 144.5 142t203.5 51v-301h-76q-135 0 -203.5 -64t-68.5 -221zM262 1419l471 244v-233l-471 -216v205z" />
    <glyph glyph-name="uni0156" unicode="&#x156;" horiz-adv-x="1329" 
d="M541 -88h237q33 -118 33 -221q0 -135 -64.5 -209t-191.5 -74v117q102 0 102 127v37h-116v223zM428 0h-287v1430h537q125 0 225 -34.5t162.5 -95t95.5 -139.5t33 -170t-32.5 -170.5t-108 -145.5t-185.5 -95l342 -580h-331l-316 557h-135v-557zM899 985q0 98 -57 152.5
t-174 54.5h-240v-420h240q116 0 173.5 56.5t57.5 156.5z" />
    <glyph glyph-name="uni0157" unicode="&#x157;" horiz-adv-x="827" 
d="M160 -88h237q33 -108 33 -221q0 -135 -64.5 -209t-189.5 -74v117q100 0 100 127v37h-116v223zM428 565v-565h-287v1135h287v-177q56 91 144.5 142t203.5 51v-301h-76q-135 0 -203.5 -64t-68.5 -221z" />
    <glyph glyph-name="Rcaron" unicode="&#x158;" horiz-adv-x="1312" 
d="M899 985q0 98 -57 152.5t-174 54.5h-240v-420h240q116 0 173.5 56.5t57.5 156.5zM141 1430h537q125 0 225 -34.5t162.5 -95t95.5 -139.5t33 -170t-32.5 -170.5t-108 -145.5t-185.5 -95l342 -580h-331l-316 557h-135v-557h-287v1430zM653 1710l303 176v-209l-303 -166
l-305 166v209z" />
    <glyph glyph-name="rcaron" unicode="&#x159;" horiz-adv-x="827" 
d="M428 565v-565h-287v1135h287v-177q56 91 144.5 142t203.5 51v-301h-76q-135 0 -203.5 -64t-68.5 -221zM512 1413l303 176v-209l-303 -166l-305 166v209z" />
    <glyph glyph-name="Sacute" unicode="&#x15a;" horiz-adv-x="1247" 
d="M1141 414q0 -85 -34 -162t-96.5 -136.5t-159.5 -94.5t-216 -35q-229 0 -378.5 114.5t-152.5 311.5h308q6 -88 62.5 -139.5t154.5 -51.5q100 0 157.5 48t57.5 126q0 49 -25 86t-68 60t-98 42t-116 36.5t-122 37.5t-116.5 51.5t-97.5 73t-67 106.5t-25 148q0 191 139 302.5
t364 111.5q222 0 360.5 -108t151.5 -300h-315q-5 73 -60 121t-145 49q-88 3 -142 -40t-54 -128q0 -58 40.5 -98.5t105 -64.5t142.5 -46t156.5 -52.5t143 -73t105 -118t40.5 -177.5zM371 1731l471 243v-233l-471 -215v205z" />
    <glyph glyph-name="sacute" unicode="&#x15b;" horiz-adv-x="1116" 
d="M1022 324q0 -149 -122 -245.5t-325 -96.5q-210 0 -348 107.5t-147 268.5h289q8 -66 63.5 -108.5t140.5 -42.5q82 0 128.5 33t46.5 84q0 41 -35.5 69t-92 44.5t-125 32.5t-137 40.5t-125 59t-92 96.5t-35.5 147q0 146 122 243t327 97q203 0 324 -102t133 -273h-275
q-6 67 -56.5 107.5t-133.5 40.5q-78 0 -120 -29.5t-42 -79.5q0 -42 34.5 -70.5t90.5 -45.5t123 -33.5t135 -40.5t124 -59t92 -97t38 -147zM315 1434l471 243v-233l-471 -215v205z" />
    <glyph glyph-name="uni015E" unicode="&#x15e;" horiz-adv-x="1247" 
d="M1141 414q0 -103 -46.5 -191.5t-141.5 -151t-224 -79.5v-94q111 0 188.5 -57.5t77.5 -166.5q0 -110 -78.5 -169.5t-193.5 -59.5h-291v168h244q49 0 74.5 14.5t25.5 50.5t-25 50t-75 14h-127v248q-197 22 -319.5 133t-125.5 289h308q6 -88 62.5 -139.5t154.5 -51.5
q100 0 157.5 48t57.5 126q0 49 -25 86t-68 60t-98 42t-116 36.5t-122 37.5t-116.5 51.5t-97.5 73t-67 106.5t-25 148q0 191 139 302.5t364 111.5q222 0 360.5 -108t151.5 -300h-315q-5 73 -60 121t-145 49q-88 3 -142 -40t-54 -128q0 -58 40.5 -98.5t105 -64.5t142.5 -46
t156.5 -52.5t143 -73t105 -118t40.5 -177.5z" />
    <glyph glyph-name="uni015F" unicode="&#x15f;" horiz-adv-x="1116" 
d="M1022 324q0 -131 -95.5 -223t-260.5 -113v-80q112 0 189 -57t77 -166q0 -110 -79 -170t-194 -60h-290v168h243q101 0 101 66q0 36 -25.5 49.5t-75.5 13.5h-127v236q-176 23 -286.5 125.5t-118.5 244.5h289q8 -66 63.5 -108.5t140.5 -42.5q82 0 128.5 33t46.5 84
q0 41 -35.5 69t-92 44.5t-125 32.5t-137 40.5t-125 59t-92 96.5t-35.5 147q0 146 122 243t327 97q203 0 324 -102t133 -273h-275q-6 67 -56.5 107.5t-133.5 40.5q-78 0 -120 -29.5t-42 -79.5q0 -42 34.5 -70.5t90.5 -45.5t123 -33.5t135 -40.5t124 -59t92 -97t38 -147z" />
    <glyph glyph-name="Scaron" unicode="&#x160;" horiz-adv-x="1247" 
d="M1141 414q0 -85 -34 -162t-96.5 -136.5t-159.5 -94.5t-216 -35q-229 0 -378.5 114.5t-152.5 311.5h308q6 -88 62.5 -139.5t154.5 -51.5q100 0 157.5 48t57.5 126q0 49 -25 86t-68 60t-98 42t-116 36.5t-122 37.5t-116.5 51.5t-97.5 73t-67 106.5t-25 148q0 191 139 302.5
t364 111.5q222 0 360.5 -108t151.5 -300h-315q-5 73 -60 121t-145 49q-88 3 -142 -40t-54 -128q0 -58 40.5 -98.5t105 -64.5t142.5 -46t156.5 -52.5t143 -73t105 -118t40.5 -177.5zM621 1724l303 177v-209l-303 -166l-306 166v209z" />
    <glyph glyph-name="scaron" unicode="&#x161;" horiz-adv-x="1116" 
d="M1022 324q0 -149 -122 -245.5t-325 -96.5q-210 0 -348 107.5t-147 268.5h289q8 -66 63.5 -108.5t140.5 -42.5q82 0 128.5 33t46.5 84q0 41 -35.5 69t-92 44.5t-125 32.5t-137 40.5t-125 59t-92 96.5t-35.5 147q0 146 122 243t327 97q203 0 324 -102t133 -273h-275
q-6 67 -56.5 107.5t-133.5 40.5q-78 0 -120 -29.5t-42 -79.5q0 -42 34.5 -70.5t90.5 -45.5t123 -33.5t135 -40.5t124 -59t92 -97t38 -147zM563 1427l303 177v-209l-303 -166l-305 166v209z" />
    <glyph glyph-name="uni0162" unicode="&#x162;" horiz-adv-x="1181" 
d="M66 1198v232h1048v-232h-381v-1198h-47v-92q112 0 189 -57t77 -166q0 -110 -78.5 -170t-193.5 -60h-291v168h244q49 0 74.5 15t25.5 51t-25 49.5t-75 13.5h-127v248h-60v1198h-380z" />
    <glyph glyph-name="uni0163" unicode="&#x163;" horiz-adv-x="794" 
d="M186 352v547h-135v236h135v280h289v-280h254v-236h-254v-549q0 -58 27 -83t94 -25h133v-242h-180q-27 0 -39 2v-90q112 0 189 -57t77 -166q0 -110 -78.5 -170t-193.5 -60h-291v168h244q49 0 74.5 15t25.5 51t-25 49.5t-75 13.5h-127v291q-144 82 -144 305z" />
    <glyph glyph-name="Tcaron" unicode="&#x164;" horiz-adv-x="1181" 
d="M66 1198v232h1048v-232h-381v-1198h-287v1198h-380zM590 1710l303 176v-209l-303 -166l-305 166v209z" />
    <glyph glyph-name="tcaron" unicode="&#x165;" horiz-adv-x="800" 
d="M604 1659h238q35 -122 35 -201q0 -118 -65.5 -178.5t-193.5 -60.5v116q105 0 105 68v33h-119v223zM186 352v547h-135v236h135v280h289v-280h254v-236h-254v-549q0 -58 27 -83t94 -25h133v-242h-180q-363 0 -363 352z" />
    <glyph glyph-name="Utilde" unicode="&#x168;" horiz-adv-x="1427" 
d="M137 547v883h287v-885q0 -146 75.5 -222.5t213.5 -76.5q139 0 215 76.5t76 222.5v885h288v-883q0 -110 -30.5 -202.5t-84.5 -158t-127.5 -111t-159.5 -67.5t-181 -22q-119 0 -221.5 35.5t-181.5 103t-124 176.5t-45 246zM346 1540q20 135 86 201.5t168 66.5
q50 0 95.5 -22.5t84.5 -45t72 -22.5q76 0 88 88h154q-20 -135 -86 -201.5t-168 -66.5q-50 0 -95.5 23t-84.5 46t-72 23q-75 0 -90 -90h-152z" />
    <glyph glyph-name="utilde" unicode="&#x169;" horiz-adv-x="1353" 
d="M924 0v143q-55 -73 -144 -115t-194 -42q-203 0 -329 127.5t-126 355.5v666h287v-625q0 -134 68 -207.5t184 -73.5q119 0 186.5 73t67.5 208v625h288v-1135h-288zM309 1243q20 135 86 201.5t168 66.5q50 0 95.5 -22.5t84.5 -45t72 -22.5q76 0 88 88h154
q-20 -135 -86 -201.5t-168 -66.5q-50 0 -95.5 23t-84.5 46t-72 23q-75 0 -90 -90h-152z" />
    <glyph glyph-name="Umacron" unicode="&#x16a;" horiz-adv-x="1427" 
d="M137 547v883h287v-885q0 -146 75.5 -222.5t213.5 -76.5q139 0 215 76.5t76 222.5v885h288v-883q0 -110 -30.5 -202.5t-84.5 -158t-127.5 -111t-159.5 -67.5t-181 -22q-119 0 -221.5 35.5t-181.5 103t-124 176.5t-45 246zM324 1591v205h782v-205h-782z" />
    <glyph glyph-name="umacron" unicode="&#x16b;" horiz-adv-x="1353" 
d="M1212 1135v-1135h-288v143q-55 -73 -144 -115t-194 -42q-203 0 -329 127.5t-126 355.5v666h287v-625q0 -134 68 -207.5t184 -73.5q119 0 186.5 73t67.5 208v625h288zM287 1294v205h782v-205h-782z" />
    <glyph glyph-name="Ubreve" unicode="&#x16c;" horiz-adv-x="1427" 
d="M137 547v883h287v-885q0 -146 75.5 -222.5t213.5 -76.5q139 0 215 76.5t76 222.5v885h288v-883q0 -110 -30.5 -202.5t-84.5 -158t-127.5 -111t-159.5 -67.5t-181 -22q-119 0 -221.5 35.5t-181.5 103t-124 176.5t-45 246zM1040 1837q0 -147 -88 -231t-239 -84
q-149 0 -237.5 85t-88.5 232v41h152q0 -70 39.5 -105.5t134.5 -35.5t134.5 35.5t39.5 105.5h153v-43z" />
    <glyph glyph-name="ubreve" unicode="&#x16d;" horiz-adv-x="1353" 
d="M1212 1135v-1135h-288v143q-55 -73 -144 -115t-194 -42q-203 0 -329 127.5t-126 355.5v666h287v-625q0 -134 68 -207.5t184 -73.5q119 0 186.5 73t67.5 208v625h288zM1006 1540q0 -147 -88 -231t-240 -84q-149 0 -237.5 85t-88.5 232v41h152q0 -70 39.5 -105.5
t134.5 -35.5t134.5 35.5t39.5 105.5h154v-43z" />
    <glyph glyph-name="Uring" unicode="&#x16e;" horiz-adv-x="1427" 
d="M137 547v883h287v-885q0 -146 75.5 -222.5t213.5 -76.5q139 0 215 76.5t76 222.5v885h288v-883q0 -110 -30.5 -202.5t-84.5 -158t-127.5 -111t-159.5 -67.5t-181 -22q-119 0 -221.5 35.5t-181.5 103t-124 176.5t-45 246zM715 2001q102 0 170.5 -65t68.5 -171
t-68.5 -170.5t-170.5 -64.5q-101 0 -170.5 64.5t-69.5 170.5t69.5 171t170.5 65zM715 1663q40 0 69 29t29 73q0 46 -28.5 74.5t-69.5 28.5t-70 -28.5t-29 -74.5q0 -43 29 -72.5t70 -29.5z" />
    <glyph glyph-name="uring" unicode="&#x16f;" horiz-adv-x="1353" 
d="M1212 1135v-1135h-288v143q-55 -73 -144 -115t-194 -42q-203 0 -329 127.5t-126 355.5v666h287v-625q0 -134 68 -207.5t184 -73.5q119 0 186.5 73t67.5 208v625h288zM678 1366q40 0 69 29t29 73q0 46 -28.5 74.5t-69.5 28.5t-69.5 -28.5t-28.5 -74.5q0 -44 29 -73t69 -29
zM678 1704q102 0 171 -65t69 -171t-69 -170.5t-171 -64.5q-101 0 -170.5 64.5t-69.5 170.5t69.5 171t170.5 65z" />
    <glyph glyph-name="Uhungarumlaut" unicode="&#x170;" horiz-adv-x="1427" 
d="M137 547v883h287v-885q0 -146 75.5 -222.5t213.5 -76.5q139 0 215 76.5t76 222.5v885h288v-883q0 -110 -30.5 -202.5t-84.5 -158t-127.5 -111t-159.5 -67.5t-181 -22q-119 0 -221.5 35.5t-181.5 103t-124 176.5t-45 246zM567 1913h238l-205 -385h-180zM946 1913h238
l-223 -385h-183z" />
    <glyph glyph-name="uhungarumlaut" unicode="&#x171;" horiz-adv-x="1353" 
d="M1212 1135v-1135h-288v143q-55 -73 -144 -115t-194 -42q-203 0 -329 127.5t-126 355.5v666h287v-625q0 -134 68 -207.5t184 -73.5q119 0 186.5 73t67.5 208v625h288zM530 1616h238l-205 -385h-180zM909 1616h238l-223 -385h-183z" />
    <glyph glyph-name="Uogonek" unicode="&#x172;" horiz-adv-x="1427" 
d="M137 547v883h287v-885q0 -146 75.5 -222.5t213.5 -76.5q139 0 215 76.5t76 222.5v885h288v-883q0 -222 -116 -361.5t-306 -181.5v-2l-96 -49q-127 -63 -127 -135q0 -37 28 -59.5t75 -22.5q63 0 145 31v-173q-88 -30 -182 -30q-78 0 -140.5 22t-104.5 75t-42 130
q0 121 119 213q-184 43 -296 182t-112 361z" />
    <glyph glyph-name="uogonek" unicode="&#x173;" horiz-adv-x="1353" 
d="M1212 1135v-1135v-2l-96 -49q-127 -63 -127 -135q0 -37 28 -59.5t75 -22.5q66 0 145 30v-172q-88 -30 -182 -30q-78 0 -140.5 22t-104.5 75t-42 130q0 139 156 238v118q-55 -73 -144 -115t-194 -42q-203 0 -329 127.5t-126 355.5v666h287v-625q0 -134 68 -207.5
t184 -73.5q119 0 186.5 73t67.5 208v625h288z" />
    <glyph glyph-name="Wcircumflex" unicode="&#x174;" horiz-adv-x="2097" 
d="M430 -2l-385 1432h307l252 -1111l291 1111h319l275 -1104l254 1104h309l-399 -1430h-338l-268 1018l-281 -1018zM1346 1729v-209l-304 172l-305 -172v209l305 165z" />
    <glyph glyph-name="wcircumflex" unicode="&#x175;" horiz-adv-x="1728" 
d="M348 0l-334 1135h291l201 -865l217 865h303l213 -863l201 863h274l-332 -1135h-309l-207 793l-207 -793h-311zM1169 1423v-209l-303 172l-305 -172v209l305 166z" />
    <glyph glyph-name="Ycircumflex" unicode="&#x176;" horiz-adv-x="1302" 
d="M508 498l-485 932h323l307 -654l305 654h320l-483 -932v-498h-287v498zM956 1720v-209l-303 172l-305 -172v209l305 166z" />
    <glyph glyph-name="ycircumflex" unicode="&#x177;" horiz-adv-x="1239" 
d="M625 342l297 793h305l-703 -1672h-305l246 566l-455 1106h322zM924 1423v-209l-303 172l-306 -172v209l306 166z" />
    <glyph glyph-name="Ydieresis" unicode="&#x178;" horiz-adv-x="1302" 
d="M508 498l-485 932h323l307 -654l305 654h320l-483 -932v-498h-287v498zM461 1567q-57 0 -96 39t-39 96t39 97t96 40t97 -40t40 -97t-40 -96t-97 -39zM840 1567q-57 0 -96 39t-39 96t39 97t96 40t97 -40t40 -97t-40 -96t-97 -39z" />
    <glyph glyph-name="Zacute" unicode="&#x179;" horiz-adv-x="1179" 
d="M1077 1430v-222l-643 -966h643v-242h-975v221l639 967h-639v242h975zM342 1716l471 244v-234l-471 -215v205z" />
    <glyph glyph-name="zacute" unicode="&#x17a;" horiz-adv-x="989" 
d="M903 1135v-232l-500 -667h506v-236h-831v231l495 668h-493v236h823zM250 1419l471 244v-233l-471 -216v205z" />
    <glyph glyph-name="Zdotaccent" unicode="&#x17b;" horiz-adv-x="1179" 
d="M1077 1430v-222l-643 -966h643v-242h-975v221l639 967h-639v242h975zM588 1567q-57 0 -96 39t-39 96t39 97t96 40t97 -40t40 -97t-40 -96t-97 -39z" />
    <glyph glyph-name="zdotaccent" unicode="&#x17c;" horiz-adv-x="989" 
d="M903 1135v-232l-500 -667h506v-236h-831v231l495 668h-493v236h823zM498 1270q-57 0 -96.5 39t-39.5 96t39.5 97t96.5 40t97 -40t40 -97t-40 -96t-97 -39z" />
    <glyph glyph-name="Zcaron" unicode="&#x17d;" horiz-adv-x="1179" 
d="M1077 1430v-222l-643 -966h643v-242h-975v221l639 967h-639v242h975zM590 1710l303 176v-209l-303 -166l-305 166v209z" />
    <glyph glyph-name="zcaron" unicode="&#x17e;" horiz-adv-x="989" 
d="M903 1135v-232l-500 -667h506v-236h-831v231l495 668h-493v236h823zM500 1413l303 176v-209l-303 -166l-305 166v209z" />
    <glyph glyph-name="uni018F" unicode="&#x18f;" horiz-adv-x="1599" 
d="M799 248q158 0 267 90t124 246h-782q6 -151 114.5 -243.5t276.5 -92.5zM801 -14q-312 0 -501 184t-189 506q0 73 8 133h1071q-10 177 -117.5 281t-271.5 104q-125 0 -216.5 -56.5t-133.5 -156.5h-320q67 216 244 344.5t424 128.5q311 0 504.5 -203t193.5 -532
q0 -216 -86.5 -382.5t-244.5 -258.5t-365 -92z" />
    <glyph glyph-name="florin" unicode="&#x192;" horiz-adv-x="684" 
d="M180 1198q23 205 144 299t358 94l-25 -241q-94 0 -137.5 -34.5t-50.5 -117.5l-6 -63h186l-22 -236h-191l-110 -1046q-19 -186 -121 -265.5t-277 -79.5h-49l25 242h43q42 0 64 24.5t28 78.5l111 1046h-123l24 236h123z" />
    <glyph glyph-name="uni01FC" unicode="&#x1fc;" horiz-adv-x="1918" 
d="M854 1718l471 244v-233l-471 -216v205zM975 1223l-385 -734h385v734zM1800 1206h-536v-368h475v-222h-475v-389h536v-227h-825v268h-502l-141 -268h-314l762 1432h1020v-226z" />
    <glyph glyph-name="uni01FD" unicode="&#x1fd;" horiz-adv-x="2211" 
d="M1554 918q-112 0 -195.5 -68.5t-103.5 -187.5h588q-1 116 -83 186t-206 70zM2109 356q-46 -164 -175 -269t-314 -105q-124 0 -227.5 51t-163.5 135v-168h-262v168q-64 -84 -162 -135t-219 -51q-108 0 -203 42.5t-164.5 118.5t-110 187t-40.5 241q0 261 150 421.5
t378 160.5q238 0 375 -178v160h258v-160q142 178 391 178q229 0 374.5 -156t145.5 -403q0 -45 -10 -107h-875q18 -129 102.5 -198.5t190.5 -69.5q99 0 162.5 37t89.5 100h309zM360 571q0 -154 88.5 -246t210.5 -92q125 0 213.5 90t88.5 244t-88.5 244t-213.5 90
q-123 0 -211 -88t-88 -242zM956 1419l471 244v-233l-471 -216v205z" />
    <glyph glyph-name="uni0218" unicode="&#x218;" horiz-adv-x="1277" 
d="M516 -88h238q34 -112 34 -221q0 -134 -65.5 -208.5t-192.5 -74.5v117q103 0 103 127v37h-117v223zM1141 414q0 -85 -34 -162t-96.5 -136.5t-159.5 -94.5t-216 -35q-229 0 -378.5 114.5t-152.5 311.5h308q6 -88 62.5 -139.5t154.5 -51.5q100 0 157.5 48t57.5 126
q0 49 -25 86t-68 60t-98 42t-116 36.5t-122 37.5t-116.5 51.5t-97.5 73t-67 106.5t-25 148q0 191 139 302.5t364 111.5q222 0 360.5 -108t151.5 -300h-315q-5 73 -60 121t-145 49q-88 3 -142 -40t-54 -128q0 -58 40.5 -98.5t105 -64.5t142.5 -46t156.5 -52.5t143 -73
t105 -118t40.5 -177.5z" />
    <glyph glyph-name="uni0219" unicode="&#x219;" horiz-adv-x="1116" 
d="M434 -88h238q33 -118 33 -221q0 -135 -64.5 -209t-191.5 -74v117q102 0 102 127v37h-117v223zM1022 324q0 -149 -122 -245.5t-325 -96.5q-210 0 -348 107.5t-147 268.5h289q8 -66 63.5 -108.5t140.5 -42.5q82 0 128.5 33t46.5 84q0 41 -35.5 69t-92 44.5t-125 32.5
t-137 40.5t-125 59t-92 96.5t-35.5 147q0 146 122 243t327 97q203 0 324 -102t133 -273h-275q-6 67 -56.5 107.5t-133.5 40.5q-78 0 -120 -29.5t-42 -79.5q0 -42 34.5 -70.5t90.5 -45.5t123 -33.5t135 -40.5t124 -59t92 -97t38 -147z" />
    <glyph glyph-name="uni021A" unicode="&#x21a;" horiz-adv-x="1181" 
d="M467 -88h238q32 -114 32 -221q0 -135 -64.5 -209t-191.5 -74v117q105 0 105 127v37h-119v223zM66 1198v232h1048v-232h-381v-1198h-287v1198h-380z" />
    <glyph glyph-name="uni021B" unicode="&#x21b;" horiz-adv-x="794" 
d="M279 -88h237q35 -115 35 -221q0 -134 -65.5 -208.5t-192.5 -74.5v117q102 0 102 127v37h-116v223zM186 352v547h-135v236h135v280h289v-280h254v-236h-254v-549q0 -58 27 -83t94 -25h133v-242h-180q-363 0 -363 352z" />
    <glyph glyph-name="uni0259" unicode="&#x259;" horiz-adv-x="1263" 
d="M635 217q105 0 178 64.5t90 179.5h-538q3 -110 80 -177t190 -67zM627 -18q-248 0 -403.5 154.5t-155.5 406.5q0 61 8 110h829q-10 123 -86 192.5t-186 69.5q-160 0 -227 -137h-310q48 164 188 269.5t343 105.5q250 0 409.5 -161t159.5 -425q0 -266 -157.5 -425.5
t-411.5 -159.5z" />
    <glyph glyph-name="uni02BC" unicode="&#x2bc;" horiz-adv-x="563" 
d="M279 913h-197l117 517h301z" />
    <glyph glyph-name="circumflex" unicode="&#x2c6;" horiz-adv-x="649" 
d="M629 1423v-209l-303 172l-306 -172v209l306 166z" />
    <glyph glyph-name="caron" unicode="&#x2c7;" horiz-adv-x="649" 
d="M326 1413l303 176v-209l-303 -166l-306 166v209z" />
    <glyph glyph-name="uni02C9" unicode="&#x2c9;" horiz-adv-x="823" 
d="M20 1294v205h783v-205h-783z" />
    <glyph glyph-name="breve" unicode="&#x2d8;" horiz-adv-x="694" 
d="M674 1540q0 -147 -88 -231t-240 -84q-149 0 -237.5 85t-88.5 232v41h152q0 -70 39.5 -105.5t134.5 -35.5t134.5 35.5t39.5 105.5h154v-43z" />
    <glyph glyph-name="dotaccent" unicode="&#x2d9;" horiz-adv-x="313" 
d="M156 1270q-57 0 -96.5 39t-39.5 96t39.5 97t96.5 40t97 -40t40 -97t-40 -96t-97 -39z" />
    <glyph glyph-name="ring" unicode="&#x2da;" horiz-adv-x="509" 
d="M256 1704q102 0 171 -65t69 -171t-69 -170.5t-171 -64.5q-101 0 -170.5 64.5t-69.5 170.5t69.5 171t170.5 65zM256 1366q40 0 69 29t29 73q0 46 -28.5 74.5t-69.5 28.5t-69.5 -28.5t-28.5 -74.5q0 -44 29 -73t69 -29z" />
    <glyph glyph-name="ogonek" unicode="&#x2db;" horiz-adv-x="514" 
d="M319 100l82 37l68 -137l-96 -49q-127 -63 -127 -135q0 -37 27.5 -59.5t74.5 -22.5q66 0 146 30v-172q-88 -30 -183 -30q-57 0 -107 13t-91 39.5t-64.5 71t-23.5 103.5q0 90 66.5 165.5t227.5 145.5z" />
    <glyph glyph-name="tilde" unicode="&#x2dc;" horiz-adv-x="780" 
d="M16 1243q20 135 86 201.5t168 66.5q50 0 95.5 -22.5t84.5 -45t72 -22.5q76 0 88 88h154q-20 -135 -86 -201.5t-168 -66.5q-50 0 -95.5 23t-84.5 46t-72 23q-75 0 -90 -90h-152z" />
    <glyph glyph-name="hungarumlaut" unicode="&#x2dd;" horiz-adv-x="821" 
d="M168 1616h238l-205 -385h-181zM547 1616h237l-223 -385h-182z" />
    <glyph glyph-name="pi" unicode="&#x3c0;" horiz-adv-x="1445" 
d="M53 913v222h1336v-222h-152v-913h-287v913h-458v-913h-289v913h-150z" />
    <glyph glyph-name="dvCandrabindu" unicode="&#x901;" horiz-adv-x="0" 
d="M-330 1667q-223 0 -343 110t-120 294h211q0 -89 66 -152.5t186 -63.5q117 0 182.5 63.5t65.5 152.5h213q0 -184 -119.5 -294t-341.5 -110zM-332 2015q-44 0 -76 32.5t-32 78.5q0 44 32 76t76 32q47 0 79 -31.5t32 -76.5q0 -46 -32 -78.5t-79 -32.5z" />
    <glyph glyph-name="dvAnusvara" unicode="&#x902;" horiz-adv-x="0" 
d="M-319 1683q-67 0 -113.5 46t-46.5 112q0 67 46.5 113.5t113.5 46.5t113 -46t46 -114q0 -66 -46 -112t-113 -46z" />
    <glyph glyph-name="dvVisarga" unicode="&#x903;" horiz-adv-x="536" 
d="M268 819q-68 0 -115 46t-47 112q0 67 47 113.5t115 46.5q66 0 113 -46.5t47 -113.5q0 -66 -47 -112t-113 -46zM268 213q-68 0 -115 46.5t-47 113.5q0 66 47 111.5t115 45.5q66 0 113 -45.5t47 -111.5q0 -67 -47 -113.5t-113 -46.5z" />
    <glyph glyph-name="dvA" unicode="&#x905;" horiz-adv-x="1710" 
d="M559 952q97 0 153 51t56 125q0 83 -52.5 133t-129.5 50q-84 0 -139.5 -49t-55.5 -127h-244q0 180 121.5 289.5t317.5 109.5q188 0 303 -101t115 -268q0 -114 -59.5 -196t-168.5 -115v-4q50 -10 103 -43h381v709h491v-222h-227v-1294h-264v588l-240 2q6 -41 6 -76
q0 -181 -115 -289t-305 -108q-212 0 -342.5 117.5t-130.5 308.5h248q0 -86 57.5 -142.5t149.5 -56.5q91 0 144.5 54t53.5 141q0 83 -57 141.5t-170 58.5h-88v213h88z" />
    <glyph glyph-name="dvAA" unicode="&#x906;" horiz-adv-x="2332" 
d="M559 952q97 0 153 51t56 125q0 83 -52.5 133t-129.5 50q-84 0 -139.5 -49t-55.5 -127h-244q0 180 121.5 289.5t317.5 109.5q188 0 303 -101t115 -268q0 -114 -59.5 -196t-168.5 -115v-4q50 -10 103 -43h381v709h1126v-222h-227v-1294h-265v1294h-370v-1294h-264v588
l-240 2q6 -41 6 -76q0 -181 -115 -289t-305 -108q-212 0 -342.5 117.5t-130.5 308.5h248q0 -86 57.5 -142.5t149.5 -56.5q91 0 144.5 54t53.5 141q0 83 -57 141.5t-170 58.5h-88v213h88z" />
    <glyph glyph-name="dvI" unicode="&#x907;" horiz-adv-x="1185" 
d="M-55 1294v222h1296v-222h-285v-374h-370q-77 0 -128.5 -28.5t-51.5 -96.5q0 -62 44 -91.5t117 -29.5h90q66 0 124.5 -11t114 -37t95.5 -66.5t64 -103.5t24 -143q0 -153 -95 -249.5t-265 -96.5q-111 0 -183.5 42.5t-109.5 94.5v-270h-250v524h238q8 -89 68 -141.5
t161 -52.5q90 0 138 44t48 111q0 89 -61 128.5t-160 39.5h-121q-67 3 -126.5 22t-110 54.5t-80 95.5t-29.5 138q0 82 30 143.5t83 98t119 54t143 17.5h186v184h-757z" />
    <glyph glyph-name="dvII" unicode="&#x908;" horiz-adv-x="1185" 
d="M426 104v-270h-250v524h238q8 -89 68 -141.5t161 -52.5q90 0 138 44t48 111q0 89 -61 128.5t-160 39.5h-121q-67 3 -126.5 22t-110 54.5t-80 95.5t-29.5 138q0 82 30 143.5t83 98t119 54t143 17.5h186v184h-757v222h762v139q0 69 11.5 129t39.5 115.5t70.5 95t108.5 63
t150 23.5q183 0 281 -105.5t90 -285.5h-231q3 78 -33.5 124t-99.5 46q-142 0 -142 -203v-141h289v-222h-285v-374h-370q-77 0 -128.5 -28.5t-51.5 -96.5q0 -62 44 -91.5t117 -29.5h90q66 0 124.5 -11t114 -37t95.5 -66.5t64 -103.5t24 -143q0 -153 -95 -249.5t-265 -96.5
q-111 0 -183.5 42.5t-109.5 94.5z" />
    <glyph glyph-name="dvU" unicode="&#x909;" horiz-adv-x="1165" 
d="M-43 1294v222h1251v-222h-207v-157q0 -123 -56 -205t-146 -101v-4q117 -31 187.5 -133.5t70.5 -242.5q0 -199 -123.5 -322t-337.5 -123q-224 0 -365 129.5t-141 343.5h252q0 -101 69 -168t173 -67q102 0 162.5 63t60.5 164q0 61 -23 112.5t-78.5 87.5t-136.5 36h-112v231
h75q102 0 159 56t57 157v143h-791z" />
    <glyph glyph-name="dvUU" unicode="&#x90a;" horiz-adv-x="1755" 
d="M-43 1294v222h1839v-222h-795v-157q0 -123 -56 -205t-146 -101v-4h387q218 0 347.5 -100t129.5 -303q0 -178 -105.5 -278.5t-287.5 -100.5q-46 0 -111 10v201q23 -2 66 -2q83 0 133.5 44t50.5 136t-60.5 137t-158.5 45h-172q37 -78 37 -180q0 -189 -123.5 -309.5
t-335.5 -120.5q-224 0 -365 129.5t-141 343.5h252q0 -101 69 -168t173 -67q102 0 162.5 63t60.5 164q0 61 -23 112.5t-78.5 87.5t-136.5 36h-112v231h75q102 0 159 56t57 157v143h-791z" />
    <glyph glyph-name="dvvR" unicode="&#x90b;" horiz-adv-x="2129" 
d="M993 0v428l-450 -428h-334v12l782 678q-25 92 -98 147.5t-178 55.5q-144 0 -230 -89t-86 -237h-264q0 247 136 398t366 151q231 0 356 -164v342h-1036v222h2216v-222h-936v-381h324q145 0 145 127v93h227v-719h-47q-96 0 -146 -48t-50 -124q0 -87 56.5 -127.5
t149.5 -40.5q51 0 117 16v-211q-82 -16 -153 -16q-187 0 -305.5 93t-118.5 261q0 131 72 219t198 121v182q-75 -34 -184 -34h-285v-705h-244z" />
    <glyph glyph-name="dvvL" unicode="&#x90c;" horiz-adv-x="1851" 
d="M-43 1294v222h1935v-222h-456v-217q133 -41 214 -162t81 -303q0 -103 -33 -204h-15q-117 0 -173 -48t-56 -127q0 -83 58.5 -123t152.5 -40q70 0 119 14v-211q-82 -14 -152 -14q-126 0 -222 39.5t-153 122t-57 200.5q0 119 73.5 207.5t188.5 116.5q4 46 4 69
q0 110 -54 180t-152 70q-109 0 -163.5 -81t-54.5 -212v-51h-221v51q0 128 -53 210.5t-158 82.5q-106 0 -163.5 -71t-57.5 -185q0 -133 69 -205.5t191 -72.5q16 0 56 4v-232q-27 -2 -70 -2q-246 0 -380 139t-134 373q0 117 35.5 210t97 153t143 91.5t176.5 31.5
q72 0 132.5 -21.5t103 -59t71 -82t46.5 -97.5h6q30 87 92 152t156 91v213h-1223z" />
    <glyph glyph-name="dvEcandra" unicode="&#x90d;" horiz-adv-x="1335" 
d="M-43 1294v222h1421v-222h-198v-190q0 -240 -107 -347t-354 -77v238q107 -12 156 34.5t49 159.5v182h-475v-749q0 -134 63.5 -207.5t177.5 -73.5q108 0 170 64t62 176h258q0 -219 -130.5 -342t-353.5 -123q-252 0 -382 139.5t-130 376.5l-2 739h-225zM672 1692
q-230 0 -346.5 112t-116.5 291h227q0 -89 58.5 -148t177.5 -59q116 0 175.5 59t59.5 148h226q0 -86 -27.5 -158t-82.5 -127.5t-145 -86.5t-206 -31z" />
    <glyph glyph-name="dvE" unicode="&#x90f;" horiz-adv-x="1335" 
d="M-43 1294v222h1421v-222h-198v-190q0 -240 -107 -347t-354 -77v238q107 -12 156 34.5t49 159.5v182h-475v-749q0 -134 63.5 -207.5t177.5 -73.5q108 0 170 64t62 176h258q0 -219 -130.5 -342t-353.5 -123q-252 0 -382 139.5t-130 376.5l-2 739h-225z" />
    <glyph glyph-name="dvAI" unicode="&#x910;" horiz-adv-x="1335" 
d="M696 39q-252 0 -382 139.5t-130 376.5l-2 739h-225v222h958q-54 85 -93 136.5t-74 87t-73.5 51.5t-77 22t-99.5 6h-101v215h95q83 -1 137 -6.5t112.5 -25t102 -52.5t96.5 -92t106 -140.5t121 -201.5h211v-222h-198v-190q0 -240 -107 -347t-354 -77v238q107 -12 156 34.5
t49 159.5v182h-475v-749q0 -134 63.5 -207.5t177.5 -73.5q108 0 170 64t62 176h258q0 -219 -130.5 -342t-353.5 -123z" />
    <glyph glyph-name="dvOcandra" unicode="&#x911;" horiz-adv-x="2342" 
d="M559 952q97 0 153 51t56 125q0 83 -52.5 133t-129.5 50q-84 0 -139.5 -49t-55.5 -127h-244q0 180 121.5 289.5t317.5 109.5q188 0 303 -101t115 -268q0 -114 -59.5 -196t-168.5 -115v-4q50 -10 103 -43h381v709h1126v-222h-227v-1294h-265v1294h-370v-1294h-264v588
l-240 2q6 -41 6 -76q0 -181 -115 -289t-305 -108q-212 0 -342.5 117.5t-130.5 308.5h248q0 -86 57.5 -142.5t149.5 -56.5q91 0 144.5 54t53.5 141q0 83 -57 141.5t-170 58.5h-88v213h88zM1716 1692q-230 0 -346.5 112t-116.5 291h228q0 -89 58.5 -148t176.5 -59
q116 0 176 59.5t60 147.5h225q0 -86 -27.5 -158t-82.5 -127.5t-145 -86.5t-206 -31z" />
    <glyph glyph-name="dvO" unicode="&#x913;" horiz-adv-x="2342" 
d="M1524 0h-264v588l-240 2q6 -41 6 -76q0 -181 -115 -289t-305 -108q-212 0 -342.5 117.5t-130.5 308.5h248q0 -86 57.5 -142.5t149.5 -56.5q91 0 144.5 54t53.5 141q0 83 -57 141.5t-170 58.5h-88v213h88q97 0 153 51t56 125q0 83 -52.5 133t-129.5 50q-84 0 -139.5 -49
t-55.5 -127h-244q0 180 121.5 289.5t317.5 109.5q188 0 303 -101t115 -268q0 -114 -59.5 -196t-168.5 -115v-4q50 -10 103 -43h381v709h634q-54 85 -93 136.5t-74 87t-73.5 51.5t-77 22t-99.5 6h-101v215h94q83 -1 137 -6.5t112.5 -24.5t102.5 -52.5t97 -92.5t106 -140.5
t121 -201.5h240v-222h-227v-1294h-265v1294h-370v-1294z" />
    <glyph glyph-name="dvAU" unicode="&#x914;" horiz-adv-x="2342" 
d="M1524 0h-264v588l-240 2q6 -41 6 -76q0 -181 -115 -289t-305 -108q-212 0 -342.5 117.5t-130.5 308.5h248q0 -86 57.5 -142.5t149.5 -56.5q91 0 144.5 54t53.5 141q0 83 -57 141.5t-170 58.5h-88v213h88q97 0 153 51t56 125q0 83 -52.5 133t-129.5 50q-84 0 -139.5 -49
t-55.5 -127h-244q0 180 121.5 289.5t317.5 109.5q188 0 303 -101t115 -268q0 -114 -59.5 -196t-168.5 -115v-4q50 -10 103 -43h381v709h651q-95 65 -136 91t-95.5 45t-94 21t-131.5 2h-102v166h96q88 0 127.5 -2.5t92 -15.5t95.5 -40t107 -77q-41 71 -76 122t-69.5 83.5
t-62 51.5t-65 27.5t-64.5 10.5t-75 2h-106v168h102q63 0 101 -2t85 -12.5t76.5 -27t70 -51t73 -79.5t78.5 -116.5t92.5 -158t109.5 -208.5h246v-222h-227v-1294h-265v1294h-370v-1294z" />
    <glyph glyph-name="dvKA" unicode="&#x915;" horiz-adv-x="1998" 
d="M887 0v332q-48 -81 -133.5 -127.5t-204.5 -46.5q-194 0 -311 131t-117 346q0 214 119.5 344.5t318.5 130.5q114 0 197 -44.5t131 -121.5v350h-930v222h2083v-222h-899v-354q45 79 125.5 124.5t191.5 45.5q190 0 305 -133t115 -336q0 -218 -118 -342.5t-306 -124.5
q-72 0 -135 14v209q24 -8 63 -8q100 0 164 66t64 180q0 109 -65.5 178.5t-168.5 69.5q-115 0 -175 -78t-60 -189v-616h-254zM637 379q118 0 184 77t66 177q0 102 -64.5 177t-183.5 75q-107 0 -178.5 -69.5t-71.5 -182.5q0 -115 69.5 -184.5t178.5 -69.5z" />
    <glyph glyph-name="dvKHA" unicode="&#x916;" horiz-adv-x="1945" 
d="M1288 451q101 0 156 65t55 154q-2 88 -56 152.5t-155 64.5q-94 0 -156.5 -58.5t-62.5 -156.5q0 -104 62 -162.5t157 -58.5zM1231 248q-22 0 -68 4q-69 -118 -187 -190t-276 -72q-255 0 -404 145t-149 406v280h62q137 0 208.5 66t71.5 217v190h-532v222h2032v-222h-228
v-1294h-262v371q-88 -123 -268 -123zM707 217q170 0 254 131q-127 121 -127 324q0 184 112 301t285 117q177 0 268 -123v327h-743v-225q0 -206 -94 -313.5t-252 -120.5v-125q0 -131 79 -212t218 -81z" />
    <glyph glyph-name="dvGA" unicode="&#x917;" horiz-adv-x="1615" 
d="M1165 0v1294h-297v-495q0 -182 -97 -296t-292 -114q-190 0 -293.5 104.5t-103.5 290.5q0 44 2 64h256v-64q0 -74 31.5 -122t101.5 -48q129 0 129 172v508h-645v222h1700v-222h-227v-1294h-265z" />
    <glyph glyph-name="dvGHA" unicode="&#x918;" horiz-adv-x="1439" 
d="M659 418q141 0 236.5 87.5t95.5 227.5v561h-551v-106q0 -97 52.5 -148t169.5 -51h86v-213h-107q-113 0 -169 -48t-56 -126q0 -90 67 -137t176 -47zM-43 1294v222h1526v-222h-226v-1294h-266v387q-63 -89 -165.5 -137.5t-229.5 -48.5q-196 0 -322.5 97.5t-126.5 276.5
q0 119 70 198.5t170 103.5v6q-211 48 -211 293v118h-219z" />
    <glyph glyph-name="dvNGA" unicode="&#x919;" horiz-adv-x="1404" 
d="M1231 631q-61 0 -103.5 42t-42.5 101q0 62 42.5 104t103.5 42t103 -42t42 -104q0 -59 -42 -101t-103 -42zM-43 1294v222h1491v-222h-483v-374h-373q-34 0 -63.5 -5.5t-56.5 -19t-42.5 -38.5t-15.5 -60q0 -64 44.5 -93.5t114.5 -29.5h93q65 0 123.5 -11t113.5 -37.5
t94.5 -66.5t63.5 -101.5t24 -138.5q0 -163 -116.5 -259.5t-331.5 -96.5q-228 0 -369.5 105.5t-148.5 289.5h264q1 -90 68 -142t178 -52q99 0 153 43.5t54 114.5q0 87 -60.5 126t-159.5 39h-75q-54 0 -104 7.5t-104 29t-93 56t-64.5 92.5t-25.5 133q0 78 30 137.5t82.5 94.5
t118 52t141.5 17h187v188h-752z" />
    <glyph glyph-name="dvCA" unicode="&#x91a;" horiz-adv-x="1527" 
d="M-43 1294v222h1614v-222h-228v-1294h-264v360q-59 -85 -155 -131.5t-215 -46.5q-184 0 -305 107t-121 291q0 174 127 272h-308v209h752v-209h-80q-107 0 -174.5 -63t-67.5 -164q0 -105 72.5 -164.5t181.5 -59.5q133 1 213 96t80 242v555h-1122z" />
    <glyph glyph-name="dvCHA" unicode="&#x91b;" horiz-adv-x="1681" 
d="M-43 1294v222h1767v-222h-409v-198q128 -35 202 -142.5t74 -273.5q0 -292 -207 -462.5t-565 -170.5q-204 0 -355.5 49t-240 152.5t-88.5 251.5q0 127 67 209t181 114v6q-95 20 -153 92t-58 201v172h-215zM821 272q251 0 395 109.5t144 308.5q0 105 -48.5 166.5
t-119.5 61.5q-67 0 -114.5 -49t-47.5 -142q0 -72 31 -170h-219q-33 91 -33 199q0 143 72 228.5t190 113.5v196h-635v-161q0 -197 205 -197h41v-213h-37q-120 0 -181 -56t-61 -143q0 -122 106 -187t312 -65z" />
    <glyph glyph-name="dvJA" unicode="&#x91c;" horiz-adv-x="1744" 
d="M-43 1294v222h1831v-222h-227v-1294h-265v782h-292v-112q0 -196 -119 -318.5t-320 -122.5q-211 0 -326.5 121t-115.5 320v338h268v-332q0 -99 46 -157t128 -58q85 0 132.5 58t47.5 157v332h551v286h-1339z" />
    <glyph glyph-name="dvJHA" unicode="&#x91d;" horiz-adv-x="1765" 
d="M567 674h754v620h-365v-374h-370q-77 0 -128.5 -28.5t-51.5 -96.5q0 -62 44 -91.5t117 -29.5zM1321 0v475h-303q55 -74 55 -188q0 -137 -90.5 -224.5t-253.5 -87.5q-187 0 -295 127v-268h-250v514h238q8 -78 67 -128t160 -50q88 0 134 42.5t46 106.5q0 79 -55.5 123.5
t-165.5 44.5h-121q-67 3 -126.5 22t-110 54.5t-80 95.5t-29.5 138q0 82 30 143.5t83 98t119 54t143 17.5h186v184h-745v222h1849v-222h-227v-1294h-258z" />
    <glyph glyph-name="dvNYA" unicode="&#x91e;" horiz-adv-x="1689" 
d="M-43 1294v222h1776v-222h-228v-1294h-264v524h-184q-30 -178 -153 -282.5t-314 -104.5q-199 0 -325 106.5t-144 276.5h250q20 -70 78 -115t143 -45q112 0 173.5 76t61.5 191q0 111 -61.5 186.5t-173.5 75.5q-86 0 -144.5 -45.5t-76.5 -114.5h-250q15 171 142 278t327 107
q186 0 308 -99.5t155 -266.5h188v546h-1284z" />
    <glyph glyph-name="dvTTA" unicode="&#x91f;" horiz-adv-x="1327" 
d="M-43 1294v222h1411v-222h-385v-409h-252q-152 0 -248 -78.5t-96 -226.5q0 -130 84.5 -211.5t220.5 -81.5q139 0 224 85.5t85 221.5h252q0 -242 -152 -389.5t-405 -147.5t-414 145t-161 378q0 246 161 387t433 141h10v186h-768z" />
    <glyph glyph-name="dvTTHA" unicode="&#x920;" horiz-adv-x="1378" 
d="M688 295q137 0 222 84t85 215t-85 214t-222 83q-133 0 -218 -83t-85 -214t85 -215t218 -84zM688 74q-160 0 -288 62.5t-203.5 182t-75.5 275.5q0 206 121.5 338.5t312.5 169.5v192h-598v222h1462v-222h-602v-192q193 -36 316.5 -168t123.5 -340q0 -156 -75 -275.5
t-204 -182t-290 -62.5z" />
    <glyph glyph-name="dvDDA" unicode="&#x921;" horiz-adv-x="1165" 
d="M-43 1294v222h1249v-222h-250v-374h-364q-34 0 -63.5 -5.5t-56.5 -19t-42.5 -38.5t-15.5 -60q0 -64 44.5 -93.5t114.5 -29.5h93q65 0 123.5 -11t113.5 -37.5t94.5 -66.5t63.5 -101.5t24 -138.5q0 -163 -116.5 -259.5t-331.5 -96.5q-228 0 -369.5 105.5t-148.5 289.5h264
q1 -90 68 -142t178 -52q99 0 153 43.5t54 114.5q0 87 -60.5 126t-159.5 39h-75q-54 0 -104 7.5t-104 29t-93 56t-64.5 92.5t-25.5 133q0 78 30 137.5t82.5 94.5t118 52t141.5 17h180v188h-745z" />
    <glyph glyph-name="dvDDHA" unicode="&#x922;" horiz-adv-x="1331" 
d="M-43 1294v222h1415v-222h-348v-356h-221q-189 0 -307.5 -98.5t-118.5 -282.5q0 -164 104 -267.5t289 -103.5q127 0 210 59.5t83 160.5q0 66 -41.5 108.5t-106.5 42.5q-57 0 -96 -36t-39 -93q0 -22 6 -37h-190q-8 50 -8 74q0 132 94 207.5t244 75.5q168 0 265 -94.5
t97 -247.5q0 -190 -138.5 -300t-385.5 -110q-182 0 -327 66.5t-230.5 197t-85.5 305.5q0 178 79.5 305t212.5 188.5t306 61.5h55v174h-817z" />
    <glyph glyph-name="dvNNA" unicode="&#x923;" horiz-adv-x="1802" 
d="M604 549q80 0 124 51.5t44 136.5v557h-340v-557q0 -84 46.5 -136t125.5 -52zM-43 1294v222h1888v-222h-227v-1294h-264v1294h-322v-532q0 -195 -111.5 -315.5t-318.5 -120.5q-138 0 -236.5 59t-145 155.5t-46.5 221.5v532h-217z" />
    <glyph glyph-name="dvTA" unicode="&#x924;" horiz-adv-x="1439" 
d="M-43 1294v222h1524v-222h-226v-1294h-266v784h-272q-152 0 -240 -73t-88 -211q0 -135 78 -212t227 -77h41v-207h-82q-115 0 -210.5 30.5t-168 90.5t-113 157.5t-40.5 223.5q0 129 45 227.5t125.5 158.5t184.5 90t229 30h284v282h-1032z" />
    <glyph glyph-name="dvTHA" unicode="&#x925;" horiz-adv-x="1603" 
d="M1155 0v418q-47 -98 -165.5 -167t-287.5 -69q-261 0 -416 154t-155 420q0 75 10 131h187q395 0 395 252q0 73 -43.5 121.5t-116.5 48.5q-78 0 -123 -48.5t-45 -130.5q0 -27 8 -77h-239q-8 54 -8 84q0 187 116 292t293 105q182 0 294 -111.5t112 -292.5
q0 -204 -142.5 -319t-398.5 -115h-43q8 -131 96 -213t258 -82q178 0 296 113t118 311v691h492v-222h-228v-1294h-264z" />
    <glyph glyph-name="dvDA" unicode="&#x926;" horiz-adv-x="1251" 
d="M-43 1294v222h1337l-2 -222h-256v-413h-342q-135 0 -219 -69.5t-84 -195.5q0 -113 67 -179t181 -66q92 0 158.5 57.5t66.5 163.5h244v-647h-258v338q-44 -59 -119 -91t-168 -32q-92 0 -171.5 30t-140 87t-95.5 146.5t-35 201.5q0 154 73 265t195 164.5t279 53.5h102v186
h-813z" />
    <glyph glyph-name="dvDHA" unicode="&#x927;" horiz-adv-x="1482" 
d="M614 174q-128 0 -229 40.5t-163 125t-62 201.5q0 123 72 199t167 96v8q-108 29 -182 115t-74 223q0 158 104 255t267 97q168 0 263 -93.5t95 -244.5q0 -32 -4 -78h-196q2 25 2 45q0 66 -41 108t-111 42t-111.5 -45.5t-41.5 -114.5q0 -99 79 -151t199 -52h121v-213h-109
q-110 0 -170.5 -44.5t-60.5 -123.5q0 -86 68.5 -131t183.5 -45q165 0 268 104.5t103 274.5v744h487v-222h-223v-1294h-264v379q-65 -98 -177.5 -151.5t-259.5 -53.5z" />
    <glyph glyph-name="dvNA" unicode="&#x928;" horiz-adv-x="1658" 
d="M559 401q89 0 146 56.5t57 144.5q0 87 -57 143t-146 56q-92 0 -150.5 -56t-58.5 -145q0 -88 58.5 -143.5t150.5 -55.5zM-43 1294v222h1745v-222h-227v-1294h-265v801h-309q72 -99 72 -236q0 -181 -119.5 -284t-298.5 -103q-188 0 -315 115t-127 307q0 201 131 311.5
t334 110.5h632v272h-1253z" />
    <glyph glyph-name="dvPA" unicode="&#x92a;" horiz-adv-x="1368" 
d="M670 580q118 0 185 77t67 191v446h-504v-417q0 -139 62 -218t190 -79zM-43 1294v222h1454v-222h-227v-1294h-262v494q-109 -138 -320 -138q-218 0 -334 143t-116 378v417h-195z" />
    <glyph glyph-name="dvPHA" unicode="&#x92b;" horiz-adv-x="2017" 
d="M651 580q111 0 172.5 73t61.5 183v458h-467v-430q0 -133 58 -208.5t175 -75.5zM-43 1294v222h2103v-222h-911v-352q48 77 132.5 122.5t199.5 45.5q188 0 302.5 -130.5t114.5 -330.5q0 -221 -118 -348t-307 -127q-76 0 -144 19v204q38 -10 76 -10q101 0 163 67.5t62 180.5
q0 109 -65 178.5t-168 69.5q-122 0 -185 -84t-63 -211v-588h-264v489q-100 -133 -299 -133q-209 0 -321.5 139t-112.5 369v430h-195z" />
    <glyph glyph-name="dvBA" unicode="&#x92c;" horiz-adv-x="1411" 
d="M971 0v309q-51 -76 -141.5 -120t-208.5 -44q-215 0 -357.5 139t-142.5 359q0 216 140 351.5t355 135.5q227 0 355 -159v323h-1014v222h1495v-222h-225v-1294h-256zM672 956q-123 0 -207 -69l485 -391q35 72 35 149q0 128 -84 219.5t-229 91.5zM672 336q124 0 209 72
l-490 391q-39 -70 -39 -156q0 -140 93 -223.5t227 -83.5z" />
    <glyph glyph-name="dvBHA" unicode="&#x92d;" horiz-adv-x="1701" 
d="M549 379q82 0 126 57t44 156v135h-146q-89 0 -143.5 -46t-54.5 -128q0 -80 49 -127t125 -47zM553 156q-191 0 -307.5 108.5t-116.5 286.5q0 127 59.5 217t156.5 132t222 42h152v170q0 92 -34 144.5t-105 52.5q-63 0 -102.5 -45t-39.5 -119q0 -37 8 -70h-266q-8 46 -8 80
q0 170 103.5 274.5t293.5 104.5q87 0 154.5 -23.5t113 -65t75 -101t42.5 -128.5t13 -151v-123h284v574h494v-222h-229v-1294h-265v727h-284v-121q0 -214 -107 -332t-307 -118z" />
    <glyph glyph-name="dvMA" unicode="&#x92e;" horiz-adv-x="1683" 
d="M506 379q82 0 128 57.5t46 155.5v135h-148q-89 0 -143.5 -46t-54.5 -128q0 -80 48.5 -127t123.5 -47zM1231 942v352h-305v-352h305zM-43 1294v222h1767v-222h-227v-1294h-266v727h-305v-121q0 -214 -107.5 -332t-308.5 -118q-191 0 -306.5 108.5t-115.5 286.5
q0 189 122 290t314 101h156v352h-723z" />
    <glyph glyph-name="dvYA" unicode="&#x92f;" horiz-adv-x="1533" 
d="M729 412q159 0 257.5 97.5t98.5 252.5v532h-342v-157q0 -177 -88.5 -279t-269.5 -117q0 -149 90.5 -239t253.5 -90zM-43 1294v222h1620v-222h-227v-1294h-265v367q-140 -177 -411 -177q-262 0 -406.5 156t-144.5 422q0 37 8 115h25q171 0 248 73.5t77 227.5v110h-524z
" />
    <glyph glyph-name="dvRA" unicode="&#x930;" horiz-adv-x="1091" 
d="M-43 1294v222h1176v-222h-201v-141q0 -510 -481 -510h-45v-231q0 -93 41 -149t124 -56q76 0 120 52t44 138v52h254q2 -18 2 -43q0 -194 -110.5 -309t-305.5 -115q-208 0 -320 122.5t-112 319.5v434h211q164 0 239 74.5t75 220.5v141h-711z" />
    <glyph glyph-name="dvRxA" unicode="&#x931;" horiz-adv-x="1091" 
d="M-43 1294v222h1176v-222h-201v-141q0 -510 -481 -510h-45v-231q0 -93 41 -149t124 -56q76 0 120 52t44 138v52h254q2 -18 2 -43q0 -194 -110.5 -309t-305.5 -115q-208 0 -320 122.5t-112 319.5v434h211q164 0 239 74.5t75 220.5v141h-711zM227 -395q-66 0 -112.5 45.5
t-46.5 111.5q0 67 46.5 114.5t112.5 47.5q67 0 114.5 -47t47.5 -115q0 -66 -47 -111.5t-115 -45.5z" />
    <glyph glyph-name="dvLA" unicode="&#x932;" horiz-adv-x="1863" 
d="M1229 90q-16 0 -70 4v232q36 -4 55 -4q121 0 191 75.5t70 202.5q0 113 -56.5 184.5t-158.5 71.5q-109 0 -163.5 -81t-54.5 -212v-43h-221v43q0 130 -53 211.5t-158 81.5q-106 0 -163.5 -71t-57.5 -185q0 -127 69.5 -202.5t190.5 -75.5q16 0 56 4v-232q-54 -4 -70 -4
q-244 0 -379 143t-135 371q0 117 35.5 210t97 152t143 90t176.5 31q142 0 229.5 -72t125.5 -184h6q75 207 274 248v215h-1251v222h1948v-222h-437v-235q126 -47 200.5 -164.5t74.5 -290.5q0 -149 -57.5 -264t-175 -182.5t-281.5 -67.5z" />
    <glyph glyph-name="dvLLA" unicode="&#x933;" horiz-adv-x="1996" 
d="M625 367q107 0 175 68t68 175q0 109 -67.5 179.5t-175.5 70.5t-177 -69.5t-69 -182.5q0 -108 69.5 -174.5t176.5 -66.5zM1370 367q108 0 177 66.5t69 174.5q0 113 -68 182.5t-176 69.5t-176 -70.5t-68 -179.5q0 -107 67.5 -175t174.5 -68zM1409 141q-143 0 -251.5 69
t-156.5 187h-8q-46 -118 -154 -187t-251 -69q-130 0 -236 57t-168.5 165t-62.5 247q0 142 62.5 251.5t168 166.5t234.5 57q280 0 409 -251h6q101 201 314 243v217h-1358v222h2081v-222h-467v-235q137 -46 221 -164.5t84 -284.5q0 -139 -62.5 -247t-168.5 -165t-236 -57z" />
    <glyph glyph-name="dvVA" unicode="&#x935;" horiz-adv-x="1372" 
d="M653 365q67 0 121.5 24t87.5 63t50.5 85.5t17.5 95.5v2q0 70 -29.5 130t-94 100t-153.5 40q-119 0 -195.5 -74t-76.5 -194q0 -123 76 -197.5t196 -74.5zM1413 1294h-225v-1294h-258v324q-54 -80 -142 -125t-204 -45q-211 0 -337 135.5t-126 353.5q0 209 127 342t336 133
q232 0 346 -170v346h-973v222h1456v-222z" />
    <glyph glyph-name="dvSHA" unicode="&#x936;" horiz-adv-x="1720" 
d="M625 -16q-222 0 -346.5 127.5t-124.5 345.5v379h290q76 0 140.5 14.5t117.5 45t83 83t30 123.5q0 93 -49.5 148t-136.5 55q-86 0 -135.5 -55t-49.5 -148q0 -14 1 -39t1 -39h-262q-6 44 -6 86q0 189 123 306.5t328 117.5t328.5 -118t123.5 -331q0 -118 -41.5 -209.5
t-115 -148.5t-171 -86t-212.5 -29h-119v-174q0 -101 47.5 -163t148.5 -62q86 0 135.5 56.5t49.5 150.5v29h258v-33q0 -202 -117 -317t-319 -115zM1268 0v1516h495v-222h-227v-1294h-268z" />
    <glyph glyph-name="dvSSA" unicode="&#x937;" horiz-adv-x="1392" 
d="M674 561q95 0 160 45t94 121l-520 377v-236q0 -142 67 -224.5t199 -82.5zM948 901v393h-536zM-43 1294v222h1479v-222h-228v-1294h-260v481q-107 -143 -330 -143q-225 0 -345.5 147.5t-120.5 391.5v417h-195z" />
    <glyph glyph-name="dvSA" unicode="&#x938;" horiz-adv-x="1689" 
d="M887 1139q0 -156 -72 -271h426v426h-354v-155zM-43 1294v222h1776v-222h-230v-1294h-262v653h-835v-237q0 -94 43 -151.5t129 -57.5q80 0 125 52.5t45 137.5v27h253q3 -24 3 -39q0 -186 -112.5 -294.5t-309.5 -108.5q-210 0 -324.5 124t-114.5 322v414h166
q163 0 239.5 79t76.5 218v155h-668z" />
    <glyph glyph-name="dvHA" unicode="&#x939;" horiz-adv-x="1200" 
d="M1100 145q-19 -163 -146.5 -265.5t-326.5 -102.5q-228 0 -361 129t-133 338q0 122 52 216t147 154q-150 80 -150 240q0 123 89 192.5t241 69.5h205v178h-760v222h1284v-222h-272v-368h-363q-72 0 -117 -29.5t-45 -93.5q0 -81 84 -119q44 8 103 8q211 0 329 -101.5
t140 -262.5h-254q-13 62 -71 107.5t-148 45.5q-107 0 -171.5 -67.5t-64.5 -175.5q0 -109 64.5 -175.5t171.5 -66.5q87 0 145 44t74 105h254z" />
    <glyph glyph-name="dvNukta" unicode="&#x93c;" horiz-adv-x="0" 
d="M-639 -449q-66 0 -113 46t-47 112q0 67 47 114.5t113 47.5q67 0 114.5 -47.5t47.5 -114.5q0 -66 -47 -112t-115 -46z" />
    <glyph glyph-name="dvAvagraha" unicode="&#x93d;" horiz-adv-x="1206" 
d="M131 106v224h481q64 0 98.5 27t34.5 71q0 37 -27 76.5t-70 76.5t-95 78t-104.5 88.5t-95.5 98.5t-70 117.5t-27 138.5q0 136 91.5 205t240.5 69h446v-223h-381q-59 0 -93 -19.5t-34 -72.5q0 -37 27 -76.5t70 -77t95 -78.5t104 -88t95 -98t70 -117t27 -137
q0 -128 -91 -205.5t-245 -77.5h-547z" />
    <glyph glyph-name="dvmAA" unicode="&#x93e;" 
d="M184 0v1294h-227v222h719v-222h-227v-1294h-265z" />
    <glyph glyph-name="dvmI" unicode="&#x93f;" 
d="M449 1294v-1294h-265v1294h-227v222h227q7 179 116.5 309t293 195t420.5 65q240 0 427 -70.5t294.5 -206.5t107.5 -317v-35h-264v31q0 97 -49 172.5t-131.5 120t-180 66.5t-204.5 22q-108 0 -202.5 -18.5t-177 -58t-133 -110t-55.5 -165.5h230v-222h-227z" />
    <glyph glyph-name="dvmII" unicode="&#x940;" 
d="M-449 1456v127q0 111 24.5 200t76 158t140.5 106.5t210 37.5q447 0 447 -502v-67h227v-222h-227v-1294h-265v1294h-227v222h236v81q0 39 -4.5 73t-17 70.5t-33 62.5t-55.5 42.5t-81 16.5q-58 0 -99 -24t-60.5 -65.5t-27.5 -83.5t-8 -92v-141h-256z" />
    <glyph glyph-name="dvmU" unicode="&#x941;" horiz-adv-x="0" 
d="M-422 -664q-81 0 -154 15.5t-139 50.5t-113.5 86.5t-74.5 129.5t-25 175h234q-4 -127 69.5 -189.5t196.5 -62.5q100 0 157.5 45.5t57.5 126.5q0 68 -45 113t-129 45h-62v207h62q193 0 296 -99t103 -268q0 -174 -116.5 -274.5t-317.5 -100.5z" />
    <glyph glyph-name="dvmUU" unicode="&#x942;" horiz-adv-x="0" 
d="M-379 -639q-161 0 -266 90t-105 256q0 168 117.5 265.5t306.5 97.5q114 0 205 -32.5t150.5 -87.5t99.5 -132.5t57 -163.5t17 -184q0 -35 -4 -97h-215v111q0 186 -80.5 286.5t-231.5 100.5q-93 0 -152 -43.5t-59 -122.5q0 -72 51.5 -113t125.5 -41q26 0 61 3v-191
q-27 -2 -78 -2z" />
    <glyph glyph-name="dvmvR" unicode="&#x943;" horiz-adv-x="0" 
d="M-281 -668q-82 0 -155.5 20.5t-136 62.5t-99.5 116.5t-37 173.5q0 165 112.5 266t311.5 101q83 0 101 -2v-181h-80q-89 0 -139 -49t-50 -125q0 -89 60 -130.5t155 -41.5q74 0 162 25v-205q-95 -31 -205 -31z" />
    <glyph glyph-name="dvmvRR" unicode="&#x944;" horiz-adv-x="0" 
d="M-254 -958q-79 0 -148 16.5t-127 50t-92 92.5t-34 137q0 95 55 160t143 84v8q-89 20 -142.5 76.5t-53.5 153.5q0 55 19.5 99t51 72t73.5 47t84.5 26.5t86.5 7.5h154v-146h-52q-163 0 -163 -121q0 -60 47 -88t121 -28h110v-197h-98q-182 0 -182 -125q0 -65 53.5 -93
t134.5 -28q118 0 203 31v-199q-89 -36 -244 -36z" />
    <glyph glyph-name="dvmEcandra" unicode="&#x945;" horiz-adv-x="0" 
d="M-330 1667q-230 0 -346.5 112.5t-116.5 291.5h228q0 -89 58.5 -148t176.5 -59q116 0 176 59.5t60 147.5h225q0 -179 -116.5 -291.5t-344.5 -112.5z" />
    <glyph glyph-name="dvmE" unicode="&#x947;" horiz-adv-x="0" 
d="M-436 1507q-56 88 -95.5 141t-75.5 89.5t-75 53t-78 22.5t-100 6h-101v215h95q83 -1 137 -6.5t112.5 -25t102.5 -53.5t98 -94t107.5 -143t122.5 -205h-250z" />
    <glyph glyph-name="dvmAI" unicode="&#x948;" horiz-adv-x="0" 
d="M-414 1509q-69 47 -100.5 68.5t-74.5 45t-63 30.5t-61 14t-72 7.5t-94 0.5h-102v166h96q88 0 127.5 -2.5t92 -15.5t95.5 -40t107 -77q-35 61 -67 107t-58 78t-56 53t-53 33t-56 17.5t-56.5 7t-64.5 1.5h-107v168h102q63 0 101 -2t85 -12.5t77 -27.5t70.5 -52t73.5 -80
t79.5 -117.5t93.5 -160t111 -210.5h-226z" />
    <glyph glyph-name="dvmOcandra" unicode="&#x949;" horiz-adv-x="636" 
d="M184 0v1294h-227v222h719v-222h-227v-1294h-265zM319 1667q-117 0 -207.5 31t-145 87t-82 128t-27.5 158h227q0 -89 58.5 -148t176.5 -59q116 0 176 59.5t60 147.5h225q0 -179 -116.5 -291.5t-344.5 -112.5z" />
    <glyph glyph-name="dvmO" unicode="&#x94b;" horiz-adv-x="634" 
d="M449 0h-265v1294h-227v222h236q-54 85 -93.5 136.5t-74.5 87t-73.5 51.5t-77 22t-99.5 6h-101v215h95q83 -1 137 -6.5t112.5 -25t102 -52.5t96.5 -92t106 -140.5t121 -201.5h232v-222h-227v-1294z" />
    <glyph glyph-name="dvmAU" unicode="&#x94c;" 
d="M449 0h-265v1294h-227v222h248q-95 65 -136 91t-95.5 45t-94 21t-131.5 2h-102v166h96q88 0 127.5 -2.5t92 -15.5t95.5 -40t107 -77q-41 71 -76 122t-69.5 83.5t-62 51.5t-65 27.5t-64.5 10.5t-75 2h-106v168h102q63 0 101 -2t85 -12.5t76.5 -27t70 -51t73 -79.5
t78.5 -116.5t92.5 -158t109.5 -208.5h242v-222h-227v-1294z" />
    <glyph glyph-name="dvVirama" unicode="&#x94d;" horiz-adv-x="0" 
d="M-184 -555l-258 438h264l266 -438h-272z" />
    <glyph glyph-name="dvOm" unicode="&#x950;" horiz-adv-x="2183" 
d="M616 23q-212 0 -340.5 117t-128.5 309h250q0 -87 57 -143t148 -56q92 0 146.5 56t54.5 147q0 85 -57.5 145.5t-172.5 60.5h-88v224h88q99 0 155 52.5t56 131.5q0 85 -53.5 136.5t-132.5 51.5q-83 0 -136.5 -48t-53.5 -128h-246q0 181 121 290.5t317 109.5
q192 0 308 -102.5t116 -274.5q0 -119 -59 -203.5t-170 -116.5v-8q20 -5 51 -16h121q113 0 164 46t51 167q0 209 96 319.5t317 110.5q226 0 328 -128t102 -378v-260q0 -294 -135 -445t-405 -151q-82 0 -205 20v222q97 -17 158 -17q95 0 160.5 25.5t102.5 76.5t52.5 117.5
t15.5 159.5v285q0 121 -40 184.5t-134 63.5q-168 0 -168 -207q0 -224 -90 -319t-309 -99q19 -62 19 -123q0 -184 -119.5 -294.5t-311.5 -110.5zM1161 1501q-223 0 -342 109.5t-119 294.5h209q0 -89 66.5 -151t185.5 -62q117 0 183.5 62t66.5 151h213q0 -185 -120 -294.5
t-343 -109.5zM1161 1851q-46 0 -77 31t-31 78q0 46 31.5 78.5t76.5 32.5q47 0 78 -32.5t31 -78.5q0 -47 -31 -78t-78 -31z" />
    <glyph glyph-name="dvKxA" unicode="&#x958;" horiz-adv-x="1998" 
d="M887 0v332q-48 -81 -133.5 -127.5t-204.5 -46.5q-194 0 -311 131t-117 346q0 214 119.5 344.5t318.5 130.5q114 0 197 -44.5t131 -121.5v350h-930v222h2083v-222h-899v-354q45 79 125.5 124.5t191.5 45.5q190 0 305 -133t115 -336q0 -218 -118 -342.5t-306 -124.5
q-72 0 -135 14v209q24 -8 63 -8q100 0 164 66t64 180q0 109 -65.5 178.5t-168.5 69.5q-115 0 -175 -78t-60 -189v-616h-254zM510 -297q-66 0 -113 46t-47 112q0 67 47 114.5t113 47.5q68 0 115 -47.5t47 -114.5q0 -66 -47 -112t-115 -46zM637 379q118 0 184 77t66 177
q0 102 -64.5 177t-183.5 75q-107 0 -178.5 -69.5t-71.5 -182.5q0 -115 69.5 -184.5t178.5 -69.5z" />
    <glyph glyph-name="dvKHxA" unicode="&#x959;" horiz-adv-x="1945" 
d="M1231 248q-22 0 -68 4q-69 -118 -187 -190t-276 -72q-255 0 -404 145t-149 406v280h62q137 0 208.5 66t71.5 217v190h-532v222h2032v-222h-228v-1294h-262v371q-88 -123 -268 -123zM657 -459q-66 0 -112.5 46t-46.5 112q0 67 46.5 114.5t112.5 47.5q67 0 114.5 -47.5
t47.5 -114.5q0 -66 -47 -112t-115 -46zM1288 451q101 0 156 65t55 154q-2 88 -56 152.5t-155 64.5q-94 0 -156.5 -58.5t-62.5 -156.5q0 -104 62 -162.5t157 -58.5zM707 217q170 0 254 131q-127 121 -127 324q0 184 112 301t285 117q177 0 268 -123v327h-743v-225
q0 -206 -94 -313.5t-252 -120.5v-125q0 -131 79 -212t218 -81z" />
    <glyph glyph-name="dvGxA" unicode="&#x95a;" horiz-adv-x="1613" 
d="M1165 0v1294h-297v-495q0 -182 -97 -296t-292 -114q-190 0 -293.5 104.5t-103.5 290.5q0 44 2 64h256v-64q0 -74 31.5 -122t101.5 -48q129 0 129 172v508h-645v222h1700v-222h-227v-1294h-265zM483 -70q-66 0 -112.5 46t-46.5 112q0 67 46.5 114.5t112.5 47.5
q67 0 114.5 -47t47.5 -115q0 -66 -47 -112t-115 -46z" />
    <glyph glyph-name="dvJxA" unicode="&#x95b;" horiz-adv-x="1744" 
d="M-43 1294v222h1831v-222h-227v-1294h-265v782h-292v-112q0 -196 -119 -318.5t-320 -122.5q-211 0 -326.5 121t-115.5 320v338h268v-332q0 -99 46 -157t128 -58q85 0 132.5 58t47.5 157v332h551v286h-1339zM569 -223q-66 0 -112.5 45.5t-46.5 111.5q0 67 46.5 114.5
t112.5 47.5q67 0 114.5 -47t47.5 -115q0 -66 -47 -111.5t-115 -45.5z" />
    <glyph glyph-name="dvDDxA" unicode="&#x95c;" horiz-adv-x="1165" 
d="M-43 1294v222h1249v-222h-250v-374h-364q-34 0 -63.5 -5.5t-56.5 -19t-42.5 -38.5t-15.5 -60q0 -64 44.5 -93.5t114.5 -29.5h93q65 0 123.5 -11t113.5 -37.5t94.5 -66.5t63.5 -101.5t24 -138.5q0 -163 -116.5 -259.5t-331.5 -96.5q-228 0 -369.5 105.5t-148.5 289.5h264
q1 -90 68 -142t178 -52q99 0 153 43.5t54 114.5q0 87 -60.5 126t-159.5 39h-75q-54 0 -104 7.5t-104 29t-93 56t-64.5 92.5t-25.5 133q0 78 30 137.5t82.5 94.5t118 52t141.5 17h180v188h-745zM631 -489q-66 0 -113 45.5t-47 111.5q0 67 47 114.5t113 47.5q67 0 114.5 -47
t47.5 -115q0 -66 -47 -111.5t-115 -45.5z" />
    <glyph glyph-name="dvDDHxA" unicode="&#x95d;" horiz-adv-x="1331" 
d="M-43 1294v222h1415v-222h-348v-356h-221q-189 0 -307.5 -98.5t-118.5 -282.5q0 -164 104 -267.5t289 -103.5q127 0 210 59.5t83 160.5q0 66 -41.5 108.5t-106.5 42.5q-57 0 -96 -36t-39 -93q0 -22 6 -37h-190q-8 50 -8 74q0 132 94 207.5t244 75.5q168 0 265 -94.5
t97 -247.5q0 -190 -138.5 -300t-385.5 -110q-182 0 -327 66.5t-230.5 197t-85.5 305.5q0 178 79.5 305t212.5 188.5t306 61.5h55v174h-817zM721 -455q-66 0 -113 46t-47 112q0 67 47 114.5t113 47.5q67 0 114.5 -47.5t47.5 -114.5q0 -66 -47 -112t-115 -46z" />
    <glyph glyph-name="dvPHxA" unicode="&#x95e;" horiz-adv-x="2017" 
d="M651 580q111 0 172.5 73t61.5 183v458h-467v-430q0 -133 58 -208.5t175 -75.5zM-43 1294v222h2103v-222h-911v-352q48 77 132.5 122.5t199.5 45.5q188 0 302.5 -130.5t114.5 -330.5q0 -221 -118 -348t-307 -127q-76 0 -144 19v204q38 -10 76 -10q101 0 163 67.5t62 180.5
q0 109 -65 178.5t-168 69.5q-122 0 -185 -84t-63 -211v-588h-264v489q-100 -133 -299 -133q-209 0 -321.5 139t-112.5 369v430h-195zM489 -88q-66 0 -112.5 46t-46.5 112q0 67 46.5 114t112.5 47q68 0 115 -47t47 -114q0 -66 -47 -112t-115 -46z" />
    <glyph glyph-name="dvvRR" unicode="&#x960;" horiz-adv-x="2076" 
d="M993 0v428l-450 -428h-334v12l782 678q-25 92 -98 147.5t-178 55.5q-144 0 -230 -89t-86 -237h-264q0 247 136 398t366 151q231 0 356 -164v342h-1036v222h2218v-222h-938v-381h324q145 0 145 127v93h227v-725h-75q-164 0 -164 -121q0 -60 48 -88.5t122 -28.5h108v-197
h-100q-180 0 -180 -125q0 -120 188 -120q100 0 205 30v-196q-97 -41 -246 -41q-62 0 -118.5 10t-108.5 33.5t-89.5 57.5t-60 85.5t-22.5 114.5q0 93 54.5 157.5t141.5 83.5v9q-89 20 -142.5 76t-53.5 153q0 60 23 107.5t62 76.5t84.5 45t96.5 21v188q-75 -34 -184 -34h-285
v-705h-244z" />
    <glyph glyph-name="dvvLL" unicode="&#x961;" horiz-adv-x="1869" 
d="M-43 1294v222h1950v-222h-471v-217q133 -41 214 -162t81 -303q0 -103 -33 -204h-68q-164 0 -164 -121q0 -60 48 -88.5t122 -28.5h111v-197h-100q-183 0 -183 -125q0 -120 189 -120q106 0 205 30v-196q-97 -41 -244 -41q-79 0 -149 17t-128 52t-91.5 95t-33.5 139
q0 91 55.5 155.5t141.5 83.5v9q-89 20 -143 76t-54 153q0 58 21.5 104t58 74.5t79 45.5t91.5 24q4 40 4 65q0 110 -54 180t-152 70q-109 0 -163.5 -81t-54.5 -212v-51h-221v51q0 128 -53 210.5t-158 82.5q-106 0 -163.5 -71t-57.5 -185q0 -133 69 -205.5t191 -72.5
q16 0 56 4v-232q-27 -2 -70 -2q-246 0 -380 139t-134 373q0 117 35.5 210t97 153t143 91.5t176.5 31.5q72 0 132.5 -21.5t103 -59t71 -82t46.5 -97.5h6q30 87 92 152t156 91v213h-1223z" />
    <glyph glyph-name="dvmvL" unicode="&#x962;" horiz-adv-x="0" 
d="M211 -967q-147 0 -238.5 71t-91.5 202q0 91 54.5 155.5t140.5 87.5q2 14 2 43q0 81 -38.5 132t-109.5 51q-78 0 -116.5 -58.5t-38.5 -152.5v-37h-172v37q0 94 -38 152.5t-114 58.5t-118 -50.5t-42 -134.5q0 -94 50.5 -146t136.5 -52q31 0 43 4v-180q-20 -2 -51 -2
q-183 0 -284 103.5t-101 274.5q0 174 95.5 269.5t239.5 95.5q104 0 168.5 -53.5t94.5 -136.5h6q29 82 98 136t176 54q139 0 232.5 -97t93.5 -268q0 -65 -25 -149h-12q-88 0 -130 -34.5t-42 -90.5q0 -58 44 -88.5t109 -30.5q60 0 91 10v-165q-64 -11 -113 -11z" />
    <glyph glyph-name="dvmvLL" unicode="&#x963;" horiz-adv-x="0" 
d="M377 -1188q-70 -26 -182 -26q-60 0 -111.5 12t-94.5 37t-68 69t-25 103q0 71 40.5 119.5t104.5 62.5v4q-65 14 -105 58t-40 116q0 84 51.5 129.5t128.5 57.5q2 12 2 38q0 81 -38.5 132t-109.5 51q-78 0 -116.5 -58.5t-38.5 -152.5v-37h-172v37q0 94 -38 152.5t-114 58.5
t-118 -50.5t-42 -134.5q0 -94 50.5 -146t136.5 -52q31 0 43 4v-180q-20 -2 -51 -2q-183 0 -284 103.5t-101 274.5q0 174 95.5 269.5t239.5 95.5q104 0 168.5 -53.5t94.5 -136.5h6q29 82 98 136t176 54q139 0 232.5 -97t93.5 -268q0 -65 -25 -149h-53q-119 0 -119 -86
q0 -84 125 -84h78v-154h-72q-133 0 -133 -90q0 -86 135 -86q80 0 152 23v-154z" />
    <glyph glyph-name="danda" unicode="&#x964;" horiz-adv-x="655" 
d="M571 1518v-1518h-262v1518h262z" />
    <glyph glyph-name="doubledanda" unicode="&#x965;" horiz-adv-x="1167" 
d="M571 1518v-1518h-262v1518h262zM1079 1518v-1518h-262v1518h262z" />
    <glyph glyph-name="dvZero" unicode="&#x966;" horiz-adv-x="1323" 
d="M109 766q0 135 16.5 245t56.5 207t102.5 163t158 103.5t219.5 37.5t219.5 -37.5t157.5 -103.5t102 -163t56.5 -207t16.5 -245q0 -136 -16.5 -247t-56.5 -209t-102 -164t-157.5 -104t-219.5 -38t-219.5 38t-158 104t-102.5 163.5t-56.5 209t-16.5 247.5zM932 766
q0 72 -3.5 126t-12.5 114t-28 101.5t-48 77t-74 53t-104 17.5t-104 -17.5t-74 -53t-48 -77.5t-28.5 -101.5t-13 -114t-3.5 -125.5q0 -74 3.5 -130t13 -116t28.5 -102.5t48 -77.5t74 -52.5t104 -17.5t104 17.5t74 53t48 77t28 102.5t12.5 116.5t3.5 129.5z" />
    <glyph glyph-name="dvOne" unicode="&#x967;" horiz-adv-x="741" 
d="M272 0v1229h-198v264h493v-1493h-295z" />
    <glyph glyph-name="dvTwo" unicode="&#x968;" horiz-adv-x="1175" 
d="M92 20v213q35 30 100.5 85t102 85.5t95 82t93 84t81.5 80.5t74.5 83t59 80t48 83t27.5 80.5t11 82.5q0 104 -49 163.5t-151 59.5t-157.5 -68t-57.5 -188h-279q4 125 44 222t108.5 157t156 90.5t189.5 30.5q234 0 358.5 -124t124.5 -327q0 -81 -23.5 -161t-67 -151.5
t-95 -137t-117 -129t-123 -114.5t-123.5 -106q-15 -12 -22 -18h604v-238h-1012z" />
    <glyph glyph-name="dvThree" unicode="&#x969;" horiz-adv-x="1226" 
d="M113 1100q10 204 144 316t353 112q223 0 347 -111t124 -284q0 -130 -66.5 -218.5t-158.5 -119.5v-9q118 -37 185 -130.5t67 -241.5q0 -188 -128 -306t-357 -118q-231 0 -376.5 117.5t-154.5 343.5h279q5 -100 69 -161t176 -61q104 0 161 58t57 151q0 123 -78 176.5
t-242 53.5h-59v235h59q291 0 291 195q0 88 -52.5 137t-150.5 49q-97 0 -149 -52.5t-60 -131.5h-280z" />
    <glyph glyph-name="dvFour" unicode="&#x96a;" horiz-adv-x="1353" 
d="M813 0v291h-717v225l670 959h334v-934h180v-250h-180v-291h-287zM412 541h419v626z" />
    <glyph glyph-name="dvFive" unicode="&#x96b;" horiz-adv-x="1318" 
d="M186 1497h926v-252h-663v-350q43 53 122 87t170 34q101 0 182 -29.5t133 -77.5t87.5 -113.5t50 -133.5t14.5 -140q0 -236 -134 -379t-382 -143q-234 0 -372.5 116t-157.5 306h278q20 -81 83.5 -130.5t164.5 -49.5q121 0 182.5 75.5t61.5 200.5q0 127 -62.5 193.5
t-183.5 66.5q-86 0 -143.5 -42.5t-81.5 -114.5h-275v876z" />
    <glyph glyph-name="dvSix" unicode="&#x96c;" horiz-adv-x="1310" 
d="M1149 1120h-266q-21 87 -71 129.5t-144 42.5q-141 0 -207.5 -113.5t-69.5 -369.5q50 83 143.5 128.5t204.5 45.5q204 0 328.5 -129t124.5 -358q0 -223 -132 -361.5t-366 -138.5q-130 0 -227 37t-159 101.5t-99.5 164t-52.5 212.5t-15 259q0 375 129.5 566.5t407.5 191.5
q110 0 198 -33.5t144 -92t88 -129.5t41 -153zM674 748q-108 0 -182 -63.5t-74 -184.5t68.5 -190.5t193.5 -69.5q111 0 175.5 67t64.5 182q0 119 -62.5 189t-183.5 70z" />
    <glyph glyph-name="dvSeven" unicode="&#x96d;" horiz-adv-x="1122" 
d="M72 1489h987v-213l-545 -1276h-291l549 1243h-700v246z" />
    <glyph glyph-name="dvEight" unicode="&#x96e;" horiz-adv-x="1316" 
d="M358 791q-204 104 -204 329q0 82 31.5 153.5t92 127.5t158 88.5t221.5 32.5t222 -32.5t158.5 -89t92 -128t31.5 -152.5q0 -114 -55.5 -198t-147.5 -131q112 -48 176 -143.5t64 -223.5q0 -209 -152.5 -333t-388.5 -124q-234 0 -386 124t-152 333q0 130 63.5 225t175.5 142
zM657 874q99 0 162.5 56.5t63.5 148.5q0 100 -61 155.5t-165 55.5q-102 0 -162.5 -55.5t-60.5 -157.5q0 -91 62.5 -147t160.5 -56zM657 666q-117 0 -189.5 -60t-72.5 -170q0 -102 70.5 -166.5t191.5 -64.5q120 0 190.5 65t70.5 166q0 108 -71.5 169t-189.5 61z" />
    <glyph glyph-name="dvNine" unicode="&#x96f;" horiz-adv-x="1282" 
d="M174 420h266q36 -187 232 -187q128 0 184.5 106t56.5 355q-47 -65 -131.5 -102t-183.5 -37q-98 0 -182 30.5t-147.5 89t-99.5 150.5t-36 207q0 226 135 361t369 135q120 0 211 -33t151.5 -93.5t98 -154.5t53.5 -207t16 -260q0 -198 -24 -337.5t-81.5 -242.5t-157 -152.5
t-245.5 -49.5q-115 0 -206.5 34.5t-149.5 94.5t-90.5 134t-38.5 159zM657 788q106 0 168 66t62 176q0 121 -64.5 187.5t-175.5 66.5t-175 -68t-64 -182q0 -108 62.5 -177t186.5 -69z" />
    <glyph glyph-name="dvAbbreviationsign" unicode="&#x970;" horiz-adv-x="987" 
d="M498 1036q152 0 248 -94.5t96 -245.5q0 -148 -96 -242t-248 -94q-154 0 -252.5 95t-98.5 243q0 149 98.5 243.5t252.5 94.5zM498 879q-82 0 -135.5 -51.5t-53.5 -129.5q0 -79 53.5 -129.5t135.5 -50.5q78 0 129 50t51 128t-51 130.5t-129 52.5z" />
    <glyph glyph-name="dvAcandra" unicode="&#x972;" horiz-adv-x="1716" 
d="M559 952q97 0 153 51t56 125q0 83 -52.5 133t-129.5 50q-84 0 -139.5 -49t-55.5 -127h-244q0 180 121.5 289.5t317.5 109.5q188 0 303 -101t115 -268q0 -114 -59.5 -196t-168.5 -115v-4q50 -10 103 -43h381v709h491v-222h-227v-1294h-264v588l-240 2q6 -41 6 -76
q0 -181 -115 -289t-305 -108q-212 0 -342.5 117.5t-130.5 308.5h248q0 -86 57.5 -142.5t149.5 -56.5q91 0 144.5 54t53.5 141q0 83 -57 141.5t-170 58.5h-88v213h88zM1409 1700q-230 0 -346.5 112t-116.5 291h228q0 -89 58.5 -148t176.5 -59q116 0 176 59.5t60 147.5h225
q0 -86 -27.5 -158t-82.5 -127.5t-145 -86.5t-206 -31z" />
    <glyph glyph-name="Wgrave" unicode="&#x1e80;" horiz-adv-x="2097" 
d="M430 -2l-385 1432h307l252 -1111l291 1111h319l275 -1104l254 1104h309l-399 -1430h-338l-268 1018l-281 -1018zM752 1726v234l471 -244v-205z" />
    <glyph glyph-name="wgrave" unicode="&#x1e81;" horiz-adv-x="1728" 
d="M348 0l-334 1135h291l201 -865l217 865h303l213 -863l201 863h274l-332 -1135h-309l-207 793l-207 -793h-311zM553 1430v233l471 -244v-205z" />
    <glyph glyph-name="Wacute" unicode="&#x1e82;" horiz-adv-x="2097" 
d="M430 -2l-385 1432h307l252 -1111l291 1111h319l275 -1104l254 1104h309l-399 -1430h-338l-268 1018l-281 -1018zM891 1724l471 244v-233l-471 -215v204z" />
    <glyph glyph-name="wacute" unicode="&#x1e83;" horiz-adv-x="1728" 
d="M348 0l-334 1135h291l201 -865l217 865h303l213 -863l201 863h274l-332 -1135h-309l-207 793l-207 -793h-311zM713 1419l471 244v-233l-471 -216v205z" />
    <glyph glyph-name="Wdieresis" unicode="&#x1e84;" horiz-adv-x="2097" 
d="M430 -2l-385 1432h307l252 -1111l291 1111h319l275 -1104l254 1104h309l-399 -1430h-338l-268 1018l-281 -1018zM852 1569q-57 0 -96 39t-39 96t39 97t96 40t97 -40t40 -97t-40 -96t-97 -39zM1231 1569q-57 0 -96 39t-39 96t39 97t96 40t97 -40t40 -97t-40 -96t-97 -39z
" />
    <glyph glyph-name="wdieresis" unicode="&#x1e85;" horiz-adv-x="1728" 
d="M348 0l-334 1135h291l201 -865l217 865h303l213 -863l201 863h274l-332 -1135h-309l-207 793l-207 -793h-311zM676 1270q-57 0 -96 39t-39 96t39 97t96 40t97 -40t40 -97t-40 -96t-97 -39zM1055 1270q-57 0 -96 39t-39 96t39 97t96 40t97 -40t40 -97t-40 -96t-97 -39z
" />
    <glyph glyph-name="uni1EBC" unicode="&#x1ebc;" horiz-adv-x="1089" 
d="M971 1432v-234h-543v-358h481v-228h-481v-379h543v-233h-830v1432h830zM178 1540q20 135 86 201.5t168 66.5q50 0 95.5 -22.5t84.5 -45t72 -22.5q76 0 88 88h154q-20 -135 -86 -201.5t-168 -66.5q-50 0 -95.5 23t-84.5 46t-72 23q-75 0 -90 -90h-152z" />
    <glyph glyph-name="uni1EBD" unicode="&#x1ebd;" horiz-adv-x="1263" 
d="M629 918q-105 0 -178.5 -64.5t-90.5 -179.5h539q-3 110 -80 177t-190 67zM1167 356q-48 -164 -187.5 -269t-342.5 -105q-250 0 -409.5 160.5t-159.5 424.5q0 266 157.5 426t411.5 160q248 0 403.5 -154.5t155.5 -406.5q0 -62 -8 -111h-830q10 -123 86 -192.5t187 -69.5
q160 0 227 137h309zM264 1247q20 136 86 202.5t168 66.5q50 0 95.5 -23t84.5 -45.5t72 -22.5q76 0 88 88h154q-20 -135 -86 -201.5t-168 -66.5q-50 0 -95.5 23t-84.5 46t-72 23q-75 0 -90 -90h-152z" />
    <glyph glyph-name="Ygrave" unicode="&#x1ef2;" horiz-adv-x="1302" 
d="M508 498l-485 932h323l307 -654l305 654h320l-483 -932v-498h-287v498zM403 1726v234l471 -244v-205z" />
    <glyph glyph-name="ygrave" unicode="&#x1ef3;" horiz-adv-x="1239" 
d="M625 342l297 793h305l-703 -1672h-305l246 566l-455 1106h322zM373 1430v233l471 -244v-205z" />
    <glyph glyph-name="uni1EF8" unicode="&#x1ef8;" horiz-adv-x="1302" 
d="M508 498l-485 932h323l307 -654l305 654h320l-483 -932v-498h-287v498zM283 1540q20 135 86 201.5t168 66.5q39 0 76.5 -14t62 -31t55 -31t57.5 -14q77 0 89 88h153q-20 -135 -86 -201.5t-168 -66.5q-50 0 -95.5 23t-84.5 46t-72 23q-75 0 -90 -90h-151z" />
    <glyph glyph-name="uni1EF9" unicode="&#x1ef9;" horiz-adv-x="1239" 
d="M625 342l297 793h305l-703 -1672h-305l246 566l-455 1106h322zM252 1243q20 135 86 201.5t168 66.5q50 0 95.5 -22.5t84.5 -45t72 -22.5q76 0 88 88h153q-20 -135 -86 -201.5t-168 -66.5q-39 0 -76.5 14.5t-62 31.5t-55 31.5t-57.5 14.5q-76 0 -91 -90h-151z" />
    <glyph glyph-name="zerowidthnonjoiner" unicode="&#x200c;" horiz-adv-x="0" 
d="M49 -471h-96v2132h96v-2132z" />
    <glyph glyph-name="zerowidthjoiner" unicode="&#x200d;" horiz-adv-x="0" 
d="M262 1214l-67 -67l-148 153v-1771h-96v1771l-141 -149l-68 68l190 190l-194 195l67 67l195 -194l197 194l65 -65l-196 -197z" />
    <glyph glyph-name="endash" unicode="&#x2013;" horiz-adv-x="1437" 
d="M162 610v242h1114v-242h-1114z" />
    <glyph glyph-name="emdash" unicode="&#x2014;" horiz-adv-x="1898" 
d="M162 610v242h1575v-242h-1575z" />
    <glyph glyph-name="quoteleft" unicode="&#x2018;" horiz-adv-x="563" 
d="M285 1430h196l-116 -517h-302z" />
    <glyph glyph-name="quoteright" unicode="&#x2019;" horiz-adv-x="563" 
d="M279 913h-197l117 517h301z" />
    <glyph glyph-name="quotesinglbase" unicode="&#x201a;" horiz-adv-x="450" 
d="M25 -295l137 610h303l-254 -610h-186z" />
    <glyph glyph-name="quotedblleft" unicode="&#x201c;" horiz-adv-x="983" 
d="M285 1430h196l-116 -517h-302zM698 1430h197l-117 -517h-301z" />
    <glyph glyph-name="quotedblright" unicode="&#x201d;" horiz-adv-x="995" 
d="M711 913h-197l117 517h301zM297 913h-197l117 517h301z" />
    <glyph glyph-name="quotedblbase" unicode="&#x201e;" horiz-adv-x="1044" 
d="M25 -295l137 610h303l-254 -610h-186zM547 -295l137 610h303l-254 -610h-186z" />
    <glyph glyph-name="dagger" unicode="&#x2020;" horiz-adv-x="1263" 
d="M745 1112l416 23v-222l-416 25l29 -1479h-287l29 1479l-416 -25v222l416 -23l-29 498h287z" />
    <glyph glyph-name="daggerdbl" unicode="&#x2021;" horiz-adv-x="1263" 
d="M1161 1135v-222l-416 25v-805l416 23v-222l-416 25l29 -500h-287l29 500l-414 -25v222l414 -23v805l-414 -25v222l414 -23l-29 498h287l-29 -498z" />
    <glyph glyph-name="bullet" unicode="&#x2022;" horiz-adv-x="983" 
d="M489 397q-119 0 -201.5 82.5t-82.5 202.5q0 121 82.5 204t201.5 83q122 0 205.5 -83t83.5 -204q0 -120 -83.5 -202.5t-205.5 -82.5z" />
    <glyph glyph-name="ellipsis" unicode="&#x2026;" horiz-adv-x="1423" 
d="M891 154q0 -71 -49.5 -119.5t-124.5 -48.5q-77 0 -127.5 48.5t-50.5 119.5t50.5 119.5t127.5 48.5q75 0 124.5 -48.5t49.5 -119.5zM1341 154q0 -71 -49.5 -119.5t-124.5 -48.5q-77 0 -127.5 48.5t-50.5 119.5t50.5 119.5t127.5 48.5q75 0 124.5 -48.5t49.5 -119.5z
M442 154q0 -71 -49.5 -119.5t-124.5 -48.5q-77 0 -127.5 48.5t-50.5 119.5t50.5 119.5t127.5 48.5q75 0 124.5 -48.5t49.5 -119.5z" />
    <glyph glyph-name="perthousand" unicode="&#x2030;" horiz-adv-x="2285" 
d="M74 1126q0 153 91 240.5t234 87.5t234.5 -87.5t91.5 -240.5q0 -154 -91 -241.5t-235 -87.5t-234.5 87.5t-90.5 241.5zM397 1282q-112 0 -112 -156q0 -157 112 -157q117 0 117 157q0 156 -117 156zM242 0l802 1434h281l-805 -1434h-278zM844 309q0 154 90.5 240t234.5 86
q143 0 233.5 -86t90.5 -240q0 -155 -90.5 -242t-233.5 -87q-144 0 -234.5 87t-90.5 242zM1167 465q-54 0 -84 -39t-30 -117q0 -157 114 -157q54 0 84.5 39t30.5 118q0 78 -30.5 117t-84.5 39zM1563 309q0 154 91 240t234 86q144 0 235 -86t91 -240q0 -155 -91 -242t-235 -87
q-143 0 -234 87t-91 242zM1886 465q-112 0 -112 -156q0 -157 112 -157q117 0 117 157q0 78 -31 117t-86 39z" />
    <glyph glyph-name="guilsinglleft" unicode="&#x2039;" horiz-adv-x="647" 
d="M356 604l189 -358h-273l-180 358l180 359h273z" />
    <glyph glyph-name="guilsinglright" unicode="&#x203a;" horiz-adv-x="647" 
d="M373 246h-271l187 358l-187 359h271l182 -359z" />
    <glyph glyph-name="fraction" unicode="&#x2044;" horiz-adv-x="1185" 
d="M66 0l802 1434h283l-805 -1434h-280z" />
    <glyph glyph-name="rupee" unicode="&#x20a8;" horiz-adv-x="2390" 
d="M899 987q0 100 -57 155.5t-174 55.5h-240v-422h240q117 0 174 55t57 156zM141 1430h537q126 0 225.5 -34.5t162 -94.5t95.5 -138.5t33 -169.5q0 -93 -34 -173.5t-113.5 -146t-196.5 -91.5l360 -582h-338l-333 563h-111v-563h-287v1430zM1303 805q0 146 123 247t335 101
q205 0 328.5 -101.5t138.5 -273.5h-289q-8 72 -57.5 113t-132.5 41q-81 0 -127.5 -35t-46.5 -90q0 -46 37 -76t96 -46t130 -30t142 -35.5t130 -54t96 -94t37 -147.5q0 -150 -125 -246t-326 -96q-212 0 -341 97.5t-146 278.5h290q6 -74 59 -114.5t136 -40.5q85 0 131.5 35
t46.5 92q0 41 -28.5 70t-75.5 43.5t-106.5 29t-122 26t-122 35t-106.5 55t-75.5 87t-28.5 129.5z" />
    <glyph glyph-name="Euro" unicode="&#x20ac;" horiz-adv-x="1636" 
d="M184 717q0 28 4 78h-141v170h176q71 221 256 352t430 131q240 0 419.5 -122.5t250.5 -340.5h-328q-52 98 -140 148.5t-204 50.5q-125 0 -221 -57.5t-151 -161.5h393v-170h-445q-4 -50 -4 -78q0 -24 4 -74h445v-170h-396q55 -105 152.5 -164t222.5 -59q238 0 344 201h328
q-71 -219 -250.5 -341t-419.5 -122q-247 0 -432 131.5t-256 353.5h-174v170h141q-4 50 -4 74z" />
    <glyph glyph-name="indianrupee" unicode="&#x20b9;" horiz-adv-x="1251" 
d="M86 1231v201h1100v-201h-207v-156h207v-188h-219q-33 -194 -161 -282.5t-386 -88.5v-108q0 -207 176 -207q93 0 133.5 52.5t40.5 152.5h266q-5 -206 -116.5 -316t-321.5 -110q-217 0 -331.5 116t-114.5 340v273q111 0 178 1.5t133 8t101 18t66 31.5t45.5 48.5t22.5 70.5
h-612v188h623v156h-623z" />
    <glyph glyph-name="uni20BA" unicode="&#x20ba;" horiz-adv-x="1724" 
d="M604 1442v-361l307 64v-189l-307 -63v-148l303 62v-189l-303 -61v-297q66 -14 160 -14q111 0 194 31.5t135.5 86.5t85 139.5t45.5 180.5t13 219h295q0 -481 -179.5 -704.5t-586.5 -223.5q-189 0 -455 56v465l-282 -58v191l282 57v148l-288 -60v184l288 62v422h293z" />
    <glyph glyph-name="uni20BD" unicode="&#x20bd;" horiz-adv-x="1337" 
d="M520 1208v-417h234q114 0 170.5 55.5t56.5 152.5t-57 153t-170 56h-234zM45 569v222h188v639h527q126 0 225.5 -33.5t162 -93t95.5 -137t33 -167.5q0 -85 -29.5 -160t-89 -136.5t-162 -97.5t-235.5 -36h-240v-147h365v-225h-365v-197h-287v197h-188v225h188v147h-188z
" />
    <glyph glyph-name="uni2113" unicode="&#x2113;" horiz-adv-x="569" 
d="M141 0v1516h287v-1516h-287z" />
    <glyph glyph-name="trademark" unicode="&#x2122;" horiz-adv-x="1728" 
d="M51 1276v168h543v-168h-164v-553h-215l2 553h-166zM707 723v721h284l174 -463l189 463h266v-721h-199l-4 453l-186 -453h-146l-186 469v-469h-192z" />
    <glyph glyph-name="uni2126" unicode="&#x2126;" horiz-adv-x="1609" 
d="M76 733q0 158 57 293t155 227.5t232 144.5t285 52q152 0 286 -52t232.5 -144.5t155.5 -227.5t57 -293q0 -335 -233 -512h217v-221h-557v229q127 64 203.5 187.5t76.5 290.5q0 222 -120.5 350.5t-317.5 128.5t-316.5 -128.5t-119.5 -350.5q0 -167 76 -290.5t204 -187.5
v-229h-559v221h217q-231 175 -231 512z" />
    <glyph glyph-name="estimated" unicode="&#x212e;" horiz-adv-x="1542" 
d="M1403 276q-274 -290 -615 -290q-151 0 -280.5 47t-224.5 134t-149 220t-54 297q0 162 46.5 301.5t132.5 243t217.5 162.5t293.5 59q130 0 242 -36.5t193.5 -100.5t140 -149t87.5 -183.5t29 -202.5v-127h-1036v-354q149 -137 362 -137q146 0 267.5 59t240.5 178zM426 813
h680v348q-124 121 -336 121q-213 0 -344 -137v-332z" />
    <glyph glyph-name="partialdiff" unicode="&#x2202;" horiz-adv-x="1226" 
d="M840 653q0 123 -51.5 188.5t-137.5 65.5q-125 0 -204.5 -118t-79.5 -297q0 -131 50.5 -198t133.5 -67q124 0 206.5 124.5t82.5 301.5zM74 492q0 136 44.5 258t120 209t179 137.5t217.5 50.5q143 0 231 -98q-20 141 -92.5 221t-204.5 80q-65 0 -147 -21v154q100 33 215 33
q246 0 381 -184t135 -496q0 -194 -48.5 -355t-133.5 -269.5t-201 -168t-250 -59.5q-94 0 -174 31t-141 92t-96 159.5t-35 225.5z" />
    <glyph glyph-name="uni2206" unicode="&#x2206;" horiz-adv-x="1462" 
d="M41 221l573 1213h236l571 -1213v-221h-1380v221zM1126 221l-395 885l-395 -885h790z" />
    <glyph glyph-name="product" unicode="&#x220f;" horiz-adv-x="1523" 
d="M53 1212v222h1417v-222h-151v-1212h-287v1212h-540v-1212h-289v1212h-150z" />
    <glyph glyph-name="summation" unicode="&#x2211;" horiz-adv-x="1036" 
d="M82 1100v334h872v-222h-620l520 -426v-221l-526 -454h626v-220h-872v336l502 443z" />
    <glyph glyph-name="minus" unicode="&#x2212;" horiz-adv-x="1159" 
d="M145 610v242h869v-242h-869z" />
    <glyph glyph-name="uni2215" unicode="&#x2215;" horiz-adv-x="995" 
d="M76 -371l553 2310h280l-553 -2310h-280z" />
    <glyph glyph-name="uni2219" unicode="&#x2219;" horiz-adv-x="552" 
d="M457 668q0 -71 -49.5 -119.5t-124.5 -48.5q-77 0 -128 48.5t-51 119.5t51 119.5t128 48.5q75 0 124.5 -48.5t49.5 -119.5z" />
    <glyph glyph-name="radical" unicode="&#x221a;" horiz-adv-x="1794" 
d="M709 -86h-144l-286 508l-154 -90l-82 137l403 240l256 -461l873 1577h188z" />
    <glyph glyph-name="infinity" unicode="&#x221e;" horiz-adv-x="1509" 
d="M424 575q57 0 112 32.5t95 88.5q-64 77 -109.5 114.5t-97.5 37.5q-60 0 -96.5 -35.5t-36.5 -101.5q0 -65 36.5 -100.5t96.5 -35.5zM1085 575q60 0 97 36.5t37 101.5t-36.5 100t-97.5 35q-60 0 -118.5 -36t-96.5 -97q55 -68 104.5 -104t110.5 -36zM57 711q0 153 100 244.5
t246 91.5q60 0 113 -15t97 -43.5t77.5 -59.5t69.5 -73q59 88 149 140t199 51q152 -2 248 -91t96 -243q0 -153 -100 -244.5t-246 -91.5q-110 0 -196 49t-165 133q-60 -84 -149 -133.5t-195 -48.5q-154 2 -249 90.5t-95 243.5z" />
    <glyph glyph-name="integral" unicode="&#x222b;" horiz-adv-x="573" 
d="M55 -147l183 1714q19 187 120 265.5t275 78.5h41l-25 -242h-33q-43 0 -64.5 -24t-27.5 -78l-180 -1714q-21 -186 -122.5 -265.5t-276.5 -79.5h-39l24 242h35q79 0 90 103z" />
    <glyph glyph-name="approxequal" unicode="&#x2248;" horiz-adv-x="1212" 
d="M66 313q34 199 128 293t236 94q57 0 112.5 -21t92 -45.5t82 -45.5t84.5 -21q53 0 88.5 33t44.5 98h213q-34 -197 -129.5 -292t-237.5 -95q-57 0 -112 21t-90.5 45.5t-80.5 45.5t-85 21q-54 0 -91 -33.5t-47 -97.5h-208zM66 795q34 199 128 293t236 94q57 0 112.5 -21
t92 -45.5t82 -45.5t84.5 -21q53 0 88.5 33t44.5 98h213q-34 -197 -129.5 -292t-237.5 -95q-57 0 -112 21t-90.5 45.5t-80.5 45.5t-85 21q-54 0 -91 -33.5t-47 -97.5h-208z" />
    <glyph glyph-name="notequal" unicode="&#x2260;" horiz-adv-x="1476" 
d="M197 162l161 196h-161v250h368l199 242h-567v250h774l159 194h183l-160 -194h160v-250h-367l-198 -242h565v-250h-770l-162 -196h-184z" />
    <glyph glyph-name="lessequal" unicode="&#x2264;" horiz-adv-x="1095" 
d="M164 74v219h784v-219h-784zM956 420h-368l-447 383l447 385h368l-446 -383z" />
    <glyph glyph-name="greaterequal" unicode="&#x2265;" horiz-adv-x="1095" 
d="M508 420h-367l445 385l-445 383h367l448 -385zM147 293h785v-219h-785v219z" />
    <glyph glyph-name="lozenge" unicode="&#x25ca;" horiz-adv-x="1148" 
d="M53 721l522 520l521 -520l-521 -522zM803 721l-228 227l-227 -227l227 -229z" />
    <glyph glyph-name="dottedcircle" unicode="&#x25cc;" horiz-adv-x="1333" 
d="M1141 838q0 -38 -25 -62t-63 -24t-63 24t-25 62t25 62t63 24t63 -24t25 -62zM371 252q0 -38 -25 -62t-63 -24t-63 24t-25 62t25 62t63 24t63 -24t25 -62zM571 96q0 -38 -25 -62t-63 -24t-63 24t-25 62t25 62t63 24t63 -24t25 -62zM279 483q0 -38 -25 -62t-64 -24
q-38 0 -63 24t-25 62t25 62t63 24q39 0 64 -24t25 -62zM825 68q0 -38 -25 -62t-63 -24t-63 24t-25 62t25 62t63 24t63 -24t25 -62zM309 731q0 -38 -25 -62t-63 -24t-63 24t-25 62t25 62t63 24t63 -24t25 -62zM1061 162q0 -38 -25 -62t-63 -24t-63 24t-25 62t25 62t63 24
t63 -24t25 -62zM465 934q0 -38 -25 -62t-63 -24t-63 24t-25 62t25 62t63 24t63 -24t25 -62zM1210 358q0 -38 -25 -62t-63 -24t-63 24t-25 62t25 62t63 24t63 -24t25 -62zM705 1020q0 -38 -25 -62t-64 -24q-38 0 -63 24t-25 62t25 62t63 24q39 0 64 -24t25 -62zM1231 604
q0 -38 -25 -62t-63 -24t-63 24t-25 62t25 62t63 24t63 -24t25 -62zM952 989q0 -38 -25 -62t-63 -24t-63 24t-25 62t25 62t63 24t63 -24t25 -62z" />
    <glyph glyph-name="fi" unicode="&#xfb01;" horiz-adv-x="1277" 
d="M172 0v899h-129v236h129v57q0 208 116.5 306.5t352.5 92.5v-241q-99 3 -138.5 -34.5t-39.5 -133.5v-47h661v-1135h-286v899h-375v-899h-291zM981 1260q-75 0 -124.5 47t-49.5 118t49.5 118.5t124.5 47.5q77 0 127.5 -47.5t50.5 -118.5t-50 -118t-128 -47z" />
    <glyph glyph-name="fl" unicode="&#xfb02;" horiz-adv-x="1275" 
d="M172 0v899h-129v236h129v57q0 208 118.5 306.5t358.5 92.5v-241q-104 3 -145 -34.5t-41 -133.5v-47h199v-236h-199v-899h-291zM848 0v1516h287v-1516h-287z" />
    <glyph glyph-name="dvK_SSA" horiz-adv-x="1716" 
d="M422 1130q0 -91 67.5 -147t180.5 -59q137 85 137 204q0 77 -55 129t-140 52q-79 0 -134.5 -48t-55.5 -131zM770 -123v318q-35 -53 -104.5 -92.5t-165.5 -39.5q-164 0 -267.5 97t-103.5 252q0 62 18.5 116t46 92.5t72 75.5t84.5 61t96 52q-114 35 -188 121.5t-74 218.5
q0 172 124 279.5t313 107.5q174 0 289.5 -94t115.5 -262q0 -153 -113 -258h365v594h481v-222h-227v-1294h-254v729h-619q-54 -25 -82.5 -39.5t-68 -40.5t-59 -49.5t-34 -58t-14.5 -74.5q0 -78 53 -131t138 -53q92 0 146.5 61t54.5 145h219v-612h-242z" />
    <glyph glyph-name="dvJ_NYA" horiz-adv-x="1697" 
d="M1251 0v836h-336q150 -98 150 -293q0 -166 -106 -266.5t-269 -100.5q-101 0 -182.5 37t-130.5 98v-282h-256v577h246q10 -99 77.5 -156t163.5 -57q101 0 158 59.5t57 151.5q0 111 -74 171.5t-184 60.5h-67v211h753v247h-1294v222h1782v-222h-228v-1294h-260z" />
    <glyph glyph-name="dvK" horiz-adv-x="1464" 
d="M887 0v332q-48 -81 -133.5 -127.5t-204.5 -46.5q-194 0 -311 131t-117 346q0 214 119.5 344.5t318.5 130.5q114 0 197 -44.5t131 -121.5v350h-930v222h1921v-222h-737v-354q45 79 125.5 124.5t191.5 45.5q190 0 305 -133.5t115 -341.5h-268q0 109 -65.5 178.5
t-168.5 69.5q-115 0 -175 -78t-60 -189v-616h-254zM637 379q118 0 184 77t66 177q0 102 -64.5 177t-183.5 75q-107 0 -178.5 -69.5t-71.5 -182.5q0 -115 69.5 -184.5t178.5 -69.5z" />
    <glyph glyph-name="dvKH" horiz-adv-x="1376" 
d="M-43 1294v222h1792v-222h-993v-225q0 -206 -94 -313.5t-252 -120.5v-125q0 -131 79 -212t218 -81q175 0 260 139q-131 115 -131 310q0 193 127.5 305t330.5 112t329 -112t126 -305q0 -196 -128.5 -309t-326.5 -113q-72 0 -129 14q-67 -121 -186 -194.5t-279 -73.5
q-255 0 -404 145t-149 406v280h62q137 0 208.5 66t71.5 217v190h-532zM1069 666q0 -101 61.5 -161.5t163.5 -60.5q101 0 162.5 60.5t61.5 161.5t-61 161t-163 60t-163.5 -60t-61.5 -161z" />
    <glyph glyph-name="dvG" horiz-adv-x="1067" 
d="M-43 1294v222h1153v-222h-242v-495q0 -182 -97 -296t-292 -114q-190 0 -293.5 104.5t-103.5 290.5q0 44 2 64h256v-64q0 -74 31.5 -122t101.5 -48q129 0 129 172v508h-645z" />
    <glyph glyph-name="dvGH" horiz-adv-x="815" 
d="M-43 1294v222h1257v-222h-774v-106q0 -97 52.5 -148t169.5 -51h86v-213h-107q-113 0 -169 -48t-56 -126q0 -90 67 -137t176 -47q153 0 242.5 88.5t89.5 226.5h223q0 -148 -65 -267.5t-193 -192t-297 -72.5q-240 0 -376 95.5t-136 278.5q0 119 70 198.5t170 103.5v6
q-211 48 -211 293v118h-219z" />
    <glyph glyph-name="dvNG" horiz-adv-x="1404" 
d="M1231 631q-61 0 -103.5 42t-42.5 101q0 62 42.5 104t103.5 42t103 -42t42 -104q0 -59 -42 -101t-103 -42zM776 -610l-258 438h264l267 -438h-273zM-43 1294v222h1491v-222h-483v-374h-373q-34 0 -63.5 -5.5t-56.5 -19t-42.5 -38.5t-15.5 -60q0 -64 44.5 -93.5
t114.5 -29.5h93q65 0 123.5 -11t113.5 -37.5t94.5 -66.5t63.5 -101.5t24 -138.5q0 -163 -116.5 -259.5t-331.5 -96.5q-228 0 -369.5 105.5t-148.5 289.5h264q1 -90 68 -142t178 -52q99 0 153 43.5t54 114.5q0 87 -60.5 126t-159.5 39h-75q-54 0 -104 7.5t-104 29t-93 56
t-64.5 92.5t-25.5 133q0 78 30 137.5t82.5 94.5t118 52t141.5 17h187v188h-752z" />
    <glyph glyph-name="dvC" horiz-adv-x="915" 
d="M102 852v209h752v-209h-80q-107 0 -174.5 -63t-67.5 -164q0 -105 72.5 -164.5t181.5 -59.5q133 1 213 96t80 242h228q5 -250 -143.5 -404.5t-403.5 -154.5q-138 0 -244.5 44t-169.5 136t-63 220q0 174 127 272h-308zM-43 1294v222h1350v-222h-1350z" />
    <glyph glyph-name="dvCH" horiz-adv-x="1681" 
d="M-43 1294v222h1767v-222h-1288v-161q0 -197 205 -197h41v-213h-37q-120 0 -181 -56t-61 -143q0 -122 106 -187t312 -65q251 0 395 109.5t144 308.5q0 105 -48.5 166.5t-119.5 61.5q-67 0 -114.5 -49t-47.5 -142q0 -72 31 -170h-219q-33 91 -33 199q0 92 31.5 162.5
t86 111.5t122 61.5t145.5 20.5q177 0 287 -114t110 -318q0 -292 -207 -462.5t-565 -170.5q-204 0 -355.5 49t-240 152.5t-88.5 251.5q0 127 67 209t181 114v6q-95 20 -153 92t-58 201v172h-215z" />
    <glyph glyph-name="dvJ" horiz-adv-x="1122" 
d="M565 229q-211 0 -326.5 121t-115.5 320v338h268v-332q0 -99 46 -157t128 -58q85 0 132.5 58t47.5 157v332h691v-226h-432v-112q0 -196 -119 -318.5t-320 -122.5zM-43 1294v222h1479v-222h-1479z" />
    <glyph glyph-name="dvJH" horiz-adv-x="1155" 
d="M434 102v-268h-250v514h238q8 -78 67 -128t160 -50q88 0 134 42.5t46 106.5q0 79 -55.5 123.5t-165.5 44.5h-121q-67 3 -126.5 22t-110 54.5t-80 95.5t-29.5 138q0 82 30 143.5t83 98t119 54t143 17.5h186v184h-745v222h1454v-222h-455v-374h-370q-77 0 -128.5 -28.5
t-51.5 -96.5q0 -62 44 -91.5t117 -29.5h844v-199h-393q55 -74 55 -188q0 -137 -90.5 -224.5t-253.5 -87.5q-187 0 -295 127z" />
    <glyph glyph-name="dvNY" horiz-adv-x="1099" 
d="M590 137q-199 0 -325 106.5t-144 276.5h250q20 -70 78 -115t143 -45q112 0 173.5 76t61.5 191q0 111 -61.5 186.5t-173.5 75.5q-86 0 -144.5 -45.5t-76.5 -114.5h-250q15 171 142 278t327 107q186 0 308 -99.5t155 -266.5h329v-224h-325q-30 -178 -153 -282.5
t-314 -104.5zM-43 1294v222h1425v-222h-1425z" />
    <glyph glyph-name="dvTT" horiz-adv-x="1327" 
d="M829 -514l-258 438h265l266 -438h-273zM-43 1294v222h1411v-222h-385v-409h-252q-152 0 -248 -78.5t-96 -226.5q0 -130 84.5 -211.5t220.5 -81.5q139 0 224 85.5t85 221.5h252q0 -242 -152 -389.5t-405 -147.5t-414 145t-161 378q0 246 161 387t433 141h10v186h-768z" />
    <glyph glyph-name="dvTTH" horiz-adv-x="1378" 
d="M688 295q137 0 222 84t85 215t-85 214t-222 83q-133 0 -218 -83t-85 -214t85 -215t218 -84zM688 74q-160 0 -288 62.5t-203.5 182t-75.5 275.5q0 206 121.5 338.5t312.5 169.5v192h-598v222h1462v-222h-602v-192q193 -36 316.5 -168t123.5 -340q0 -156 -75 -275.5
t-204 -182t-290 -62.5zM827 -498l-258 439h265l266 -439h-273z" />
    <glyph glyph-name="dvDD" horiz-adv-x="1165" 
d="M754 -610l-258 438h264l266 -438h-272zM-43 1294v222h1249v-222h-250v-374h-364q-34 0 -63.5 -5.5t-56.5 -19t-42.5 -38.5t-15.5 -60q0 -64 44.5 -93.5t114.5 -29.5h93q65 0 123.5 -11t113.5 -37.5t94.5 -66.5t63.5 -101.5t24 -138.5q0 -163 -116.5 -259.5t-331.5 -96.5
q-228 0 -369.5 105.5t-148.5 289.5h264q1 -90 68 -142t178 -52q99 0 153 43.5t54 114.5q0 87 -60.5 126t-159.5 39h-75q-54 0 -104 7.5t-104 29t-93 56t-64.5 92.5t-25.5 133q0 78 30 137.5t82.5 94.5t118 52t141.5 17h180v188h-745z" />
    <glyph glyph-name="dvDDH" horiz-adv-x="1331" 
d="M844 -578l-258 439h264l266 -439h-272zM-43 1294v222h1415v-222h-348v-356h-221q-189 0 -307.5 -98.5t-118.5 -282.5q0 -164 104 -267.5t289 -103.5q127 0 210 59.5t83 160.5q0 66 -41.5 108.5t-106.5 42.5q-57 0 -96 -36t-39 -93q0 -22 6 -37h-190q-8 50 -8 74
q0 132 94 207.5t244 75.5q168 0 265 -94.5t97 -247.5q0 -190 -138.5 -300t-385.5 -110q-182 0 -327 66.5t-230.5 197t-85.5 305.5q0 178 79.5 305t212.5 188.5t306 61.5h55v174h-817z" />
    <glyph glyph-name="dvNN" horiz-adv-x="1181" 
d="M-43 1294v222h1266v-222h-191v-532q0 -195 -111.5 -315.5t-318.5 -120.5q-138 0 -236.5 59t-145 155.5t-46.5 221.5v532h-217zM604 549q80 0 124 51.5t44 136.5v557h-340v-557q0 -84 46.5 -136t125.5 -52z" />
    <glyph glyph-name="dvT" horiz-adv-x="792" 
d="M1124 784h-407q-152 0 -240 -73t-88 -211q0 -135 78 -212t227 -77h41v-207h-82q-115 0 -210.5 30.5t-168 90.5t-113 157.5t-40.5 223.5q0 129 45 227.5t125.5 158.5t184.5 90t229 30h419v-228zM-43 1294v222h1167v-222h-1167z" />
    <glyph glyph-name="dvTH" horiz-adv-x="970" 
d="M1382 731q0 -169 -87 -296t-229.5 -191t-317.5 -64q-287 0 -452 153t-165 423q0 75 10 131h187q395 0 395 252q0 73 -43.5 121.5t-116.5 48.5q-78 0 -123 -48.5t-45 -130.5q0 -27 8 -77h-239q-8 54 -8 84q0 187 116 292t293 105q182 0 294 -111.5t112 -292.5
q0 -204 -142.5 -319t-398.5 -115h-43q8 -131 96 -213t258 -82q182 0 298 88.5t116 241.5h227z" />
    <glyph glyph-name="dvD" horiz-adv-x="1249" 
d="M1106 -627l-258 439h264l266 -439h-272zM-43 1294v222h1337l-2 -222h-256v-413h-342q-135 0 -219 -69.5t-84 -195.5q0 -113 67 -179t181 -66q92 0 158.5 57.5t66.5 163.5h244v-647h-258v338q-44 -59 -119 -91t-168 -32q-92 0 -171.5 30t-140 87t-95.5 146.5t-35 201.5
q0 154 73 265t195 164.5t279 53.5h102v186h-813z" />
    <glyph glyph-name="dvDH" horiz-adv-x="876" 
d="M670 172q-148 0 -261 39t-181 123.5t-68 206.5q0 123 72 199t167 96v8q-108 29 -182 115t-74 223q0 158 104 255t267 97q168 0 263 -93.5t95 -244.5q0 -32 -4 -78h-196q2 25 2 45q0 66 -41 108t-111 42t-111.5 -45.5t-41.5 -114.5q0 -99 79 -151t199 -52h121v-213h-109
q-110 0 -170.5 -44.5t-60.5 -123.5q0 -90 76.5 -133t189.5 -43q170 0 263.5 77t93.5 204h231q0 -226 -166.5 -364t-445.5 -138z" />
    <glyph glyph-name="dvN" horiz-adv-x="1048" 
d="M555 178q-188 0 -315 115t-127 307q0 201 131 311.5t334 110.5h804v-221h-481q72 -99 72 -236q0 -181 -119.5 -284t-298.5 -103zM559 401q89 0 146 56.5t57 144.5q0 87 -57 143t-146 56q-92 0 -150.5 -56t-58.5 -145q0 -88 58.5 -143.5t150.5 -55.5zM-43 1294v222h1425
v-222h-1425z" />
    <glyph glyph-name="dvP" horiz-adv-x="733" 
d="M-43 1294v222h1184v-222h-723v-417q0 -139 63.5 -218t192.5 -79q117 0 182.5 77t65.5 191h219q0 -217 -129.5 -354.5t-358.5 -137.5q-161 0 -275.5 67.5t-170 183.5t-55.5 270v417h-195z" />
    <glyph glyph-name="dvPH" horiz-adv-x="1462" 
d="M651 580q111 0 172.5 73t61.5 183v458h-467v-430q0 -133 58 -208.5t175 -75.5zM-43 1294v222h1941v-222h-749v-352q48 77 132.5 122.5t199.5 45.5q198 0 307.5 -131t109.5 -344h-268q0 113 -59.5 180.5t-173.5 67.5q-122 0 -185 -84t-63 -211v-588h-264v489
q-100 -133 -299 -133q-209 0 -321.5 139t-112.5 369v430h-195z" />
    <glyph glyph-name="dvB" horiz-adv-x="813" 
d="M655 143q-243 0 -388.5 140t-145.5 360q0 216 145 353t387 137q131 0 234.5 -41.5t166.5 -111.5t95.5 -155.5t32.5 -179.5q0 -102 -34.5 -192.5t-99 -159.5t-166 -109.5t-227.5 -40.5zM662 950q-121 0 -211 -71l487 -392q37 67 37 150q0 128 -84 220.5t-229 92.5z
M-43 1294v222h1231v-222h-1231zM662 328q122 0 206 71l-489 392q-37 -69 -37 -154q0 -141 93.5 -225t226.5 -84z" />
    <glyph glyph-name="dvBH" horiz-adv-x="1083" 
d="M549 379q82 0 126 57t44 156v135h-146q-89 0 -143.5 -46t-54.5 -128q0 -80 49 -127t125 -47zM553 156q-191 0 -307.5 108.5t-116.5 286.5q0 127 59.5 217t156.5 132t222 42h152v170q0 92 -34 144.5t-105 52.5q-63 0 -102.5 -45t-39.5 -119q0 -37 8 -70h-266q-8 46 -8 80
q0 170 103.5 274.5t293.5 104.5q87 0 154.5 -23.5t113 -65t75 -101t42.5 -128.5t13 -151v-123h409v-215h-409v-121q0 -214 -107 -332t-307 -118z" />
    <glyph glyph-name="dvM" horiz-adv-x="1069" 
d="M506 379q82 0 128 57.5t46 155.5v135h-148q-89 0 -143.5 -46t-54.5 -128q0 -80 48.5 -127t123.5 -47zM-43 1294v222h1411v-222h-442v-352h442v-215h-442v-121q0 -214 -107.5 -332t-308.5 -118q-191 0 -306.5 108.5t-115.5 286.5q0 189 122 290t314 101h156v352h-723z" />
    <glyph glyph-name="dvY" horiz-adv-x="892" 
d="M1327 727q3 -232 -161.5 -385.5t-438.5 -153.5q-280 0 -442 154.5t-162 425.5q0 37 8 115h25q171 0 248 73.5t77 227.5v110h-524v222h1370v-222h-584v-157q0 -177 -88.5 -279t-269.5 -117q0 -155 96.5 -242t255.5 -87q154 0 251 89t97 226h242z" />
    <glyph glyph-name="dvR" horiz-adv-x="1091" 
d="M682 -594l-258 438h264l266 -438h-272zM-43 1294v222h1176v-222h-201v-141q0 -510 -481 -510h-45v-231q0 -93 41 -149t124 -56q76 0 120 52t44 138v52h254q2 -18 2 -43q0 -194 -110.5 -309t-305.5 -115q-208 0 -320 122.5t-112 319.5v434h211q164 0 239 74.5t75 220.5
v141h-711z" />
    <glyph glyph-name="dvL" horiz-adv-x="1327" 
d="M934 831q94 256 366 256q92 0 172 -31.5t140.5 -91t95.5 -152.5t35 -208l-268 -4q0 113 -56.5 184.5t-158.5 71.5q-109 0 -163.5 -81t-54.5 -212v-43h-221v43q0 130 -53 211.5t-158 81.5q-106 0 -163.5 -71t-57.5 -185q0 -127 69.5 -202.5t190.5 -75.5q16 0 56 4v-232
q-54 -4 -70 -4q-244 0 -379 143t-135 371q0 117 35.5 210t97 152t143 90t176.5 31q142 0 229.5 -72t125.5 -184h6zM-43 1294v222h1786v-222h-1786z" />
    <glyph glyph-name="dvV" horiz-adv-x="761" 
d="M651 154q-244 0 -387 135.5t-143 353.5q0 210 144.5 342.5t385.5 132.5q133 0 238.5 -41t169 -110.5t96.5 -154.5t33 -179q0 -73 -20.5 -142t-64.5 -130.5t-106 -107t-151.5 -72.5t-194.5 -27zM657 362q131 0 204 82t73 191q0 111 -72.5 191.5t-204.5 80.5
q-122 0 -201 -74.5t-79 -195.5q0 -125 78 -200t202 -75zM-43 1294v222h1231v-222h-1231z" />
    <glyph glyph-name="dvSH" horiz-adv-x="1120" 
d="M625 -16q-222 0 -346.5 127.5t-124.5 345.5v379h290q76 0 140.5 14.5t117.5 45t83 83t30 123.5q0 93 -49.5 148t-136.5 55q-86 0 -135.5 -55t-49.5 -148q0 -14 1 -39t1 -39h-262q-6 44 -6 86q0 189 123 306.5t328 117.5t328.5 -118t123.5 -331q0 -118 -41.5 -209.5
t-115 -148.5t-171 -86t-212.5 -29h-119v-174q0 -101 47.5 -163t148.5 -62q86 0 135.5 56.5t49.5 150.5v29h258v-33q0 -202 -117 -317t-319 -115z" />
    <glyph glyph-name="dvSS" horiz-adv-x="788" 
d="M678 561q100 0 165 46t89 116l-524 383v-238q0 -147 67 -227t203 -80zM-43 1294v222h1210v-222h-757l757 -542q0 -60 -19.5 -118.5t-61 -112t-99 -94.5t-140.5 -65t-179 -24q-249 0 -382.5 147.5t-133.5 391.5v417h-195z" />
    <glyph glyph-name="dvS" horiz-adv-x="1056" 
d="M-43 1294v222h1333v-222h-403v-155q0 -156 -72 -271h475v-215h-884v-237q0 -94 43 -151.5t129 -57.5q80 0 125 52.5t45 137.5v27h253q3 -24 3 -39q0 -186 -112.5 -294.5t-309.5 -108.5q-210 0 -324.5 124t-114.5 322v414h166q163 0 239.5 79t76.5 218v155h-668z" />
    <glyph glyph-name="dvH" horiz-adv-x="1200" 
d="M1100 145q-19 -163 -146.5 -265.5t-326.5 -102.5q-228 0 -361 129t-133 338q0 122 52 216t147 154q-150 80 -150 240q0 123 89 192.5t241 69.5h205v178h-760v222h1284v-222h-272v-368h-363q-72 0 -117 -29.5t-45 -93.5q0 -81 84 -119q44 8 103 8q211 0 329 -101.5
t140 -262.5h-254q-13 62 -71 107.5t-148 45.5q-107 0 -171.5 -67.5t-64.5 -175.5q0 -109 64.5 -175.5t171.5 -66.5q87 0 145 44t74 105h254zM748 -795l-259 439h265l266 -439h-272z" />
    <glyph glyph-name="dvLL" horiz-adv-x="1996" 
d="M588 141q-130 0 -236 57t-168.5 165t-62.5 247q0 142 62.5 251.5t168 166.5t234.5 57q280 0 409 -251h6q61 123 166 187t242 64q199 0 333 -131t134 -344q0 -139 -62.5 -247t-168.5 -165t-236 -57q-143 0 -251.5 69t-156.5 187h-8q-46 -118 -154 -187t-251 -69zM625 367
q107 0 175 68t68 175q0 109 -67.5 179.5t-175.5 70.5t-177 -69.5t-69 -182.5q0 -108 69.5 -174.5t176.5 -66.5zM1370 367q108 0 177 66.5t69 174.5q0 113 -68 182.5t-176 69.5t-176 -70.5t-68 -179.5q0 -107 67.5 -175t174.5 -68zM-43 1294v222h2081v-222h-2081z" />
    <glyph glyph-name="dvK_SS" horiz-adv-x="1122" 
d="M422 1130q0 -91 67.5 -147t180.5 -59q137 85 137 204q0 77 -55 129t-140 52q-79 0 -134.5 -48t-55.5 -131zM770 -123v318q-35 -53 -104.5 -92.5t-165.5 -39.5q-164 0 -267.5 97t-103.5 252q0 62 18.5 116t46 92.5t72 75.5t84.5 61t96 52q-114 35 -188 121.5t-74 218.5
q0 172 124 279.5t313 107.5q174 0 289.5 -94t115.5 -262q0 -153 -113 -258h463v-193h-717q-54 -25 -82.5 -39.5t-68 -40.5t-59 -49.5t-34 -58t-14.5 -74.5q0 -78 53 -131t138 -53q92 0 146.5 61t54.5 145h219v-612h-242z" />
    <glyph glyph-name="dvJ_NY" horiz-adv-x="1107" 
d="M-43 1294v222h1497v-222h-1497zM498 836v211h956v-211h-539q150 -98 150 -293q0 -166 -106 -266.5t-269 -100.5q-101 0 -182.5 37t-130.5 98v-282h-256v577h246q10 -99 77.5 -156t163.5 -57q101 0 158 59.5t57 151.5q0 111 -74 171.5t-184 60.5h-67z" />
    <glyph glyph-name="dvKx" horiz-adv-x="1464" 
d="M887 0v332q-48 -81 -133.5 -127.5t-204.5 -46.5q-194 0 -311 131t-117 346q0 214 119.5 344.5t318.5 130.5q114 0 197 -44.5t131 -121.5v350h-930v222h1921v-222h-737v-354q45 79 125.5 124.5t191.5 45.5q190 0 305 -133.5t115 -341.5h-268q0 109 -65.5 178.5
t-168.5 69.5q-115 0 -175 -78t-60 -189v-616h-254zM510 -297q-66 0 -113 46t-47 112q0 67 47 114.5t113 47.5q68 0 115 -47.5t47 -114.5q0 -66 -47 -112t-115 -46zM637 379q118 0 184 77t66 177q0 102 -64.5 177t-183.5 75q-107 0 -178.5 -69.5t-71.5 -182.5
q0 -115 69.5 -184.5t178.5 -69.5z" />
    <glyph glyph-name="dvKHx" horiz-adv-x="1376" 
d="M-43 1294v222h1792v-222h-993v-225q0 -206 -94 -313.5t-252 -120.5v-125q0 -131 79 -212t218 -81q175 0 260 139q-131 115 -131 310q0 193 127.5 305t330.5 112t329 -112t126 -305q0 -196 -128.5 -309t-326.5 -113q-72 0 -129 14q-67 -121 -186 -194.5t-279 -73.5
q-255 0 -404 145t-149 406v280h62q137 0 208.5 66t71.5 217v190h-532zM657 -459q-66 0 -112.5 46t-46.5 112q0 67 46.5 114.5t112.5 47.5q67 0 114.5 -47.5t47.5 -114.5q0 -66 -47 -112t-115 -46zM1069 666q0 -101 61.5 -161.5t163.5 -60.5q101 0 162.5 60.5t61.5 161.5
t-61 161t-163 60t-163.5 -60t-61.5 -161z" />
    <glyph glyph-name="dvGx" horiz-adv-x="1067" 
d="M-43 1294v222h1153v-222h-242v-495q0 -182 -97 -296t-292 -114q-190 0 -293.5 104.5t-103.5 290.5q0 44 2 64h256v-64q0 -74 31.5 -122t101.5 -48q129 0 129 172v508h-645zM483 -70q-66 0 -112.5 46t-46.5 112q0 67 46.5 114.5t112.5 47.5q67 0 114.5 -47t47.5 -115
q0 -66 -47 -112t-115 -46z" />
    <glyph glyph-name="dvJx" horiz-adv-x="1122" 
d="M565 229q-211 0 -326.5 121t-115.5 320v338h268v-332q0 -99 46 -157t128 -58q85 0 132.5 58t47.5 157v332h691v-226h-432v-112q0 -196 -119 -318.5t-320 -122.5zM-43 1294v222h1479v-222h-1479zM569 -223q-66 0 -112.5 45.5t-46.5 111.5q0 67 46.5 114.5t112.5 47.5
q67 0 114.5 -47t47.5 -115q0 -66 -47 -111.5t-115 -45.5z" />
    <glyph glyph-name="dvPHx" horiz-adv-x="1462" 
d="M651 580q111 0 172.5 73t61.5 183v458h-467v-430q0 -133 58 -208.5t175 -75.5zM-43 1294v222h1941v-222h-749v-352q48 77 132.5 122.5t199.5 45.5q198 0 307.5 -131t109.5 -344h-268q0 113 -59.5 180.5t-173.5 67.5q-122 0 -185 -84t-63 -211v-588h-264v489
q-100 -133 -299 -133q-209 0 -321.5 139t-112.5 369v430h-195zM489 -88q-66 0 -112.5 46t-46.5 112q0 67 46.5 114t112.5 47q68 0 115 -47t47 -114q0 -66 -47 -112t-115 -46z" />
    <glyph glyph-name="dvReph" horiz-adv-x="0" 
d="M-430 1473v182q0 87 19.5 160t62 134.5t119 96.5t180.5 35q183 0 281 -105.5t90 -285.5h-232q3 78 -33.5 124t-99.5 46q-141 0 -141 -203v-184h-246z" />
    <glyph glyph-name="dvEyelash" horiz-adv-x="677" 
d="M868 739q-57 -35 -138.5 -57.5t-168.5 -22.5q-76 0 -145 14t-133.5 46.5t-112.5 81t-77.5 122.5t-31.5 167h252q2 -64 27 -112t66 -74.5t89 -39t103 -12.5q80 0 170 35zM-43 1294v222h889v-222h-889z" />
    <glyph glyph-name="dvRashtrasign" horiz-adv-x="0" 
d="M-1073 -199l313 367h352l318 -367h-272l-222 267l-221 -267h-268z" />
    <glyph glyph-name="dvK_RA" horiz-adv-x="1998" 
d="M887 0v346q-15 -27 -37 -49l-358 -391h-285l266 280q-158 25 -255 146.5t-97 302.5q0 214 119.5 344.5t318.5 130.5q114 0 197 -44.5t131 -121.5v350h-930v222h2083v-222h-899v-354q45 79 125.5 124.5t191.5 45.5q190 0 305 -133t115 -336q0 -218 -118 -342.5
t-306 -124.5q-72 0 -135 14v209q24 -8 63 -8q100 0 164 66t64 180q0 109 -65.5 178.5t-168.5 69.5q-78 0 -132 -40t-77.5 -98t-25.5 -129v-616h-254zM637 379q118 0 184 77t66 177q0 102 -64.5 177t-183.5 75q-107 0 -178.5 -69.5t-71.5 -182.5q0 -115 69.5 -184.5
t178.5 -69.5z" />
    <glyph glyph-name="dvKH_RA" horiz-adv-x="1945" 
d="M1108 178l-403 -461h-283v15l248 268q-242 9 -382.5 151t-140.5 390v280h62q137 0 208.5 66t71.5 217v190h-532v222h2032v-222h-228v-1294h-262v371q-88 -123 -268 -123q-35 0 -70 6q-8 -13 -53 -76zM1288 451q101 0 156 65t55 154q-2 88 -56 152.5t-155 64.5
q-94 0 -156.5 -58.5t-62.5 -156.5q0 -104 62 -162.5t157 -58.5zM707 217q170 0 254 131q-127 121 -127 324q0 184 112 301t285 117q177 0 268 -123v327h-743v-225q0 -206 -94 -313.5t-252 -120.5v-125q0 -131 79 -212t218 -81z" />
    <glyph glyph-name="dvG_RA" horiz-adv-x="1613" 
d="M1171 0v428l-466 -469h-306l766 737v598h-297v-366q0 -182 -97 -296t-292 -114q-191 0 -294 104t-103 291q0 44 2 64h256v-64q0 -74 31.5 -121t101.5 -47q129 0 129 170v379h-645v222h1700v-222h-227v-1294h-259z" />
    <glyph glyph-name="dvGH_RA" horiz-adv-x="1439" 
d="M659 418q141 0 236.5 87.5t95.5 227.5v561h-551v-100q0 -205 222 -205h86v-213h-107q-113 0 -169 -48t-56 -126q0 -90 67 -137t176 -47zM-43 1294v222h1526v-222h-226v-1294h-266v393q-16 -20 -24 -28h4l-418 -469h-287l307 319q-188 6 -307 99.5t-119 260.5
q0 119 70 198.5t170 103.5v6q-211 48 -211 293v118h-219z" />
    <glyph glyph-name="dvNG_RA" horiz-adv-x="1404" 
d="M1231 631q-61 0 -103.5 42t-42.5 101q0 62 42.5 104t103.5 42t103 -42t42 -104q0 -59 -42 -101t-103 -42zM-43 1294v222h1491v-222h-483v-374h-373q-34 0 -63.5 -5.5t-56.5 -19t-42.5 -38.5t-15.5 -60q0 -64 44.5 -93.5t114.5 -29.5h93q65 0 123.5 -11t113.5 -37.5
t94.5 -66.5t63.5 -101.5t24 -138.5q0 -115 -59 -198.5t-172 -124.5l266 -307h-272l-221 266l-221 -266h-269l264 309q-128 45 -202 137.5t-80 222.5h264q1 -90 68 -142t178 -52q99 0 153 43.5t54 114.5q0 87 -60.5 126t-159.5 39h-75q-54 0 -104 7.5t-104 29t-93 56
t-64.5 92.5t-25.5 133q0 78 30 137.5t82.5 94.5t118 52t141.5 17h187v188h-752z" />
    <glyph glyph-name="dvC_RA" horiz-adv-x="1527" 
d="M-43 1294v222h1614v-222h-228v-1294h-264v369q-29 -44 -67 -72l-348 -391h-287l276 291q-164 16 -267 117t-103 266q0 174 127 272h-308v209h752v-209h-80q-107 0 -174.5 -63t-67.5 -164q0 -105 72.5 -164.5t181.5 -59.5q133 1 213 96t80 242v555h-1122z" />
    <glyph glyph-name="dvCH_RA" horiz-adv-x="1681" 
d="M-43 1294v222h1767v-222h-409v-198q128 -35 202 -142.5t74 -273.5q0 -232 -133 -389.5t-373 -214.5l265 -305h-273l-221 266l-221 -266h-268l247 290q-224 35 -351.5 146.5t-127.5 292.5q0 127 67 209t181 114v6q-95 20 -153 92t-58 201v172h-215zM821 272
q251 0 395 109.5t144 308.5q0 105 -48.5 166.5t-119.5 61.5q-67 0 -114.5 -49t-47.5 -142q0 -72 31 -170h-219q-33 91 -33 199q0 143 72 228.5t190 113.5v196h-635v-161q0 -197 205 -197h41v-213h-37q-120 0 -181 -56t-61 -143q0 -122 106 -187t312 -65z" />
    <glyph glyph-name="dvJ_RA" horiz-adv-x="1744" 
d="M-43 1294v222h1831v-222h-227v-1294h-246v393l-438 -481h-291l723 750v141h-318q-3 -193 -116 -312.5t-310 -119.5q-211 0 -326.5 121.5t-115.5 320.5v203h268v-197q0 -101 45.5 -158t128.5 -57q84 0 132 57.5t48 157.5v197h564v278h-1352z" />
    <glyph glyph-name="dvJH_RA" horiz-adv-x="1916" 
d="M567 674h906v620h-517v-374h-370q-77 0 -128.5 -28.5t-51.5 -96.5q0 -62 44 -91.5t117 -29.5zM1481 0v127l-287 -354h-266l553 643v59h-463q55 -74 55 -188q0 -137 -90.5 -224.5t-253.5 -87.5q-187 0 -295 127v-268h-250v514h238q8 -78 67 -128t160 -50q88 0 134 42.5
t46 106.5q0 79 -55.5 123.5t-165.5 44.5h-121q-67 3 -126.5 22t-110 54.5t-80 95.5t-29.5 138q0 82 30 143.5t83 98t119 54t143 17.5h186v184h-745v222h2001v-222h-225v-1294h-252z" />
    <glyph glyph-name="dvNY_RA" horiz-adv-x="1689" 
d="M-43 1294v222h1868v-222h-228v-1294h-258v205l-338 -379h-268l606 647v92h-280q-24 -177 -149 -283t-320 -106q-200 0 -328.5 107t-140.5 276h250q14 -68 74 -114t147 -46q112 0 173.5 70.5t61.5 177.5q0 103 -61.5 172.5t-173.5 69.5q-86 0 -144.5 -45.5t-76.5 -114.5
h-250q15 171 142 278t327 107q178 0 298 -88t159 -238h286v506h-1376z" />
    <glyph glyph-name="dvTT_RA" horiz-adv-x="1327" 
d="M-43 1294v222h1411v-222h-385v-409h-252q-152 0 -248 -78.5t-96 -226.5q0 -130 84.5 -211.5t220.5 -81.5q139 0 224 85.5t85 221.5h252q0 -179 -86 -310t-239 -188l258 -297h-273l-213 258h-4h-12l-213 -258h-268l254 299q-156 56 -246 183.5t-90 298.5q0 246 161 387
t433 141h10v186h-768z" />
    <glyph glyph-name="dvTTH_RA" horiz-adv-x="1382" 
d="M688 295q137 0 222 84t85 215t-85 214t-222 83q-133 0 -218 -83t-85 -214t85 -215t218 -84zM915 -207l-221 266l-221 -266h-268l268 313q-161 54 -256.5 181.5t-95.5 306.5q0 206 121.5 338.5t312.5 169.5v192h-598v222h1462v-222h-602v-192q193 -36 316.5 -168
t123.5 -340q0 -176 -93 -301.5t-251 -181.5l275 -318h-273z" />
    <glyph glyph-name="dvDD_RA" horiz-adv-x="1165" 
d="M-43 1294v222h1249v-222h-250v-374h-364q-34 0 -63.5 -5.5t-56.5 -19t-42.5 -38.5t-15.5 -60q0 -64 44.5 -93.5t114.5 -29.5h93q65 0 123.5 -11t113.5 -37.5t94.5 -66.5t63.5 -101.5t24 -138.5q0 -118 -61 -202t-178 -123l264 -305h-272l-222 266l-221 -266h-268l268 313
q-126 45 -198 136t-78 220h264q1 -90 68 -142t178 -52q99 0 153 43.5t54 114.5q0 87 -60.5 126t-159.5 39h-75q-54 0 -104 7.5t-104 29t-93 56t-64.5 92.5t-25.5 133q0 78 30 137.5t82.5 94.5t118 52t141.5 17h180v188h-745z" />
    <glyph glyph-name="dvDDH_RA" horiz-adv-x="1331" 
d="M-43 1294v222h1415v-222h-348v-356h-221q-189 0 -307.5 -98.5t-118.5 -282.5q0 -164 104 -267.5t289 -103.5q127 0 210 59.5t83 160.5q0 66 -41.5 108.5t-106.5 42.5q-57 0 -96 -36t-39 -93q0 -22 6 -37h-190q-8 50 -8 74q0 132 94 207.5t244 75.5q168 0 265 -94.5
t97 -247.5q0 -149 -87 -251t-247 -139l256 -297h-272l-221 267l-221 -267h-269l273 320q-174 60 -276.5 196.5t-102.5 329.5q0 178 79.5 305t212.5 188.5t306 61.5h55v174h-817z" />
    <glyph glyph-name="dvNN_RA" horiz-adv-x="1798" 
d="M604 713q80 0 124 52t44 138v391h-340v-391q0 -84 46.5 -137t125.5 -53zM-43 1294v222h1882v-222h-227v-1294h-248v432l-473 -516h-301l764 799v579h-322v-368q0 -195 -111.5 -316t-318.5 -121q-138 0 -236.5 59t-145 156t-46.5 222v368h-217z" />
    <glyph glyph-name="dvT_RA" horiz-adv-x="1441" 
d="M-43 1294v222h1528v-222h-228v-1294h-253v440l-447 -440h-344v12l772 699q-43 68 -118.5 109.5t-168.5 41.5q-134 0 -221.5 -80t-87.5 -223h-264q-4 233 134 372.5t372 139.5q227 0 366 -162v385h-1040z" />
    <glyph glyph-name="dvTH_RA" horiz-adv-x="1603" 
d="M1155 0v418q-34 -66 -94 -115h6l-518 -446h-326v14l393 322q-224 26 -354.5 175.5t-130.5 387.5q0 75 10 131h187q395 0 395 252q0 73 -43.5 121.5t-116.5 48.5q-78 0 -123 -48.5t-45 -130.5q0 -27 8 -77h-239q-8 54 -8 84q0 187 116 292t293 105q182 0 294 -111.5
t112 -292.5q0 -204 -142.5 -319t-398.5 -115h-43q8 -131 96 -213t258 -82q178 0 296 113t118 311v691h492v-222h-228v-1294h-264z" />
    <glyph glyph-name="dvD_RA" horiz-adv-x="1249" 
d="M-43 1294v222h1335v-222h-256v-413h-342q-135 0 -219 -69.5t-84 -195.5q0 -113 67 -179t181 -66q92 0 158.5 57.5t66.5 163.5h244v-647h-258v342q-5 -5 -15.5 -16.5t-15.5 -16.5h2l-358 -391h-287l301 313q-159 27 -257.5 143.5t-98.5 305.5q0 154 73 265t195 164.5
t279 53.5h102v186h-813z" />
    <glyph glyph-name="dvDH_RA" horiz-adv-x="1482" 
d="M1008 328l-416 -467h-289l309 319q-127 0 -228 39.5t-162.5 123t-61.5 198.5q0 123 72 199t167 96v8q-108 29 -182 115t-74 223q0 158 104 255t267 97q168 0 263 -93.5t95 -244.5q0 -32 -4 -78h-196q2 25 2 45q0 66 -41 108t-111 42t-111.5 -45.5t-41.5 -114.5
q0 -99 79 -151t199 -52h121v-213h-109q-110 0 -170.5 -44.5t-60.5 -123.5q0 -86 68.5 -131t183.5 -45q165 0 268 104.5t103 274.5v744h487v-222h-223v-1294h-264v381q-20 -30 -43 -53z" />
    <glyph glyph-name="dvN_RA" horiz-adv-x="1740" 
d="M559 401q89 0 146 56.5t57 144.5q0 87 -57 143t-146 56q-92 0 -150.5 -56t-58.5 -145q0 -88 58.5 -143.5t150.5 -55.5zM-43 1294v222h1825v-222h-226v-1294h-239v299l-412 -469h-289l687 725v246h-402q72 -99 72 -236q0 -170 -119 -278.5t-299 -108.5q-188 0 -315 115
t-127 307q0 201 131 311.5t334 110.5h725v272h-1346z" />
    <glyph glyph-name="dvP_RA" horiz-adv-x="1368" 
d="M670 580q118 0 185 77t67 191v446h-504v-417q0 -139 62 -218t190 -79zM-43 1294v222h1454v-222h-227v-1294h-262v504q-16 -20 -23 -27l-450 -520h-287l385 414q-192 18 -293.5 154.5t-101.5 351.5v417h-195z" />
    <glyph glyph-name="dvPH_RA" horiz-adv-x="2017" 
d="M651 580q111 0 172.5 73t61.5 183v458h-467v-430q0 -133 58 -208.5t175 -75.5zM-43 1294v222h2103v-222h-911v-352q48 77 132.5 122.5t199.5 45.5q188 0 302.5 -130.5t114.5 -330.5q0 -221 -118 -348t-307 -127q-76 0 -144 19v204q38 -10 76 -10q101 0 163 67.5t62 180.5
q0 109 -65 178.5t-168 69.5q-122 0 -185 -84t-63 -211v-588h-264v498q-20 -25 -33 -35l-420 -506h-287l373 416q-177 21 -271.5 153t-94.5 338v430h-195z" />
    <glyph glyph-name="dvB_RA" horiz-adv-x="1409" 
d="M938 272l-358 -393h-281l279 283q-200 14 -328.5 144.5t-128.5 336.5q0 216 140 351.5t355 135.5q227 0 355 -159v323h-1014v222h1493v-222h-223v-1294h-256v311q-30 -36 -33 -39zM672 956q-123 0 -207 -69l485 -391q35 72 35 149q0 128 -84 219.5t-229 91.5zM672 336
q124 0 209 72l-490 391q-39 -70 -39 -156q0 -140 93 -223.5t227 -83.5z" />
    <glyph glyph-name="dvBH_RA" horiz-adv-x="1701" 
d="M549 418q86 0 130 56t44 157v110h-154q-87 0 -141.5 -44.5t-54.5 -121.5q0 -72 49.5 -114.5t126.5 -42.5zM551 199q-189 0 -305.5 103t-116.5 273q0 92 34 165t94 118.5t138.5 69.5t171.5 24h156v160q0 197 -150 197q-64 0 -102.5 -44t-38.5 -118q0 -27 6 -68h-258
q-8 54 -8 82q0 167 103.5 270t293.5 103q105 0 182.5 -35.5t122.5 -100t66 -147.5t21 -186v-113h344v564h481v-222h-230v-1294h-239v303l-471 -473h-291l750 711v200h-344v-94q0 -205 -108 -326.5t-302 -121.5z" />
    <glyph glyph-name="dvM_RA" horiz-adv-x="1683" 
d="M506 426q86 0 131 57.5t45 157.5v127h-156q-86 0 -140 -47t-54 -127q0 -76 49 -122t125 -46zM1245 979v315h-323v-315h323zM-43 1294v222h1767v-222h-227v-1294h-240v305l-473 -475h-290l751 713v225h-323v-115q0 -205 -108 -324.5t-304 -119.5q-189 0 -305.5 105.5
t-116.5 277.5q0 186 122 286.5t314 100.5h158v315h-725z" />
    <glyph glyph-name="dvY_RA" horiz-adv-x="1533" 
d="M729 412q159 0 257.5 97.5t98.5 252.5v532h-342v-157q0 -177 -88.5 -279t-269.5 -117q0 -149 90.5 -239t253.5 -90zM-43 1294v222h1620v-222h-227v-1294h-265v371q-28 -32 -45 -49h4l-518 -449h-321v14l383 314q-222 26 -343.5 176.5t-121.5 390.5q0 37 8 115h25
q171 0 248 73.5t77 227.5v110h-524z" />
    <glyph glyph-name="dvL_RA" horiz-adv-x="1863" 
d="M1229 90q-16 0 -70 4v232q36 -4 55 -4q121 0 191 75.5t70 202.5q0 113 -56.5 184.5t-158.5 71.5q-109 0 -163.5 -81t-54.5 -212v-43h-221v43q0 130 -53 211.5t-158 81.5q-106 0 -163.5 -71t-57.5 -185q0 -127 69.5 -202.5t190.5 -75.5q16 0 56 4v-232q-54 -4 -70 -4
q-244 0 -379 143t-135 371q0 117 35.5 210t97 152t143 90t176.5 31q142 0 229.5 -72t125.5 -184h6q75 207 274 248v215h-1251v222h1948v-222h-437v-235q126 -47 200.5 -164.5t74.5 -290.5q0 -149 -57.5 -264t-175 -182.5t-281.5 -67.5zM844 -373l313 367h352l318 -367h-273
l-221 267l-221 -267h-268z" />
    <glyph glyph-name="dvV_RA" horiz-adv-x="1372" 
d="M653 365q67 0 121.5 24t87.5 63t50.5 85.5t17.5 95.5v2q0 70 -29.5 130t-94 100t-153.5 40q-119 0 -195.5 -74t-76.5 -194q0 -123 76 -197.5t196 -74.5zM1413 1294h-225v-1294h-258v336q-30 -45 -64 -72l-331 -354h-285l262 264q-182 23 -286.5 150t-104.5 319
q0 209 127 342t336 133q232 0 346 -170v346h-973v222h1456v-222z" />
    <glyph glyph-name="dvSH_RA" horiz-adv-x="1720" 
d="M621 885l34 -19q80 62 123 122t43 140q0 76 -50 131t-136 56q-82 0 -134.5 -51.5t-54.5 -124.5q-5 -158 175 -254zM1276 0v311l-133 68l-416 -397h-311v22l532 477l-272 142l-316 -246h-301v31l416 321q-135 83 -205.5 183t-70.5 229q0 171 117 282t311 111
q200 0 318 -107t118 -272q0 -118 -48.5 -207t-160.5 -184l420 -219h2v971h487v-222h-227v-1294h-260z" />
    <glyph glyph-name="dvSS_RA" horiz-adv-x="1392" 
d="M674 561q94 0 159.5 44.5t94.5 119.5l-520 377v-234q0 -142 67 -224.5t199 -82.5zM948 901v393h-538zM-43 1294v222h1479v-222h-228v-1294h-260v487q-19 -28 -51 -53l-448 -477h-287l395 393q-196 20 -300.5 162t-104.5 365v417h-195z" />
    <glyph glyph-name="dvS_RA" horiz-adv-x="1845" 
d="M887 1139q0 -156 -72 -271h592v426h-520v-155zM-43 1294v222h1931v-222h-227v-1294h-231v346l-351 -471h-254l582 727v64h-1014v-279q0 -79 40 -129.5t116 -50.5q67 0 105 51t38 131v27h230q2 -18 2 -41q0 -182 -98.5 -287.5t-274.5 -105.5q-195 0 -301.5 117t-106.5 302
v441h166q163 0 239.5 79t76.5 218v155h-668z" />
    <glyph glyph-name="dvH_RA" horiz-adv-x="1200" 
d="M1100 74q-19 -157 -147 -257t-326 -100q-228 0 -361 137t-133 359q0 130 54 232t151 165q-156 80 -156 244q0 123 89 192.5t241 69.5h205v178h-760v222h1284v-222h-272v-368h-363q-72 0 -117 -29.5t-45 -93.5q0 -83 88 -121q41 8 97 8q174 0 296.5 -84.5t149.5 -214.5
l-192 -209h-236l193 211q-29 40 -80.5 68t-122.5 28q-118 0 -187 -80t-69 -206q0 -124 70.5 -201.5t187.5 -77.5q89 0 148.5 44.5t80.5 105.5h232z" />
    <glyph glyph-name="dvLL_RA" horiz-adv-x="1996" 
d="M625 367q107 0 175 68t68 175q0 109 -67.5 179.5t-175.5 70.5t-177 -69.5t-69 -182.5q0 -108 69.5 -174.5t176.5 -66.5zM1370 367q108 0 177 66.5t69 174.5q0 113 -68 182.5t-176 69.5t-176 -70.5t-68 -179.5q0 -107 67.5 -175t174.5 -68zM1638 -133l-221 266l-221 -266
h-268l272 319q-139 66 -199 211h-8q-46 -118 -154 -187t-251 -69q-130 0 -236 57t-168.5 165t-62.5 247q0 142 62.5 251.5t168 166.5t234.5 57q280 0 409 -251h6q101 201 314 243v217h-1358v222h2081v-222h-467v-235q137 -46 221 -164.5t84 -284.5q0 -144 -66.5 -253.5
t-179.5 -166.5l281 -323h-273z" />
    <glyph glyph-name="dvKx_RA" horiz-adv-x="2134" 
d="M1022 0v344q-12 -17 -41 -51l-354 -387h-285l266 280q-158 25 -255 146.5t-97 302.5q0 214 119.5 344.5t318.5 130.5q224 0 328 -164v348h-1065v222h2220v-222h-901v-352q47 77 127.5 122.5t189.5 45.5q190 0 305 -133t115 -336q0 -218 -118 -342.5t-306 -124.5
q-72 0 -135 14v209q24 -8 66 -8q98 0 161.5 66t63.5 180q0 109 -65 178.5t-169 69.5q-78 0 -132 -40t-77.5 -98t-25.5 -129v-616h-254zM168 -18q-58 0 -99.5 41t-41.5 100q0 61 41 103t100 42q62 0 103.5 -42t41.5 -103q0 -59 -42 -100t-103 -41zM774 379q118 0 183 77
t65 177q0 102 -64.5 177t-183.5 75q-108 0 -179 -69.5t-71 -182.5q0 -115 70 -184.5t180 -69.5z" />
    <glyph glyph-name="dvKHx_RA" horiz-adv-x="1945" 
d="M1108 178l-403 -461h-283v15l248 268q-242 9 -382.5 151t-140.5 390v280h62q137 0 208.5 66t71.5 217v190h-532v222h2032v-222h-228v-1294h-262v371q-88 -123 -268 -123q-35 0 -70 6q-8 -13 -53 -76zM195 -289q-59 0 -100.5 41.5t-41.5 100.5q0 61 41.5 103t100.5 42
q61 0 103 -42t42 -103q0 -59 -42 -100.5t-103 -41.5zM1288 451q101 0 156 65t55 154q-2 88 -56 152.5t-155 64.5q-94 0 -156.5 -58.5t-62.5 -156.5q0 -104 62 -162.5t157 -58.5zM707 217q170 0 254 131q-127 121 -127 324q0 184 112 301t285 117q177 0 268 -123v327h-743
v-225q0 -206 -94 -313.5t-252 -120.5v-125q0 -131 79 -212t218 -81z" />
    <glyph glyph-name="dvGx_RA" horiz-adv-x="1613" 
d="M1171 0v428l-466 -469h-306l766 737v598h-297v-366q0 -182 -97 -296t-292 -114q-191 0 -294 104t-103 291q0 44 2 64h256v-64q0 -74 31.5 -121t101.5 -47q129 0 129 170v379h-645v222h1700v-222h-227v-1294h-259zM209 59q-58 0 -99.5 41.5t-41.5 100.5q0 61 41 103
t100 42q61 0 103 -42t42 -103q0 -59 -42 -100.5t-103 -41.5z" />
    <glyph glyph-name="dvJx_RA" horiz-adv-x="1744" 
d="M-43 1294v222h1831v-222h-227v-1294h-246v393l-438 -481h-291l723 750v141h-318q-3 -193 -116 -312.5t-310 -119.5q-211 0 -326.5 121.5t-115.5 320.5v203h268v-197q0 -101 45.5 -158t128.5 -57q84 0 132 57.5t48 157.5v197h564v278h-1352zM299 -66q-58 0 -99.5 41.5
t-41.5 100.5q0 61 41 103t100 42q61 0 103 -41.5t42 -103.5q0 -59 -42 -100.5t-103 -41.5z" />
    <glyph glyph-name="dvPHx_RA" horiz-adv-x="2168" 
d="M803 580q112 0 172.5 73t60.5 183v458h-467v-430q0 -132 59 -208t175 -76zM-43 1294v222h2255v-222h-909v-350q48 77 131.5 121.5t197.5 44.5q189 0 303.5 -130.5t114.5 -330.5q0 -221 -117.5 -348t-306.5 -127q-71 0 -145 19v204q45 -10 78 -10q100 0 161.5 67.5
t61.5 180.5q0 109 -64.5 178.5t-167.5 69.5q-122 0 -184.5 -83.5t-62.5 -211.5v-588h-267v496q-12 -15 -26 -29l-424 -510h-287l373 416q-178 21 -272.5 153t-94.5 338v430h-348zM180 125q-58 0 -99.5 41.5t-41.5 99.5q0 61 41 103.5t100 42.5q62 0 104 -42t42 -104
q0 -59 -42.5 -100t-103.5 -41z" />
    <glyph glyph-name="dvK_R" horiz-adv-x="1464" 
d="M887 0v346q-15 -27 -37 -49l-358 -391h-285l266 280q-158 25 -255 146.5t-97 302.5q0 214 119.5 344.5t318.5 130.5q114 0 197 -44.5t131 -121.5v350h-930v222h1921v-222h-737v-354q45 79 125.5 124.5t191.5 45.5q190 0 305 -133.5t115 -341.5h-268q0 109 -65.5 178.5
t-168.5 69.5q-78 0 -132 -40t-77.5 -98t-25.5 -129v-616h-254zM637 379q118 0 184 77t66 177q0 102 -64.5 177t-183.5 75q-107 0 -178.5 -69.5t-71.5 -182.5q0 -115 69.5 -184.5t178.5 -69.5z" />
    <glyph glyph-name="dvKH_R" horiz-adv-x="1376" 
d="M-43 1294v222h1792v-222h-993v-225q0 -206 -94 -313.5t-252 -120.5v-125q0 -131 79 -212t218 -81q175 0 260 139q-131 115 -131 310q0 193 127.5 305t330.5 112t329 -112t126 -305q0 -196 -128.5 -309t-326.5 -113q-74 0 -131 14q-20 -36 -55 -80l-403 -461h-283v15
l248 268q-242 9 -382.5 151t-140.5 390v280h62q137 0 208.5 66t71.5 217v190h-532zM1294 444q101 0 162.5 60.5t61.5 161.5t-61 161t-163 60t-163.5 -60t-61.5 -161t61.5 -161.5t163.5 -60.5z" />
    <glyph glyph-name="dvG_R" horiz-adv-x="1067" 
d="M1221 477l-516 -518h-306l822 791v-273zM-43 1294v222h1264v-222h-353v-366q0 -182 -97 -296t-292 -114q-191 0 -294 104t-103 291q0 44 2 64h256v-64q0 -74 31.5 -121t101.5 -47q129 0 129 170v379h-645z" />
    <glyph glyph-name="dvGH_R" horiz-adv-x="815" 
d="M-43 1294v222h1257v-222h-774v-106q0 -97 52.5 -148t169.5 -51h86v-213h-107q-113 0 -169 -48t-56 -126q0 -90 67 -137t176 -47q153 0 242.5 88.5t89.5 226.5h223q0 -117 -43 -219t-122 -174l-394 -444h-284l293 305h-5q-240 0 -376 95.5t-136 278.5q0 119 70 198.5
t170 103.5v6q-211 48 -211 293v118h-219z" />
    <glyph glyph-name="dvNG_R" horiz-adv-x="1404" 
d="M1231 631q-61 0 -103.5 42t-42.5 101q0 62 42.5 104t103.5 42t103 -42t42 -104q0 -59 -42 -101t-103 -42zM758 -797l-258 439h264l266 -439h-272zM-43 1294v222h1491v-222h-483v-374h-373q-34 0 -63.5 -5.5t-56.5 -19t-42.5 -38.5t-15.5 -60q0 -64 44.5 -93.5
t114.5 -29.5h93q65 0 123.5 -11t113.5 -37.5t94.5 -66.5t63.5 -101.5t24 -138.5q0 -115 -59 -198.5t-172 -124.5l266 -307h-272l-221 266l-221 -266h-269l264 309q-128 45 -202 137.5t-80 222.5h264q1 -90 68 -142t178 -52q99 0 153 43.5t54 114.5q0 87 -60.5 126t-159.5 39
h-75q-54 0 -104 7.5t-104 29t-93 56t-64.5 92.5t-25.5 133q0 78 30 137.5t82.5 94.5t118 52t141.5 17h187v188h-752z" />
    <glyph glyph-name="dvC_R" horiz-adv-x="915" 
d="M-43 1294v222h1350v-222h-1350zM102 852v209h752v-209h-80q-107 0 -174.5 -63t-67.5 -164q0 -105 72.5 -164.5t181.5 -59.5q133 1 213 96t80 242h228q3 -136 -43 -248t-134 -186l-350 -399h-284l260 274q-210 2 -341.5 106t-131.5 294q0 174 127 272h-308z" />
    <glyph glyph-name="dvCH_R" horiz-adv-x="1681" 
d="M-43 1294v222h1767v-222h-1288v-161q0 -197 205 -197h41v-213h-37q-120 0 -181 -56t-61 -143q0 -122 106 -187t312 -65q251 0 395 109.5t144 308.5q0 105 -48.5 166.5t-119.5 61.5q-67 0 -114.5 -49t-47.5 -142q0 -72 31 -170h-219q-33 91 -33 199q0 92 31.5 162.5
t86 111.5t122 61.5t145.5 20.5q177 0 287 -114t110 -318q0 -232 -133 -389.5t-373 -214.5l265 -305h-273l-221 266l-221 -266h-268l247 290q-224 35 -351.5 146.5t-127.5 292.5q0 127 67 209t181 114v6q-95 20 -153 92t-58 201v172h-215z" />
    <glyph glyph-name="dvJ_R" horiz-adv-x="1122" 
d="M-43 1294v222h1479v-222h-1479zM877 -88h-291l848 879h-443q-6 -189 -119 -304.5t-307 -115.5q-211 0 -326.5 121.5t-115.5 320.5v203h268v-197q0 -101 45.5 -158t128.5 -57q84 0 132 57.5t48 157.5v197h691v-490z" />
    <glyph glyph-name="dvJH_R" horiz-adv-x="1155" 
d="M434 102v-268h-250v514h238q8 -78 67 -128t160 -50q88 0 134 42.5t46 106.5q0 79 -55.5 123.5t-165.5 44.5h-121q-67 3 -126.5 22t-110 54.5t-80 95.5t-29.5 138q0 82 30 143.5t83 98t119 54t143 17.5h186v184h-745v222h1548v-222h-549v-374h-370q-77 0 -128.5 -28.5
t-51.5 -96.5q0 -62 44 -91.5t117 -29.5h938v-199h-487q55 -74 55 -188q0 -137 -90.5 -224.5t-253.5 -87.5q-187 0 -295 127zM1505 168l-311 -395h-266l577 659v-264z" />
    <glyph glyph-name="dvNY_R" horiz-adv-x="1099" 
d="M590 176q-200 0 -328.5 107t-140.5 276h250q14 -68 74 -114t147 -46q112 0 173.5 70.5t61.5 177.5q0 103 -61.5 172.5t-173.5 69.5q-86 0 -144.5 -45.5t-76.5 -114.5h-250q15 171 142 278t327 107q178 0 298 -88t159 -238h370v-495l-416 -467h-268l682 739h-356
q-24 -177 -149 -283t-320 -106zM-43 1294v222h1460v-222h-1460z" />
    <glyph glyph-name="dvTT_R" horiz-adv-x="1327" 
d="M829 -686l-258 438h265l266 -438h-273zM-43 1294v222h1411v-222h-385v-409h-252q-152 0 -248 -78.5t-96 -226.5q0 -130 84.5 -211.5t220.5 -81.5q139 0 224 85.5t85 221.5h252q0 -179 -86 -310t-239 -188l258 -297h-273l-213 258h-4h-12l-213 -258h-268l254 299
q-156 56 -246 183.5t-90 298.5q0 246 161 387t433 141h10v186h-768z" />
    <glyph glyph-name="dvTTH_R" horiz-adv-x="1382" 
d="M688 295q137 0 222 84t85 215t-85 214t-222 83q-133 0 -218 -83t-85 -214t85 -215t218 -84zM915 -207l-221 266l-221 -266h-268l268 313q-161 54 -256.5 181.5t-95.5 306.5q0 206 121.5 338.5t312.5 169.5v192h-598v222h1462v-222h-602v-192q193 -36 316.5 -168
t123.5 -340q0 -176 -93 -301.5t-251 -181.5l275 -318h-273zM825 -694l-258 438h264l267 -438h-273z" />
    <glyph glyph-name="dvDD_R" horiz-adv-x="1165" 
d="M745 -797l-258 439h265l266 -439h-273zM-43 1294v222h1249v-222h-250v-374h-364q-34 0 -63.5 -5.5t-56.5 -19t-42.5 -38.5t-15.5 -60q0 -64 44.5 -93.5t114.5 -29.5h93q65 0 123.5 -11t113.5 -37.5t94.5 -66.5t63.5 -101.5t24 -138.5q0 -118 -61 -202t-178 -123l264 -305
h-272l-222 266l-221 -266h-268l268 313q-126 45 -198 136t-78 220h264q1 -90 68 -142t178 -52q99 0 153 43.5t54 114.5q0 87 -60.5 126t-159.5 39h-75q-54 0 -104 7.5t-104 29t-93 56t-64.5 92.5t-25.5 133q0 78 30 137.5t82.5 94.5t118 52t141.5 17h180v188h-745z" />
    <glyph glyph-name="dvDDH_R" horiz-adv-x="1331" 
d="M858 -766l-258 438h264l266 -438h-272zM-43 1294v222h1415v-222h-348v-356h-221q-189 0 -307.5 -98.5t-118.5 -282.5q0 -164 104 -267.5t289 -103.5q127 0 210 59.5t83 160.5q0 66 -41.5 108.5t-106.5 42.5q-57 0 -96 -36t-39 -93q0 -22 6 -37h-190q-8 50 -8 74
q0 132 94 207.5t244 75.5q168 0 265 -94.5t97 -247.5q0 -149 -87 -251t-247 -139l256 -297h-272l-221 267l-221 -267h-269l273 320q-174 60 -276.5 196.5t-102.5 329.5q0 178 79.5 305t212.5 188.5t306 61.5h55v174h-817z" />
    <glyph glyph-name="dvNN_R" horiz-adv-x="1181" 
d="M590 -84l784 821v-295l-483 -526h-301zM-43 1294v222h1417v-222h-342v-368q0 -195 -111.5 -316t-318.5 -121q-138 0 -236.5 59t-145 156t-46.5 222v368h-217zM604 713q80 0 124 52t44 138v391h-340v-391q0 -84 46.5 -137t125.5 -53z" />
    <glyph glyph-name="dvT_R" horiz-adv-x="854" 
d="M125 559q0 227 152 370.5t407 143.5q205 0 358 -107.5t205 -291.5l-690 -674h-344v12l772 699q-41 68 -116 109.5t-169 41.5q-135 0 -223 -80t-88 -223h-264zM-43 1294v222h1290v-222h-1290z" />
    <glyph glyph-name="dvTH_R" horiz-adv-x="970" 
d="M1382 731q0 -266 -202 -418l-545 -477h-328v14l408 330q-273 9 -428.5 161t-155.5 415q0 75 10 131h187q395 0 395 252q0 73 -43.5 121.5t-116.5 48.5q-78 0 -123 -48.5t-45 -130.5q0 -27 8 -77h-239q-8 54 -8 84q0 187 116 292t293 105q182 0 294 -111.5t112 -292.5
q0 -204 -142.5 -319t-398.5 -115h-43q8 -131 96 -213t258 -82q182 0 298 88.5t116 241.5h227z" />
    <glyph glyph-name="dvD_R" horiz-adv-x="1249" 
d="M1106 -627l-258 439h264l266 -439h-272zM-43 1294v222h1335v-222h-256v-413h-342q-135 0 -219 -69.5t-84 -195.5q0 -113 67 -179t181 -66q92 0 158.5 57.5t66.5 163.5h244v-647h-258v342q-5 -5 -15.5 -16.5t-15.5 -16.5h2l-358 -391h-287l301 313q-159 27 -257.5 143.5
t-98.5 305.5q0 154 73 265t195 164.5t279 53.5h102v186h-813z" />
    <glyph glyph-name="dvDH_R" horiz-adv-x="876" 
d="M670 172q-148 0 -261 39t-181 123.5t-68 206.5q0 123 72 199t167 96v8q-108 29 -182 115t-74 223q0 158 104 255t267 97q168 0 263 -93.5t95 -244.5q0 -32 -4 -78h-196q2 25 2 45q0 66 -41 108t-111 42t-111.5 -45.5t-41.5 -114.5q0 -99 79 -151t199 -52h121v-213h-109
q-110 0 -170.5 -44.5t-60.5 -123.5q0 -90 76.5 -133t189.5 -43q170 0 263.5 77t93.5 204h231q0 -213 -152 -352l-403 -461h-287l301 313q-25 -2 -71 -2z" />
    <glyph glyph-name="dvN_R" horiz-adv-x="1048" 
d="M555 178q-188 0 -315 115t-127 307q0 201 131 311.5t334 110.5h804v-221h-481q72 -99 72 -236q0 -181 -119.5 -284t-298.5 -103zM559 401q89 0 146 56.5t57 144.5q0 87 -57 143t-146 56q-92 0 -150.5 -56t-58.5 -145q0 -88 58.5 -143.5t150.5 -55.5zM616 -170l766 813
v-276l-477 -537h-289zM-43 1294v222h1425v-222h-1425z" />
    <glyph glyph-name="dvP_R" horiz-adv-x="733" 
d="M-43 1294v222h1184v-222h-723v-417q0 -139 63.5 -218t192.5 -79q117 0 182.5 77t65.5 191h219q0 -120 -42.5 -220t-121.5 -167l-426 -504h-287l373 399q-233 6 -359 148t-126 373v417h-195z" />
    <glyph glyph-name="dvPH_R" horiz-adv-x="1462" 
d="M651 580q111 0 172.5 73t61.5 183v458h-467v-430q0 -133 58 -208.5t175 -75.5zM-43 1294v222h1941v-222h-749v-352q48 77 132.5 122.5t199.5 45.5q198 0 307.5 -131t109.5 -344h-268q0 113 -59.5 180.5t-173.5 67.5q-122 0 -185 -84t-63 -211v-588h-264v498
q-20 -25 -33 -35l-420 -506h-287l373 416q-177 21 -271.5 153t-94.5 338v430h-195z" />
    <glyph glyph-name="dvB_R" horiz-adv-x="813" 
d="M-43 1294v222h1231v-222h-1231zM655 143q-243 0 -388.5 140t-145.5 360q0 216 145 353t387 137q131 0 234.5 -41.5t166.5 -111.5t95.5 -155.5t32.5 -179.5q0 -105 -37 -199.5t-107 -162.5l-360 -404h-268l260 264h-15zM662 950q-121 0 -211 -71l487 -392q37 67 37 150
q0 128 -84 220.5t-229 92.5zM662 328q122 0 206 71l-489 392q-37 -69 -37 -154q0 -141 93.5 -225t226.5 -84z" />
    <glyph glyph-name="dvBH_R" horiz-adv-x="1083" 
d="M549 418q86 0 130 56t44 157v110h-154q-87 0 -141.5 -44.5t-54.5 -121.5q0 -72 49.5 -114.5t126.5 -42.5zM551 199q-189 0 -305.5 103t-116.5 273q0 92 34 165t94 118.5t138.5 69.5t171.5 24h156v160q0 197 -150 197q-64 0 -102.5 -44t-38.5 -118q0 -27 6 -68h-258
q-8 54 -8 82q0 167 103.5 270t293.5 103q105 0 182.5 -35.5t122.5 -100t66 -147.5t21 -186v-113h417v-211h-417v-94q0 -205 -108 -326.5t-302 -121.5zM555 -170l823 776v-239l-532 -537h-291z" />
    <glyph glyph-name="dvM_R" horiz-adv-x="1069" 
d="M506 426q86 0 131 57.5t45 157.5v127h-156q-86 0 -140 -47t-54 -127q0 -76 49 -122t125 -46zM494 -170l870 821v-239l-580 -582h-290zM-43 1294v222h1411v-222h-446v-315h444v-211h-444v-115q0 -205 -108 -324.5t-304 -119.5q-189 0 -305.5 105.5t-116.5 277.5
q0 186 122 286.5t314 100.5h158v315h-725z" />
    <glyph glyph-name="dvY_R" horiz-adv-x="892" 
d="M-43 1294v222h1370v-222h-584v-157q0 -177 -88.5 -279t-269.5 -117q0 -155 96.5 -242t255.5 -87q154 0 251 89t97 226h242q1 -128 -51.5 -237t-151.5 -183l-499 -434h-324v14l373 303q-257 14 -404 167.5t-147 410.5q0 37 8 115h25q171 0 248 73.5t77 227.5v110h-524z
" />
    <glyph glyph-name="dvL_R" horiz-adv-x="1863" 
d="M1229 90q-16 0 -70 4v232q36 -4 55 -4q121 0 191 75.5t70 202.5q0 113 -56.5 184.5t-158.5 71.5q-109 0 -163.5 -81t-54.5 -212v-43h-221v43q0 130 -53 211.5t-158 81.5q-106 0 -163.5 -71t-57.5 -185q0 -127 69.5 -202.5t190.5 -75.5q16 0 56 4v-232q-54 -4 -70 -4
q-244 0 -379 143t-135 371q0 117 35.5 210t97 152t143 90t176.5 31q142 0 229.5 -72t125.5 -184h6q75 207 274 248v215h-1251v222h1948v-222h-437v-235q126 -47 200.5 -164.5t74.5 -290.5q0 -149 -57.5 -264t-175 -182.5t-281.5 -67.5zM844 -373l313 367h352l318 -367h-273
l-221 267l-221 -267h-268zM1458 -858l-258 438h264l267 -438h-273z" />
    <glyph glyph-name="dvV_R" horiz-adv-x="761" 
d="M657 365q129 0 201 81.5t72 188.5q0 110 -71.5 190t-201.5 80q-120 0 -198 -74t-78 -194q0 -123 77 -197.5t199 -74.5zM651 154q-244 0 -387 135.5t-143 353.5q0 210 144.5 342.5t385.5 132.5q133 0 238.5 -41t169 -110.5t96.5 -154.5t33 -179q0 -95 -35 -182.5
t-104 -153.5l-369 -416h-279l267 273h-17zM-43 1294v222h1231v-222h-1231z" />
    <glyph glyph-name="dvSH_R" horiz-adv-x="1050" 
d="M621 885l34 -17q81 64 123.5 122.5t42.5 137.5q0 76 -50 131t-136 56q-82 0 -134.5 -51.5t-54.5 -124.5q-5 -158 175 -254zM59 377v31l418 323q-136 84 -207 183t-71 227q0 171 117 282t311 111q200 0 318 -107t118 -272q0 -117 -48 -206.5t-159 -184.5l291 -150v-233
l-420 -399h-317v16l540 483l-274 142l-316 -246h-301z" />
    <glyph glyph-name="dvSS_R" horiz-adv-x="788" 
d="M678 561q100 0 165 46t89 116l-524 383v-238q0 -147 67 -227t203 -80zM-43 1294v222h1210v-222h-757l757 -542q0 -154 -110 -267l-496 -528h-287l385 381q-246 3 -376.5 149.5t-130.5 389.5v417h-195z" />
    <glyph glyph-name="dvS_R" horiz-adv-x="1056" 
d="M825 -125l512 635v-287l-258 -348h-254zM-43 1294v222h1380v-222h-450v-155q0 -156 -72 -271h522v-202h-944v-279q0 -79 40 -129.5t116 -50.5q67 0 105 51t38 131v27h230q2 -18 2 -41q0 -182 -98.5 -287.5t-274.5 -105.5q-195 0 -301.5 117t-106.5 302v441h166
q163 0 239.5 79t76.5 218v155h-668z" />
    <glyph glyph-name="dvH_R" horiz-adv-x="1200" 
d="M1100 74q-19 -157 -147 -257t-326 -100q-228 0 -361 137t-133 359q0 130 54 232t151 165q-156 80 -156 244q0 123 89 192.5t241 69.5h205v178h-760v222h1284v-222h-272v-368h-363q-72 0 -117 -29.5t-45 -93.5q0 -83 88 -121q41 8 97 8q174 0 296.5 -84.5t149.5 -214.5
l-192 -209h-236l193 211q-29 40 -80.5 68t-122.5 28q-118 0 -187 -80t-69 -206q0 -124 70.5 -201.5t187.5 -77.5q89 0 148.5 44.5t80.5 105.5h232zM745 -856l-258 438h265l266 -438h-273z" />
    <glyph glyph-name="dvLL_R" horiz-adv-x="1996" 
d="M588 141q-130 0 -236 57t-168.5 165t-62.5 247q0 142 62.5 251.5t168 166.5t234.5 57q280 0 409 -251h6q61 123 166 187t242 64q199 0 333 -131t134 -344q0 -144 -66.5 -253.5t-179.5 -166.5l281 -323h-273l-221 266l-221 -266h-268l272 319q-139 66 -199 211h-8
q-46 -118 -154 -187t-251 -69zM625 367q107 0 175 68t68 175q0 109 -67.5 179.5t-175.5 70.5t-177 -69.5t-69 -182.5q0 -108 69.5 -174.5t176.5 -66.5zM1370 367q108 0 177 66.5t69 174.5q0 113 -68 182.5t-176 69.5t-176 -70.5t-68 -179.5q0 -107 67.5 -175t174.5 -68z
M-43 1294v222h2081v-222h-2081z" />
    <glyph glyph-name="dvKx_R" horiz-adv-x="1599" 
d="M1022 0v344q-12 -17 -41 -51l-354 -387h-285l266 280q-158 25 -255 146.5t-97 302.5q0 214 119.5 344.5t318.5 130.5q224 0 328 -164v348h-1065v222h2056v-222h-737v-352q47 77 127.5 122.5t189.5 45.5q190 0 305 -133.5t115 -341.5h-268q0 109 -65 178.5t-169 69.5
q-78 0 -132 -40t-77.5 -98t-25.5 -129v-616h-254zM168 -18q-58 0 -99.5 41t-41.5 100q0 61 41 103t100 42q62 0 103.5 -42t41.5 -103q0 -59 -42 -100t-103 -41zM774 379q118 0 183 77t65 177q0 102 -64.5 177t-183.5 75q-108 0 -179 -69.5t-71 -182.5q0 -115 70 -184.5
t180 -69.5z" />
    <glyph glyph-name="dvKHx_R" horiz-adv-x="1376" 
d="M-43 1294v222h1792v-222h-993v-225q0 -206 -94 -313.5t-252 -120.5v-125q0 -131 79 -212t218 -81q175 0 260 139q-131 115 -131 310q0 193 127.5 305t330.5 112t329 -112t126 -305q0 -196 -128.5 -309t-326.5 -113q-74 0 -131 14q-20 -36 -55 -80l-403 -461h-283v15
l248 268q-242 9 -382.5 151t-140.5 390v280h62q137 0 208.5 66t71.5 217v190h-532zM195 -289q-59 0 -100.5 41.5t-41.5 100.5q0 61 41.5 103t100.5 42q61 0 103 -42t42 -103q0 -59 -42 -100.5t-103 -41.5zM1294 444q101 0 162.5 60.5t61.5 161.5t-61 161t-163 60t-163.5 -60
t-61.5 -161t61.5 -161.5t163.5 -60.5z" />
    <glyph glyph-name="dvGx_R" horiz-adv-x="1067" 
d="M1221 477l-516 -518h-306l822 791v-273zM-43 1294v222h1264v-222h-353v-366q0 -182 -97 -296t-292 -114q-191 0 -294 104t-103 291q0 44 2 64h256v-64q0 -74 31.5 -121t101.5 -47q129 0 129 170v379h-645zM209 59q-58 0 -99.5 41.5t-41.5 100.5q0 61 41 103t100 42
q61 0 103 -42t42 -103q0 -59 -42 -100.5t-103 -41.5z" />
    <glyph glyph-name="dvJx_R" horiz-adv-x="1122" 
d="M-43 1294v222h1479v-222h-1479zM877 -88h-291l848 879h-443q-6 -189 -119 -304.5t-307 -115.5q-211 0 -326.5 121.5t-115.5 320.5v203h268v-197q0 -101 45.5 -158t128.5 -57q84 0 132 57.5t48 157.5v197h691v-490zM299 -66q-58 0 -99.5 41.5t-41.5 100.5q0 61 41 103
t100 42q61 0 103 -41.5t42 -103.5q0 -59 -42 -100.5t-103 -41.5z" />
    <glyph glyph-name="dvPHx_R" horiz-adv-x="1615" 
d="M803 580q112 0 172.5 73t60.5 183v458h-467v-430q0 -132 59 -208t175 -76zM-43 1294v222h2093v-222h-747v-350q48 77 131.5 121.5t197.5 44.5q198 0 308 -131t110 -344h-268q0 112 -60 180t-172 68q-122 0 -184.5 -83.5t-62.5 -211.5v-588h-267v496q-12 -15 -26 -29
l-424 -510h-287l373 416q-178 21 -272.5 153t-94.5 338v430h-348zM180 125q-58 0 -99.5 41.5t-41.5 99.5q0 61 41 103.5t100 42.5q62 0 104 -42t42 -104q0 -59 -42.5 -100t-103.5 -41z" />
    <glyph glyph-name="dvK_KA" horiz-adv-x="3471" 
d="M1141 1294v-350q43 77 121 121.5t188 44.5q170 0 281 -111q117 111 299 111q114 0 196.5 -44.5t130.5 -121.5v350h-1216zM637 379q118 0 184 77t66 177q0 102 -64.5 177t-183.5 75q-107 0 -178.5 -69.5t-71.5 -182.5q0 -115 69.5 -184.5t178.5 -69.5zM2357 0v332
q-48 -81 -133.5 -127.5t-204.5 -46.5q-194 0 -311 131t-117 346v31q-8 98 -68.5 157.5t-154.5 59.5q-78 0 -131 -39.5t-74.5 -97.5t-21.5 -130v-616h-254v332q-48 -81 -133.5 -127.5t-204.5 -46.5q-194 0 -311 131t-117 346q0 214 119.5 344.5t318.5 130.5q114 0 197 -44.5
t131 -121.5v350h-930v222h3553v-222h-899v-354q45 79 126 124.5t192 45.5q190 0 304.5 -132.5t114.5 -336.5q0 -218 -117.5 -342.5t-305.5 -124.5q-73 0 -136 14v209q24 -8 64 -8q99 0 163 66t64 180q0 109 -65 178.5t-168 69.5q-59 0 -105.5 -22.5t-74.5 -60.5t-42 -85
t-14 -99v-616h-254zM2107 379q118 0 184 77t66 177q0 102 -64.5 177t-183.5 75q-99 0 -168.5 -60.5t-78.5 -160.5v-29h-2v-2q0 -115 69 -184.5t178 -69.5z" />
    <glyph glyph-name="dvKx_KxA" horiz-adv-x="3471" 
d="M1141 1294v-350q43 77 121 121.5t188 44.5q169 0 268 -123q120 123 312 123q114 0 196.5 -44.5t130.5 -121.5v350h-1216zM510 -297q-66 0 -113 46t-47 112q0 67 47 114.5t113 47.5q68 0 115 -47.5t47 -114.5q0 -66 -47 -112t-115 -46zM1982 -297q-66 0 -112.5 46
t-46.5 112q0 67 46.5 114.5t112.5 47.5q68 0 115 -47.5t47 -114.5q0 -66 -47 -112t-115 -46zM637 379q118 0 184 77t66 177q0 102 -64.5 177t-183.5 75q-107 0 -178.5 -69.5t-71.5 -182.5q0 -115 69.5 -184.5t178.5 -69.5zM2107 379q118 0 184 77t66 177q0 102 -64.5 177
t-183.5 75q-107 0 -178 -69.5t-71 -182.5q0 -115 69 -184.5t178 -69.5zM2357 0v332q-48 -81 -133.5 -127.5t-204.5 -46.5q-194 0 -311 131t-117 346v31q-8 98 -68.5 157.5t-154.5 59.5q-78 0 -131 -39.5t-74.5 -97.5t-21.5 -130v-616h-254v332q-48 -81 -133.5 -127.5
t-204.5 -46.5q-194 0 -311 131t-117 346q0 214 119.5 344.5t318.5 130.5q114 0 197 -44.5t131 -121.5v350h-930v222h3553v-222h-899v-354q45 79 126 124.5t192 45.5q190 0 304.5 -132.5t114.5 -336.5q0 -218 -117.5 -342.5t-305.5 -124.5q-73 0 -136 14v209q24 -8 64 -8
q99 0 163 66t64 180q0 109 -65 178.5t-168 69.5q-59 0 -105.5 -22.5t-74.5 -60.5t-42 -85t-14 -99v-616h-254z" />
    <glyph glyph-name="dvK_KHA" horiz-adv-x="3389" 
d="M1450 1096q133 0 222 -66t130 -182q131 61 131 256v190h-792v-358q43 74 121.5 117t187.5 43zM637 379q118 0 184 77t66 177q0 102 -64.5 177t-183.5 75q-107 0 -178.5 -69.5t-71.5 -182.5q0 -115 69.5 -184.5t178.5 -69.5zM2943 0v371q-91 -123 -268 -123q-26 0 -66 4
q-71 -119 -188.5 -190.5t-276.5 -71.5q-254 0 -402.5 140t-148.5 384v121q0 110 -61.5 179t-163.5 69q-78 0 -131 -39.5t-74.5 -97.5t-21.5 -130v-616h-254v332q-48 -81 -133.5 -127.5t-204.5 -46.5q-194 0 -311 131t-117 346q0 214 119.5 344.5t318.5 130.5
q114 0 197 -44.5t131 -121.5v350h-930v222h3475v-222h-227v-1294h-262zM2732 451q100 0 155.5 65t55.5 154q-2 88 -56 152.5t-155 64.5q-92 0 -154.5 -58.5t-62.5 -156.5q0 -104 61.5 -162.5t155.5 -58.5zM2150 217q172 0 256 131q-129 120 -129 324q0 184 112.5 301
t285.5 117q178 0 268 -125v329h-745v-225q0 -206 -93 -313.5t-250 -120.5v-125q0 -131 78.5 -212t216.5 -81z" />
    </font>
</defs>
</svg>
